  0
SECTION
  2
HEADER
  9
$ACADVER
  1
AC1021
  9
$ACADMAINTVER
 70
    25
  9
$DWGCODEPAGE
  3
ANSI_1251
  9
$INSBASE
 10
0.0
 20
0.0
 30
0.0
  9
$EXTMIN
 10
0.0
 20
0.0
 30
0.0
  9
$EXTMAX
 10
1680.0
 20
2376.0
 30
0.0
  9
$LIMMIN
 10
0.0
 20
0.0
  9
$LIMMAX
 10
1680.0
 20
2376.0
  9
$ORTHOMODE
 70
     0
  9
$REGENMODE
 70
     1
  9
$FILLMODE
 70
     1
  9
$QTEXTMODE
 70
     0
  9
$MIRRTEXT
 70
     1
  9
$LTSCALE
 40
8.0
  9
$ATTMODE
 70
     1
  9
$TEXTSIZE
 40
28.0
  9
$TRACEWID
 40
1.0
  9
$TEXTSTYLE
  7
STANDARD
  9
$CLAYER
  8
0
  9
$CELTYPE
  6
ByLayer
  9
$CECOLOR
 62
   256
  9
$CELTSCALE
 40
1.0
  9
$DISPSILH
 70
     0
  9
$DIMSCALE
 40
1.0
  9
$DIMASZ
 40
28.0
  9
$DIMEXO
 40
0.08
  9
$DIMDLI
 40
3.75
  9
$DIMRND
 40
0.0
  9
$DIMDLE
 40
0.0
  9
$DIMEXE
 40
8.0
  9
$DIMTP
 40
0.0
  9
$DIMTM
 40
0.0
  9
$DIMTXT
 40
28.0
  9
$DIMCEN
 40
2.5
  9
$DIMTSZ
 40
0.0
  9
$DIMTOL
 70
     0
  9
$DIMLIM
 70
     0
  9
$DIMTIH
 70
     1
  9
$DIMTOH
 70
     1
  9
$DIMSE1
 70
     0
  9
$DIMSE2
 70
     0
  9
$DIMTAD
 70
     1
  9
$DIMZIN
 70
     0
  9
$DIMBLK
  1

  9
$DIMASO
 70
     1
  9
$DIMSHO
 70
     1
  9
$DIMPOST
  1

  9
$DIMAPOST
  1

  9
$DIMALT
 70
     0
  9
$DIMALTD
 70
     3
  9
$DIMALTF
 40
0.0393700787
  9
$DIMLFAC
 40
1.0
  9
$DIMTOFL
 70
     1
  9
$DIMTVP
 40
0.0
  9
$DIMTIX
 70
     0
  9
$DIMSOXD
 70
     0
  9
$DIMSAH
 70
     0
  9
$DIMBLK1
  1

  9
$DIMBLK2
  1

  9
$DIMSTYLE
  2
ISO-25
  9
$DIMCLRD
 70
     0
  9
$DIMCLRE
 70
     0
  9
$DIMCLRT
 70
     0
  9
$DIMTFAC
 40
1.0
  9
$DIMGAP
 40
24.0
  9
$DIMJUST
 70
     0
  9
$DIMSD1
 70
     0
  9
$DIMSD2
 70
     0
  9
$DIMTOLJ
 70
     0
  9
$DIMTZIN
 70
     0
  9
$DIMALTZ
 70
     0
  9
$DIMALTTZ
 70
     0
  9
$DIMUPT
 70
     0
  9
$DIMDEC
 70
     2
  9
$DIMTDEC
 70
     3
  9
$DIMALTU
 70
     2
  9
$DIMALTTD
 70
     3
  9
$DIMTXSTY
  7
STANDARD
  9
$DIMAUNIT
 70
     0
  9
$DIMADEC
 70
     2
  9
$DIMALTRND
 40
0.0
  9
$DIMAZIN
 70
     0
  9
$DIMDSEP
 70
    44
  9
$DIMATFIT
 70
     3
  9
$DIMFRAC
 70
     0
  9
$DIMLDRBLK
  1

  9
$DIMLUNIT
 70
     2
  9
$DIMLWD
 70
    -2
  9
$DIMLWE
 70
    -2
  9
$DIMTMOVE
 70
     0
  9
$DIMFXL
 40
1.0
  9
$DIMFXLON
 70
     0
  9
$DIMJOGANG
 40
0.7853981634
  9
$DIMTFILL
 70
     0
  9
$DIMTFILLCLR
 70
     0
  9
$DIMARCSYM
 70
     0
  9
$DIMLTYPE
  6

  9
$DIMLTEX1
  6

  9
$DIMLTEX2
  6

  9
$LUNITS
 70
     2
  9
$LUPREC
 70
     2
  9
$SKETCHINC
 40
1.0
  9
$FILLETRAD
 40
10.0
  9
$AUNITS
 70
     0
  9
$AUPREC
 70
     2
  9
$MENU
  1
.
  9
$ELEVATION
 40
0.0
  9
$PELEVATION
 40
0.0
  9
$THICKNESS
 40
0.0
  9
$LIMCHECK
 70
     0
  9
$CHAMFERA
 40
0.0
  9
$CHAMFERB
 40
0.0
  9
$CHAMFERC
 40
0.0
  9
$CHAMFERD
 40
0.0
  9
$SKPOLY
 70
     0
  9
$TDCREATE
 40
2457904.463795232
  9
$TDUCREATE
 40
2457904.338795232
  9
$TDUPDATE
 40
2457904.46379956
  9
$TDUUPDATE
 40
2457904.33879956
  9
$TDINDWG
 40
0.0000000116
  9
$TDUSRTIMER
 40
0.0000000116
  9
$USRTIMER
 70
     1
  9
$ANGBASE
 50
0.0
  9
$ANGDIR
 70
     0
  9
$PDMODE
 70
     0
  9
$PDSIZE
 40
-1.0
  9
$PLINEWID
 40
0.0
  9
$SPLFRAME
 70
     0
  9
$SPLINETYPE
 70
     6
  9
$SPLINESEGS
 70
     8
  9
$HANDSEED
  5
431
  9
$SURFTAB1
 70
     6
  9
$SURFTAB2
 70
     6
  9
$SURFTYPE
 70
     6
  9
$SURFU
 70
     6
  9
$SURFV
 70
     6
  9
$UCSBASE
  2

  9
$UCSNAME
  2

  9
$UCSORG
 10
0.0
 20
0.0
 30
0.0
  9
$UCSXDIR
 10
1.0
 20
0.0
 30
0.0
  9
$UCSYDIR
 10
0.0
 20
1.0
 30
0.0
  9
$UCSORTHOREF
  2

  9
$UCSORTHOVIEW
 70
     0
  9
$UCSORGTOP
 10
0.0
 20
0.0
 30
0.0
  9
$UCSORGBOTTOM
 10
0.0
 20
0.0
 30
0.0
  9
$UCSORGLEFT
 10
0.0
 20
0.0
 30
0.0
  9
$UCSORGRIGHT
 10
0.0
 20
0.0
 30
0.0
  9
$UCSORGFRONT
 10
0.0
 20
0.0
 30
0.0
  9
$UCSORGBACK
 10
0.0
 20
0.0
 30
0.0
  9
$PUCSBASE
  2

  9
$PUCSNAME
  2

  9
$PUCSORG
 10
0.0
 20
0.0
 30
0.0
  9
$PUCSXDIR
 10
1.0
 20
0.0
 30
0.0
  9
$PUCSYDIR
 10
0.0
 20
1.0
 30
0.0
  9
$PUCSORTHOREF
  2

  9
$PUCSORTHOVIEW
 70
     0
  9
$PUCSORGTOP
 10
0.0
 20
0.0
 30
0.0
  9
$PUCSORGBOTTOM
 10
0.0
 20
0.0
 30
0.0
  9
$PUCSORGLEFT
 10
0.0
 20
0.0
 30
0.0
  9
$PUCSORGRIGHT
 10
0.0
 20
0.0
 30
0.0
  9
$PUCSORGFRONT
 10
0.0
 20
0.0
 30
0.0
  9
$PUCSORGBACK
 10
0.0
 20
0.0
 30
0.0
  9
$USERI1
 70
     0
  9
$USERI2
 70
     0
  9
$USERI3
 70
     0
  9
$USERI4
 70
     0
  9
$USERI5
 70
     0
  9
$USERR1
 40
0.0
  9
$USERR2
 40
0.0
  9
$USERR3
 40
0.0
  9
$USERR4
 40
0.0
  9
$USERR5
 40
0.0
  9
$WORLDVIEW
 70
     1
  9
$SHADEDGE
 70
     3
  9
$SHADEDIF
 70
    70
  9
$TILEMODE
 70
     1
  9
$MAXACTVP
 70
    64
  9
$PINSBASE
 10
0.0
 20
0.0
 30
0.0
  9
$PLIMCHECK
 70
     0
  9
$PEXTMIN
 10
1.0000000000E+20
 20
1.0000000000E+20
 30
1.0000000000E+20
  9
$PEXTMAX
 10
-1.0000000000E+20
 20
-1.0000000000E+20
 30
-1.0000000000E+20
  9
$PLIMMIN
 10
0.0
 20
0.0
  9
$PLIMMAX
 10
420.0
 20
297.0
  9
$UNITMODE
 70
     0
  9
$VISRETAIN
 70
     1
  9
$PLINEGEN
 70
     0
  9
$PSLTSCALE
 70
     1
  9
$TREEDEPTH
 70
  3020
  9
$CMLSTYLE
  2
Standard
  9
$CMLJUST
 70
     0
  9
$CMLSCALE
 40
20.0
  9
$PROXYGRAPHICS
 70
     1
  9
$MEASUREMENT
 70
     1
  9
$CELWEIGHT
370
    -1
  9
$ENDCAPS
280
     0
  9
$JOINSTYLE
280
     0
  9
$LWDISPLAY
290
     1
  9
$INSUNITS
 70
     4
  9
$HYPERLINKBASE
  1

  9
$STYLESHEET
  1

  9
$XEDIT
290
     1
  9
$CEPSNTYPE
380
     0
  9
$PSTYLEMODE
290
     1
  9
$FINGERPRINTGUID
  2
{FDF49E68-3B43-4AE5-8EB1-714C0794E277}
  9
$VERSIONGUID
  2
{FAEB1C32-E019-11D5-929B-00C0DF256EC4}
  9
$EXTNAMES
290
     1
  9
$PSVPSCALE
 40
0.0
  9
$OLESTARTUP
290
     0
  9
$SORTENTS
280
   127
  9
$INDEXCTL
280
     0
  9
$HIDETEXT
280
     1
  9
$XCLIPFRAME
290
     0
  9
$HALOGAP
280
     0
  9
$OBSCOLOR
 70
   257
  9
$OBSLTYPE
280
     0
  9
$INTERSECTIONDISPLAY
280
     0
  9
$INTERSECTIONCOLOR
 70
   257
  9
$DIMASSOC
280
     2
  9
$PROJECTNAME
  1

  9
$CAMERADISPLAY
290
     0
  9
$LENSLENGTH
 40
50.0
  9
$CAMERAHEIGHT
 40
0.0
  9
$STEPSPERSEC
 40
2.0
  9
$STEPSIZE
 40
6.0
  9
$3DDWFPREC
 40
2.0
  9
$PSOLWIDTH
 40
5.0
  9
$PSOLHEIGHT
 40
80.0
  9
$LOFTANG1
 40
1.5707963268
  9
$LOFTANG2
 40
1.5707963268
  9
$LOFTMAG1
 40
0.0
  9
$LOFTMAG2
 40
0.0
  9
$LOFTPARAM
 70
     7
  9
$LOFTNORMALS
280
     1
  9
$LATITUDE
 40
37.795
  9
$LONGITUDE
 40
-122.394
  9
$NORTHDIRECTION
 40
0.0
  9
$TIMEZONE
 70
 -8000
  9
$LIGHTGLYPHDISPLAY
280
     1
  9
$TILEMODELIGHTSYNCH
280
     1
  9
$CMATERIAL
347
44
  9
$SOLIDHIST
280
     0
  9
$SHOWHIST
280
     1
  9
$DWFFRAME
280
     2
  9
$DGNFRAME
280
     2
  9
$REALWORLDSCALE
290
     1
  9
$INTERFERECOLOR
 62
   256
  9
$CSHADOW
280
     0
  9
$SHADOWPLANELOCATION
 40
0.0
  0
ENDSEC
  0
SECTION
  2
CLASSES
  0
CLASS
  1
ACDBDICTIONARYWDFLT
  2
AcDbDictionaryWithDefault
  3
ObjectDBX Classes
 90
        0
 91
        4
280
     0
281
     0
  0
CLASS
  1
VISUALSTYLE
  2
AcDbVisualStyle
  3
ObjectDBX Classes
 90
     4095
 91
        4
280
     0
281
     0
  0
CLASS
  1
MATERIAL
  2
AcDbMaterial
  3
ObjectDBX Classes
 90
     1153
 91
        4
280
     0
281
     0
  0
CLASS
  1
SCALE
  2
AcDbScale
  3
ObjectDBX Classes
 90
     1153
 91
        4
280
     0
281
     0
  0
CLASS
  1
TABLESTYLE
  2
AcDbTableStyle
  3
ObjectDBX Classes
 90
     4095
 91
        4
280
     0
281
     0
  0
CLASS
  1
MLEADERSTYLE
  2
AcDbMLeaderStyle
  3
ACDB_MLEADERSTYLE_CLASS
 90
     4095
 91
        4
280
     0
281
     0
  0
CLASS
  1
SUN
  2
AcDbSun
  3
SCENEOE
 90
     1153
 91
        4
280
     0
281
     0
  0
CLASS
  1
DICTIONARYVAR
  2
AcDbDictionaryVar
  3
ObjectDBX Classes
 90
        0
 91
        4
280
     0
281
     0
  0
CLASS
  1
CELLSTYLEMAP
  2
AcDbCellStyleMap
  3
ObjectDBX Classes
 90
     1152
 91
        4
280
     0
281
     0
  0
ENDSEC
  0
SECTION
  2
TABLES
  0
TABLE
  2
VPORT
  5
8
330
0
100
AcDbSymbolTable
 70
     1
  0
VPORT
  5
29
330
8
100
AcDbSymbolTableRecord
100
AcDbViewportTableRecord
  2
*Active
 70
     0
 10
0.0
 20
0.0
 11
1.0
 21
1.0
 12
840.0
 22
1188.0
 13
0.0
 23
0.0
 14
10.0
 24
10.0
 15
10.0
 25
10.0
 16
0.0
 26
0.0
 36
1.0
 17
0.0
 27
0.0
 37
0.0
 40
2376.0
 41
0.7070707071
 42
50.0
 43
0.0
 44
0.0
 50
0.0
 51
0.0
 71
     0
 72
  2000
 73
     1
 74
     3
 75
     0
 76
     0
 77
     0
 78
     0
281
     0
 65
     1
110
0.0
120
0.0
130
0.0
111
1.0
121
0.0
131
0.0
112
0.0
122
1.0
132
0.0
 79
     0
146
0.0
348
2F
 60
     3
 61
     5
292
     1
282
     1
141
0.0
142
0.0
 63
   250
361
6D
  0
ENDTAB
  0
TABLE
  2
LTYPE
  5
5
330
0
100
AcDbSymbolTable
 70
     6
  0
LTYPE
  5
14
330
5
100
AcDbSymbolTableRecord
100
AcDbLinetypeTableRecord
  2
ByBlock
 70
     0
  3

 72
    65
 73
     0
 40
0.0
  0
LTYPE
  5
15
330
5
100
AcDbSymbolTableRecord
100
AcDbLinetypeTableRecord
  2
ByLayer
 70
     0
  3

 72
    65
 73
     0
 40
0.0
  0
LTYPE
  5
16
330
5
100
AcDbSymbolTableRecord
100
AcDbLinetypeTableRecord
  2
Continuous
 70
     0
  3
Solid line
 72
    65
 73
     0
 40
0.0
  0
LTYPE
  5
6E
330
5
100
AcDbSymbolTableRecord
100
AcDbLinetypeTableRecord
  2
HIDDEN
 70
     0
  3
Hidden __ __ __ __ __ __ __ __ __ __ __ __ __ __
 72
    65
 73
     2
 40
1.905
 49
1.27
 74
     0
 49
-0.635
 74
     0
  0
LTYPE
  5
6F
330
5
100
AcDbSymbolTableRecord
100
AcDbLinetypeTableRecord
  2
PHANTOM
 70
     0
  3
Phantom ______  __  __  ______  __  __  ______
 72
    65
 73
     6
 40
12.7
 49
6.35
 74
     0
 49
-1.27
 74
     0
 49
1.27
 74
     0
 49
-1.27
 74
     0
 49
1.27
 74
     0
 49
-1.27
 74
     0
  0
LTYPE
  5
70
330
5
100
AcDbSymbolTableRecord
100
AcDbLinetypeTableRecord
  2
CENTER
 70
     0
  3
Center ____ _ ____ _ ____ _ ____ _ ____ _ ____
 72
    65
 73
     4
 40
10.16
 49
6.35
 74
     0
 49
-1.27
 74
     0
 49
1.27
 74
     0
 49
-1.27
 74
     0
  0
LTYPE
  5
71
330
5
100
AcDbSymbolTableRecord
100
AcDbLinetypeTableRecord
  2
CENTERX2
 70
     0
  3
Center (2x) ________  __  ________  __  _____
 72
    65
 73
     4
 40
20.32
 49
12.7
 74
     0
 49
-2.54
 74
     0
 49
2.54
 74
     0
 49
-2.54
 74
     0
  0
LTYPE
  5
72
330
5
100
AcDbSymbolTableRecord
100
AcDbLinetypeTableRecord
  2
DOT2
 70
     0
  3
Dot (.5x) ........................................
 72
    65
 73
     2
 40
0.635
 49
0.0
 74
     0
 49
-0.635
 74
     0
  0
ENDTAB
  0
TABLE
  2
LAYER
  5
2
330
0
100
AcDbSymbolTable
 70
     7
  0
LAYER
  5
10
330
2
100
AcDbSymbolTableRecord
100
AcDbLayerTableRecord
  2
0
 70
     0
 62
     7
  6
Continuous
370
    -3
390
F
347
46
  0
LAYER
  5
73
330
2
100
AcDbSymbolTableRecord
100
AcDbLayerTableRecord
  2
THIN_LINE
 70
     0
 62
     7
  6
Continuous
370
    -3
390
F
347
46
  0
LAYER
  5
74
330
2
100
AcDbSymbolTableRecord
100
AcDbLayerTableRecord
  2
THICK_LINE
 70
     0
 62
     7
  6
Continuous
370
    25
390
F
347
46
  0
LAYER
  5
75
330
2
100
AcDbSymbolTableRecord
100
AcDbLayerTableRecord
  2
ПОДЧЕРКТИПОРАЗМЕР
 70
     0
 62
    -7
  6
Continuous
290
     0
370
    -3
390
F
347
46
  0
LAYER
  5
76
330
2
100
AcDbSymbolTableRecord
100
AcDbLayerTableRecord
  2
THIN_LIONE
 70
     0
 62
     7
  6
Continuous
370
    -3
390
F
347
46
  0
LAYER
  5
77
330
2
100
AcDbSymbolTableRecord
100
AcDbLayerTableRecord
  2
THICK_LIONE
 70
     0
 62
     7
  6
Continuous
370
    25
390
F
347
46
  0
LAYER
  5
78
330
2
100
AcDbSymbolTableRecord
100
AcDbLayerTableRecord
  2
ПОДЧЕРКТИПАРАЗМЕР
 70
     0
 62
    -7
  6
Continuous
290
     0
370
    -3
390
F
347
46
  0
ENDTAB
  0
TABLE
  2
STYLE
  5
3
330
0
100
AcDbSymbolTable
 70
     6
  0
STYLE
  5
11
330
3
100
AcDbSymbolTableRecord
100
AcDbTextStyleTableRecord
  2
STANDARD
 70
     0
 40
0.0
 41
1.0
 50
0.0
 71
     0
 42
28.0
  3
ARIAL.TTF
  4

1001
ACAD
1000
ARIAL
1071
       34
  0
STYLE
  5
A1
330
3
100
AcDbSymbolTableRecord
100
AcDbTextStyleTableRecord
  2
SLDTEXTSTYLE0
 70
     0
 40
0.0
 41
1.0
 50
0.0
 71
     0
 42
28.0
  3
GOSTA.TTF
  4
bigfont
1001
ACAD
1000
GOST 2.304 A
1071
 16777474
  0
STYLE
  5
AE
330
3
100
AcDbSymbolTableRecord
100
AcDbTextStyleTableRecord
  2
SLDTEXTSTYLE1
 70
     0
 40
0.0
 41
1.0
 50
0.0
 71
     0
 42
28.0
  3
GOSTA.TTF
  4

1001
ACAD
1000
GOST 2.304 A
1071
 16777474
  0
STYLE
  5
B5
330
3
100
AcDbSymbolTableRecord
100
AcDbTextStyleTableRecord
  2
SLDTEXTSTYLE2
 70
     0
 40
0.0
 41
0.6
 50
0.0
 71
     0
 42
28.0
  3
GOSTA.TTF
  4
bigfont
1001
ACAD
1000
GOST 2.304 A
1071
 16777474
  0
STYLE
  5
D1
330
3
100
AcDbSymbolTableRecord
100
AcDbTextStyleTableRecord
  2
SLDTEXTSTYLE3
 70
     0
 40
0.0
 41
1.0
 50
0.0
 71
     0
 42
28.0
  3
ARIBLK.TTF
  4

1001
ACAD
1000
Arial Black
1071
      290
  0
STYLE
  5
3CA
330
3
100
AcDbSymbolTableRecord
100
AcDbTextStyleTableRecord
  2
SLDTEXTSTYLE4
 70
     0
 40
0.0
 41
0.948
 50
0.0
 71
     0
 42
28.0
  3
ARIAL.TTF
  4

1001
ACAD
1000
Arial
1071
      290
  0
ENDTAB
  0
TABLE
  2
VIEW
  5
6
330
0
100
AcDbSymbolTable
 70
     0
  0
ENDTAB
  0
TABLE
  2
UCS
  5
7
330
0
100
AcDbSymbolTable
 70
     0
  0
ENDTAB
  0
TABLE
  2
APPID
  5
9
330
0
100
AcDbSymbolTable
 70
     2
  0
APPID
  5
12
330
9
100
AcDbSymbolTableRecord
100
AcDbRegAppTableRecord
  2
ACAD
 70
     0
  0
APPID
  5
42B
330
9
100
AcDbSymbolTableRecord
100
AcDbRegAppTableRecord
  2
ACAD_MLEADERVER
 70
     0
  0
ENDTAB
  0
TABLE
  2
DIMSTYLE
  5
A
330
0
100
AcDbSymbolTable
 70
     4
100
AcDbDimStyleTable
  0
DIMSTYLE
105
27
330
A
100
AcDbSymbolTableRecord
100
AcDbDimStyleTableRecord
  2
ISO-25
 70
     0
 41
2.5
 42
0.625
 43
3.75
 44
1.25
 73
     0
 74
     0
 77
     1
 78
     8
140
2.5
141
2.5
143
0.0393700787
147
0.625
171
     3
172
     1
178
     0
271
     2
272
     2
274
     3
278
    44
283
     0
284
     8
340
11
  0
DIMSTYLE
105
3CB
102
{ACAD_REACTORS
330
3C9
330
3D5
330
3DF
102
}
330
A
100
AcDbSymbolTableRecord
100
AcDbDimStyleTableRecord
  2
SLDDIMSTYLE0
 70
     0
 41
28.0
 44
0.0
 45
0.000000001
 73
     0
 74
     0
 77
     2
 78
    12
 79
     3
140
28.0
147
7.0
173
     1
178
     0
271
     2
272
     3
276
     2
284
    12
340
3CA
  0
DIMSTYLE
105
3EF
330
A
100
AcDbSymbolTableRecord
100
AcDbDimStyleTableRecord
  2
SLDDIMSTYLE1
 70
     0
 41
8.6153846154
 44
0.0
 45
0.000000001
146
8.6153846154
147
0.0
173
     1
178
     0
271
     0
272
     0
276
     2
340
11
341
3F0
343
3F0
344
3F0
  0
DIMSTYLE
105
3FD
330
A
100
AcDbSymbolTableRecord
100
AcDbDimStyleTableRecord
  2
SLDDIMSTYLE2
 70
     0
 41
28.0
 44
0.0
 45
0.000000001
146
28.0
147
0.0
173
     1
178
     0
271
     0
272
     0
276
     2
340
11
  0
ENDTAB
  0
TABLE
  2
BLOCK_RECORD
  5
1
330
0
100
AcDbSymbolTable
 70
    18
  0
BLOCK_RECORD
  5
1F
330
1
100
AcDbSymbolTableRecord
100
AcDbBlockTableRecord
  2
*Model_Space
340
22
 70
     0
280
     1
281
     0
  0
BLOCK_RECORD
  5
1B
330
1
100
AcDbSymbolTableRecord
100
AcDbBlockTableRecord
  2
*Paper_Space
340
1E
 70
     0
280
     1
281
     0
  0
BLOCK_RECORD
  5
23
330
1
100
AcDbSymbolTableRecord
100
AcDbBlockTableRecord
  2
*Paper_Space0
340
26
 70
     0
280
     1
281
     0
  0
BLOCK_RECORD
  5
9E
330
1
100
AcDbSymbolTableRecord
100
AcDbBlockTableRecord
  2
SW_NOTE_0
340
0
102
{BLKREFS
331
A4
102
}
 70
     0
280
     1
281
     0
  0
BLOCK_RECORD
  5
A7
330
1
100
AcDbSymbolTableRecord
100
AcDbBlockTableRecord
  2
SW_NOTE_1
340
0
102
{BLKREFS
331
B2
102
}
 70
     0
280
     1
281
     0
  0
BLOCK_RECORD
  5
AA
330
1
100
AcDbSymbolTableRecord
100
AcDbBlockTableRecord
  2
SW_SYMBOL_GWLD_NUM
340
0
102
{BLKREFS
331
B0
331
BB
331
C3
331
C9
102
}
 70
     0
280
     1
281
     0
  0
BLOCK_RECORD
  5
B7
330
1
100
AcDbSymbolTableRecord
100
AcDbBlockTableRecord
  2
SW_NOTE_2
340
0
102
{BLKREFS
331
BD
102
}
 70
     0
280
     1
281
     0
  0
BLOCK_RECORD
  5
BF
330
1
100
AcDbSymbolTableRecord
100
AcDbBlockTableRecord
  2
SW_NOTE_3
340
0
102
{BLKREFS
331
C4
102
}
 70
     0
280
     1
281
     0
  0
BLOCK_RECORD
  5
C5
330
1
100
AcDbSymbolTableRecord
100
AcDbBlockTableRecord
  2
SW_NOTE_4
340
0
102
{BLKREFS
331
CB
102
}
 70
     0
280
     1
281
     0
  0
BLOCK_RECORD
  5
3CC
330
1
100
AcDbSymbolTableRecord
100
AcDbBlockTableRecord
  2
_D
340
0
 70
     0
280
     1
281
     0
  0
BLOCK_RECORD
  5
3D6
330
1
100
AcDbSymbolTableRecord
100
AcDbBlockTableRecord
  2
_D_1
340
0
 70
     0
280
     1
281
     0
  0
BLOCK_RECORD
  5
3E0
330
1
100
AcDbSymbolTableRecord
100
AcDbBlockTableRecord
  2
_D_2
340
0
 70
     0
280
     1
281
     0
  0
BLOCK_RECORD
  5
3E9
330
1
100
AcDbSymbolTableRecord
100
AcDbBlockTableRecord
  2
SW_NOTE_5
340
0
102
{BLKREFS
331
3EE
102
}
 70
     0
280
     1
281
     0
  0
BLOCK_RECORD
  5
3F0
330
1
100
AcDbSymbolTableRecord
100
AcDbBlockTableRecord
  2
_Dot
340
0
 70
     0
280
     1
281
     0
  0
BLOCK_RECORD
  5
3F6
330
1
100
AcDbSymbolTableRecord
100
AcDbBlockTableRecord
  2
SW_NOTE_6
340
0
102
{BLKREFS
331
3FC
102
}
 70
     0
280
     1
281
     0
  0
BLOCK_RECORD
  5
3FF
330
1
100
AcDbSymbolTableRecord
100
AcDbBlockTableRecord
  2
SW_NOTE_7
340
0
102
{BLKREFS
331
405
102
}
 70
     0
280
     1
281
     0
  0
BLOCK_RECORD
  5
408
330
1
100
AcDbSymbolTableRecord
100
AcDbBlockTableRecord
  2
SW_NOTE_8
340
0
102
{BLKREFS
331
40D
102
}
 70
     0
280
     1
281
     0
  0
BLOCK_RECORD
  5
40F
330
1
100
AcDbSymbolTableRecord
100
AcDbBlockTableRecord
  2
SW_NOTE_9
340
0
102
{BLKREFS
331
414
102
}
 70
     0
280
     1
281
     0
  0
BLOCK_RECORD
  5
416
330
1
100
AcDbSymbolTableRecord
100
AcDbBlockTableRecord
  2
SW_NOTE_10
340
0
102
{BLKREFS
331
41C
102
}
 70
     0
280
     1
281
     0
  0
BLOCK_RECORD
  5
41E
330
1
100
AcDbSymbolTableRecord
100
AcDbBlockTableRecord
  2
SW_NOTE_11
340
0
102
{BLKREFS
331
424
102
}
 70
     0
280
     1
281
     0
  0
ENDTAB
  0
ENDSEC
  0
SECTION
  2
BLOCKS
  0
BLOCK
  5
20
330
1F
100
AcDbEntity
  8
0
100
AcDbBlockBegin
  2
*Model_Space
 70
     0
 10
0.0
 20
0.0
 30
0.0
  3
*Model_Space
  1

  0
ENDBLK
  5
21
330
1F
100
AcDbEntity
  8
0
100
AcDbBlockEnd
  0
BLOCK
  5
1C
330
1B
100
AcDbEntity
 67
     1
  8
0
100
AcDbBlockBegin
  2
*Paper_Space
 70
     0
 10
0.0
 20
0.0
 30
0.0
  3
*Paper_Space
  1

  0
ENDBLK
  5
1D
330
1B
100
AcDbEntity
 67
     1
  8
0
100
AcDbBlockEnd
  0
BLOCK
  5
24
330
23
100
AcDbEntity
  8
0
100
AcDbBlockBegin
  2
*Paper_Space0
 70
     0
 10
0.0
 20
0.0
 30
0.0
  3
*Paper_Space0
  1

  0
ENDBLK
  5
25
330
23
100
AcDbEntity
  8
0
100
AcDbBlockEnd
  0
BLOCK
  5
9F
330
9E
100
AcDbEntity
  8
0
100
AcDbBlockBegin
  2
SW_NOTE_0
 70
     0
 10
0.0
 20
0.0
 30
0.0
  3
SW_NOTE_0
  1

  0
MTEXT
  5
A2
330
9E
100
AcDbEntity
  8
THICK_LINE
 62
     0
100
AcDbMText
 10
0.0
 20
37.3777449047
 30
0.0
 40
29.6333333333
 41
0.0
 46
0.0
 71
     1
 72
     1
  1
Примечание: Кабели питания закрепляются к ломкой стойке с помощью пластиковой 
  7
SLDTEXTSTYLE0
 73
     1
 44
1.0
  0
MTEXT
  5
A3
330
9E
100
AcDbEntity
  8
THICK_LINE
 62
     0
100
AcDbMText
 10
0.0
 20
-10.1333670402
 30
0.0
 40
29.6333333333
 41
0.0
 46
0.0
 71
     1
 72
     1
  1
              стяжки ниже соединительных коннекторов.
  7
SLDTEXTSTYLE0
 73
     1
 44
1.0
  0
ENDBLK
  5
A0
330
9E
100
AcDbEntity
  8
0
100
AcDbBlockEnd
  0
BLOCK
  5
A8
330
A7
100
AcDbEntity
  8
0
100
AcDbBlockBegin
  2
SW_NOTE_1
 70
     0
 10
0.0
 20
0.0
 30
0.0
  3
SW_NOTE_1
  1

  0
INSERT
  5
B0
330
A7
100
AcDbEntity
  8
0
  6
Continuous
 62
     0
370
     0
100
AcDbBlockReference
  2
SW_SYMBOL_GWLD_NUM
 10
0.0
 20
3.6587771203
 30
0.0
 41
0.0044146943
 42
0.0044146943
 43
0.0044146943
  0
MTEXT
  5
B1
330
A7
100
AcDbEntity
  8
0
  6
Continuous
 62
     0
370
     0
100
AcDbMText
 10
45.0216680765
 20
35.3175542406
 30
0.0
 40
28.0
 41
0.0
 46
0.0
 71
     1
 72
     1
  1
 докум
  7
SLDTEXTSTYLE0
 73
     1
 44
1.0
  0
ENDBLK
  5
A9
330
A7
100
AcDbEntity
  8
0
100
AcDbBlockEnd
  0
BLOCK
  5
AB
330
AA
100
AcDbEntity
  8
0
100
AcDbBlockBegin
  2
SW_SYMBOL_GWLD_NUM
 70
     0
 10
0.0
 20
0.0
 30
0.0
  3
SW_SYMBOL_GWLD_NUM
  1

  0
CIRCLE
  5
AD
330
AA
100
AcDbEntity
  8
0
  6
Continuous
 62
     0
370
     0
100
AcDbCircle
 10
8400.0
 20
6600.0
 30
0.0
 40
1000.0
  0
MTEXT
  5
AF
330
AA
100
AcDbEntity
  8
0
  6
Continuous
 62
     0
370
     0
100
AcDbMText
 10
3200.0
 20
4000.0
 30
0.0
 40
6342.4550430023
 41
0.0
 46
0.0
 71
     5
 72
     1
  1
N
  7
SLDTEXTSTYLE1
 73
     1
 44
1.0
  0
ENDBLK
  5
AC
330
AA
100
AcDbEntity
  8
0
100
AcDbBlockEnd
  0
BLOCK
  5
B8
330
B7
100
AcDbEntity
  8
0
100
AcDbBlockBegin
  2
SW_NOTE_2
 70
     0
 10
0.0
 20
0.0
 30
0.0
  3
SW_NOTE_2
  1

  0
MTEXT
  5
BA
330
B7
100
AcDbEntity
  8
0
  6
Continuous
 62
     0
370
     0
100
AcDbMText
 10
-25.2268244576
 20
0.0
 30
0.0
 40
20.0
 41
0.0
 46
0.0
 71
     1
 72
     1
  1
Инв.
  7
SLDTEXTSTYLE2
 11
-3.491481338843133E-15
 21
1.0
 31
0.0
 73
     1
 44
1.0
  0
INSERT
  5
BB
330
B7
100
AcDbEntity
  8
0
  6
Continuous
 62
     0
370
     0
100
AcDbBlockReference
  2
SW_SYMBOL_GWLD_NUM
 10
-2.6134122288
 20
53.6111071706
 30
0.0
 41
0.0031533531
 42
0.0031533531
 43
0.0031533531
 50
90.0
  0
MTEXT
  5
BC
330
B7
100
AcDbEntity
  8
0
  6
Continuous
 62
     0
370
     0
100
AcDbMText
 10
-25.2268244576
 20
85.7694447041
 30
0.0
 40
20.0
 41
0.0
 46
0.0
 71
     1
 72
     1
  1
подл.
  7
SLDTEXTSTYLE2
 11
-3.491481338843133E-15
 21
1.0
 31
0.0
 73
     1
 44
1.0
  0
ENDBLK
  5
B9
330
B7
100
AcDbEntity
  8
0
100
AcDbBlockEnd
  0
BLOCK
  5
C0
330
BF
100
AcDbEntity
  8
0
100
AcDbBlockBegin
  2
SW_NOTE_3
 70
     0
 10
0.0
 20
0.0
 30
0.0
  3
SW_NOTE_3
  1

  0
MTEXT
  5
C2
330
BF
100
AcDbEntity
  8
0
  6
Continuous
 62
     0
370
     0
100
AcDbMText
 10
-25.2268244576
 20
0.0
 30
0.0
 40
20.0
 41
0.0
 46
0.0
 71
     1
 72
     1
  1
Взам. инв. 
  7
SLDTEXTSTYLE2
 11
-3.491481338843133E-15
 21
1.0
 31
0.0
 73
     1
 44
1.0
  0
INSERT
  5
C3
330
BF
100
AcDbEntity
  8
0
  6
Continuous
 62
     0
370
     0
100
AcDbBlockReference
  2
SW_SYMBOL_GWLD_NUM
 10
-2.6134122288
 20
143.7722146511
 30
0.0
 41
0.0031533531
 42
0.0031533531
 43
0.0031533531
 50
90.0
  0
ENDBLK
  5
C1
330
BF
100
AcDbEntity
  8
0
100
AcDbBlockEnd
  0
BLOCK
  5
C6
330
C5
100
AcDbEntity
  8
0
100
AcDbBlockBegin
  2
SW_NOTE_4
 70
     0
 10
0.0
 20
0.0
 30
0.0
  3
SW_NOTE_4
  1

  0
MTEXT
  5
C8
330
C5
100
AcDbEntity
  8
0
  6
Continuous
 62
     0
370
     0
100
AcDbMText
 10
-25.2268244576
 20
0.0
 30
0.0
 40
20.0
 41
0.0
 46
0.0
 71
     1
 72
     1
  1
Инв. 
  7
SLDTEXTSTYLE2
 11
-3.491481338843133E-15
 21
1.0
 31
0.0
 73
     1
 44
1.0
  0
INSERT
  5
C9
330
C5
100
AcDbEntity
  8
0
  6
Continuous
 62
     0
370
     0
100
AcDbBlockReference
  2
SW_SYMBOL_GWLD_NUM
 10
-2.6134122288
 20
65.722219646
 30
0.0
 41
0.0031533531
 42
0.0031533531
 43
0.0031533531
 50
90.0
  0
MTEXT
  5
CA
330
C5
100
AcDbEntity
  8
0
  6
Continuous
 62
     0
370
     0
100
AcDbMText
 10
-25.2268244576
 20
97.8805571795
 30
0.0
 40
20.0
 41
0.0
 46
0.0
 71
     1
 72
     1
  1
 дубл.
  7
SLDTEXTSTYLE2
 11
-3.491481338843133E-15
 21
1.0
 31
0.0
 73
     1
 44
1.0
  0
ENDBLK
  5
C7
330
C5
100
AcDbEntity
  8
0
100
AcDbBlockEnd
  0
BLOCK
  5
3CD
330
3CC
100
AcDbEntity
  8
0
100
AcDbBlockBegin
  2
_D
 70
     0
 10
0.0
 20
0.0
 30
0.0
  3
_D
  1

  0
SOLID
  5
3CF
330
3CC
100
AcDbEntity
  8
THICK_LINE
 62
     7
100
AcDbTrace
 10
336.5817613446
 20
1346.035542596
 30
0.0
 11
332.2740690369
 21
1318.035542596
 31
0.0
 12
340.8894536523
 22
1318.035542596
 32
0.0
 13
340.8894536523
 23
1318.035542596
 33
0.0
  0
SOLID
  5
3D0
330
3CC
100
AcDbEntity
  8
THICK_LINE
 62
     7
100
AcDbTrace
 10
336.5817613446
 20
746.035542596
 30
0.0
 11
340.8894536523
 21
774.035542596
 31
0.0
 12
332.2740690369
 22
774.035542596
 32
0.0
 13
332.2740690369
 23
774.035542596
 33
0.0
  0
LINE
  5
3D1
330
3CC
100
AcDbEntity
  8
THICK_LINE
 62
     7
100
AcDbLine
 10
379.3566367291
 20
1346.035542596
 30
0.0
 11
328.5817613446
 21
1346.035542596
 31
0.0
  0
LINE
  5
3D2
330
3CC
100
AcDbEntity
  8
THICK_LINE
 62
     7
100
AcDbLine
 10
379.3566367291
 20
746.035542596
 30
0.0
 11
328.5817613446
 21
746.035542596
 31
0.0
  0
LINE
  5
3D3
330
3CC
100
AcDbEntity
  8
THICK_LINE
 62
     7
100
AcDbLine
 10
336.5817613446
 20
1346.035542596
 30
0.0
 11
336.5817613446
 21
746.035542596
 31
0.0
  0
MTEXT
  5
3D4
330
3CC
100
AcDbEntity
  8
THICK_LINE
 62
     7
100
AcDbMText
 10
300.4878627683
 20
975.0421249234
 30
0.0
 40
28.0
 41
0.0
 46
0.0
 71
     1
 72
     1
  1
600
  7
SLDTEXTSTYLE4
 11
-7.044195017643634E-15
 21
1.0
 31
0.0
 73
     1
 44
1.0
  0
ENDBLK
  5
3CE
330
3CC
100
AcDbEntity
  8
0
100
AcDbBlockEnd
  0
BLOCK
  5
3D7
330
3D6
100
AcDbEntity
  8
0
100
AcDbBlockBegin
  2
_D_1
 70
     0
 10
0.0
 20
0.0
 30
0.0
  3
_D_1
  1

  0
SOLID
  5
3D9
330
3D6
100
AcDbEntity
  8
THICK_LINE
 62
     7
100
AcDbTrace
 10
249.5889044813
 20
646.035542596
 30
0.0
 11
253.896596789
 21
674.035542596
 31
0.0
 12
245.2812121736
 22
674.035542596
 32
0.0
 13
245.2812121736
 23
674.035542596
 33
0.0
  0
SOLID
  5
3DA
330
3D6
100
AcDbEntity
  8
THICK_LINE
 62
     7
100
AcDbTrace
 10
249.5889044813
 20
1346.035542596
 30
0.0
 11
245.2812121736
 21
1318.035542596
 31
0.0
 12
253.896596789
 22
1318.035542596
 32
0.0
 13
253.896596789
 23
1318.035542596
 33
0.0
  0
LINE
  5
3DB
330
3D6
100
AcDbEntity
  8
THICK_LINE
 62
     7
100
AcDbLine
 10
904.3566367291
 20
646.035542596
 30
0.0
 11
241.5889044813
 21
646.035542596
 31
0.0
  0
LINE
  5
3DC
330
3D6
100
AcDbEntity
  8
THICK_LINE
 62
     7
100
AcDbLine
 10
379.3566367291
 20
1346.035542596
 30
0.0
 11
241.5889044813
 21
1346.035542596
 31
0.0
  0
LINE
  5
3DD
330
3D6
100
AcDbEntity
  8
THICK_LINE
 62
     7
100
AcDbLine
 10
249.5889044813
 20
646.035542596
 30
0.0
 11
249.5889044813
 21
1346.035542596
 31
0.0
  0
MTEXT
  5
3DE
330
3D6
100
AcDbEntity
  8
THICK_LINE
 62
     7
100
AcDbMText
 10
213.495005905
 20
975.0421249234
 30
0.0
 40
28.0
 41
0.0
 46
0.0
 71
     1
 72
     1
  1
700
  7
SLDTEXTSTYLE4
 11
6.123233995736766E-17
 21
1.0
 31
0.0
 73
     1
 44
1.0
  0
ENDBLK
  5
3D8
330
3D6
100
AcDbEntity
  8
0
100
AcDbBlockEnd
  0
BLOCK
  5
3E1
330
3E0
100
AcDbEntity
  8
0
100
AcDbBlockBegin
  2
_D_2
 70
     0
 10
0.0
 20
0.0
 30
0.0
  3
_D_2
  1

  0
SOLID
  5
3E3
330
3E0
100
AcDbEntity
  8
THICK_LINE
 62
     7
100
AcDbTrace
 10
250.0004591707
 20
1796.035542596
 30
0.0
 11
245.692766863
 21
1768.035542596
 31
0.0
 12
254.3081514783
 22
1768.035542596
 32
0.0
 13
254.3081514783
 23
1768.035542596
 33
0.0
  0
SOLID
  5
3E4
330
3E0
100
AcDbEntity
  8
THICK_LINE
 62
     7
100
AcDbTrace
 10
250.0004591707
 20
1346.035542596
 30
0.0
 11
254.3081514783
 21
1374.035542596
 31
0.0
 12
245.692766863
 22
1374.035542596
 32
0.0
 13
245.692766863
 23
1374.035542596
 33
0.0
  0
LINE
  5
3E5
330
3E0
100
AcDbEntity
  8
THICK_LINE
 62
     7
100
AcDbLine
 10
930.6555636229
 20
1796.035542596
 30
0.0
 11
242.0004591707
 21
1796.035542596
 31
0.0
  0
LINE
  5
3E6
330
3E0
100
AcDbEntity
  8
THICK_LINE
 62
     7
100
AcDbLine
 10
379.3566367291
 20
1346.035542596
 30
0.0
 11
242.0004591707
 21
1346.035542596
 31
0.0
  0
LINE
  5
3E7
330
3E0
100
AcDbEntity
  8
THICK_LINE
 62
     7
100
AcDbLine
 10
250.0004591707
 20
1796.035542596
 30
0.0
 11
250.0004591707
 21
1346.035542596
 31
0.0
  0
MTEXT
  5
3E8
330
3E0
100
AcDbEntity
  8
THICK_LINE
 62
     7
100
AcDbMText
 10
213.9065605944
 20
1553.1000644067
 30
0.0
 40
28.0
 41
0.0
 46
0.0
 71
     1
 72
     1
  1
450
  7
SLDTEXTSTYLE4
 11
-7.044195017643634E-15
 21
1.0
 31
0.0
 73
     1
 44
1.0
  0
ENDBLK
  5
3E2
330
3E0
100
AcDbEntity
  8
0
100
AcDbBlockEnd
  0
BLOCK
  5
3EA
330
3E9
100
AcDbEntity
  8
0
100
AcDbBlockBegin
  2
SW_NOTE_5
 70
     0
 10
0.0
 20
0.0
 30
0.0
  3
SW_NOTE_5
  1

  0
LINE
  5
3EC
330
3E9
100
AcDbEntity
  8
THICK_LINE
 62
     0
100
AcDbLine
 10
141.0066088167
 20
0.0
 30
0.0
 11
0.0
 21
0.0
 31
0.0
  0
MTEXT
  5
3ED
330
3E9
100
AcDbEntity
  8
THICK_LINE
 62
     0
100
AcDbMText
 10
3.5860725971
 20
37.8264846334
 30
0.0
 40
29.6333333333
 41
0.0
 46
0.0
 71
     1
 72
     1
  1
Огонь РД
  7
SLDTEXTSTYLE0
 73
     1
 44
1.0
  0
ENDBLK
  5
3EB
330
3E9
100
AcDbEntity
  8
0
100
AcDbBlockEnd
  0
BLOCK
  5
3F1
330
3F0
100
AcDbEntity
  8
0
100
AcDbBlockBegin
  2
_Dot
 70
     0
 10
0.0
 20
0.0
 30
0.0
  3
_Dot
  1

  0
LWPOLYLINE
  5
3F3
330
3F0
100
AcDbEntity
  8
0
  6
ByBlock
 62
     0
100
AcDbPolyline
 90
        2
 70
     1
 43
0.5
 10
-0.25
 20
0.0
 42
1.0
 10
0.25
 20
0.0
 42
1.0
  0
LINE
  5
3F4
330
3F0
100
AcDbEntity
  8
0
  6
ByBlock
 62
     0
370
    -2
100
AcDbLine
 10
-0.5
 20
0.0
 30
0.0
 11
-1.0
 21
0.0
 31
0.0
  0
ENDBLK
  5
3F2
330
3F0
100
AcDbEntity
  8
0
100
AcDbBlockEnd
  0
BLOCK
  5
3F7
330
3F6
100
AcDbEntity
  8
0
100
AcDbBlockBegin
  2
SW_NOTE_6
 70
     0
 10
0.0
 20
0.0
 30
0.0
  3
SW_NOTE_6
  1

  0
LINE
  5
3F9
330
3F6
100
AcDbEntity
  8
THICK_LINE
 62
     0
100
AcDbLine
 10
-336.1449638876
 20
0.0
 30
0.0
 11
0.0
 21
0.0
 31
0.0
  0
MTEXT
  5
3FA
330
3F6
100
AcDbEntity
  8
THICK_LINE
 62
     0
100
AcDbMText
 10
-340.0747383869
 20
85.5152230195
 30
0.0
 40
29.6333333333
 41
0.0
 46
0.0
 71
     1
 72
     1
  1
Кронштейн крепления
  7
SLDTEXTSTYLE0
 73
     1
 44
1.0
  0
MTEXT
  5
3FB
330
3F6
100
AcDbEntity
  8
THICK_LINE
 62
     0
100
AcDbMText
 10
-340.0747383869
 20
38.0041110746
 30
0.0
 40
29.6333333333
 41
0.0
 46
0.0
 71
     1
 72
     1
  1
на трубу D=40мм.
  7
SLDTEXTSTYLE0
 73
     1
 44
1.0
  0
ENDBLK
  5
3F8
330
3F6
100
AcDbEntity
  8
0
100
AcDbBlockEnd
  0
BLOCK
  5
400
330
3FF
100
AcDbEntity
  8
0
100
AcDbBlockBegin
  2
SW_NOTE_7
 70
     0
 10
0.0
 20
0.0
 30
0.0
  3
SW_NOTE_7
  1

  0
LINE
  5
402
330
3FF
100
AcDbEntity
  8
THICK_LINE
 62
     0
100
AcDbLine
 10
438.6021395651
 20
0.0
 30
0.0
 11
0.0
 21
0.0
 31
0.0
  0
LINE
  5
403
330
3FF
100
AcDbEntity
  8
THICK_LINE
 62
     0
100
AcDbLine
 10
438.6021395651
 20
0.0
 30
0.0
 11
0.0
 21
0.0
 31
0.0
  0
MTEXT
  5
404
330
3FF
100
AcDbEntity
  8
THICK_LINE
 62
     0
100
AcDbMText
 10
3.7024100064
 20
37.567161081
 30
0.0
 40
29.6333333333
 41
0.0
 46
0.0
 71
     1
 72
     1
  1
Соединительные коннекторы
  7
SLDTEXTSTYLE0
 73
     1
 44
1.0
  0
ENDBLK
  5
401
330
3FF
100
AcDbEntity
  8
0
100
AcDbBlockEnd
  0
BLOCK
  5
409
330
408
100
AcDbEntity
  8
0
100
AcDbBlockBegin
  2
SW_NOTE_8
 70
     0
 10
0.0
 20
0.0
 30
0.0
  3
SW_NOTE_8
  1

  0
LINE
  5
40B
330
408
100
AcDbEntity
  8
THICK_LINE
 62
     0
100
AcDbLine
 10
90.5201857415
 20
0.0
 30
0.0
 11
0.0
 21
0.0
 31
0.0
  0
MTEXT
  5
40C
330
408
100
AcDbEntity
  8
THICK_LINE
 62
     0
100
AcDbMText
 10
3.5890347429
 20
37.6423986825
 30
0.0
 40
29.6333333333
 41
0.0
 46
0.0
 71
     1
 72
     1
  1
Грунт
  7
SLDTEXTSTYLE0
 73
     1
 44
1.0
  0
ENDBLK
  5
40A
330
408
100
AcDbEntity
  8
0
100
AcDbBlockEnd
  0
BLOCK
  5
410
330
40F
100
AcDbEntity
  8
0
100
AcDbBlockBegin
  2
SW_NOTE_9
 70
     0
 10
0.0
 20
0.0
 30
0.0
  3
SW_NOTE_9
  1

  0
LINE
  5
412
330
40F
100
AcDbEntity
  8
THICK_LINE
 62
     0
100
AcDbLine
 10
-231.9892744097
 20
0.0
 30
0.0
 11
0.0
 21
0.0
 31
0.0
  0
MTEXT
  5
413
330
40F
100
AcDbEntity
  8
THICK_LINE
 62
     0
100
AcDbMText
 10
-235.1681989641
 20
37.4572598315
 30
0.0
 40
29.6333333333
 41
0.0
 46
0.0
 71
     1
 72
     1
  1
Ломкая стойка
  7
SLDTEXTSTYLE0
 73
     1
 44
1.0
  0
ENDBLK
  5
411
330
40F
100
AcDbEntity
  8
0
100
AcDbBlockEnd
  0
BLOCK
  5
417
330
416
100
AcDbEntity
  8
0
100
AcDbBlockBegin
  2
SW_NOTE_10
 70
     0
 10
0.0
 20
0.0
 30
0.0
  3
SW_NOTE_10
  1

  0
LINE
  5
419
330
416
100
AcDbEntity
  8
THICK_LINE
 62
     0
100
AcDbLine
 10
-462.1415237459
 20
0.0
 30
0.0
 11
0.0
 21
0.0
 31
0.0
  0
MTEXT
  5
41A
330
416
100
AcDbEntity
  8
THICK_LINE
 62
     0
100
AcDbMText
 10
-465.5666053216
 20
84.9928262291
 30
0.0
 40
29.6333333333
 41
0.0
 46
0.0
 71
     1
 72
     1
  1
Фундаментная забивная игла.
  7
SLDTEXTSTYLE0
 73
     1
 44
1.0
  0
MTEXT
  5
41B
330
416
100
AcDbEntity
  8
THICK_LINE
 62
     0
100
AcDbMText
 10
-465.5666053216
 20
37.4817142842
 30
0.0
 40
29.6333333333
 41
0.0
 46
0.0
 71
     1
 72
     1
  1
(Стальной уголок 50х50мм.)
  7
SLDTEXTSTYLE0
 73
     1
 44
1.0
  0
ENDBLK
  5
418
330
416
100
AcDbEntity
  8
0
100
AcDbBlockEnd
  0
BLOCK
  5
41F
330
41E
100
AcDbEntity
  8
0
100
AcDbBlockBegin
  2
SW_NOTE_11
 70
     0
 10
0.0
 20
0.0
 30
0.0
  3
SW_NOTE_11
  1

  0
LINE
  5
421
330
41E
100
AcDbEntity
  8
THICK_LINE
 62
     0
100
AcDbLine
 10
243.0769999949
 20
0.0
 30
0.0
 11
0.0
 21
0.0
 31
0.0
  0
LINE
  5
422
330
41E
100
AcDbEntity
  8
THICK_LINE
 62
     0
100
AcDbLine
 10
243.0769999949
 20
0.0
 30
0.0
 11
0.0
 21
0.0
 31
0.0
  0
MTEXT
  5
423
330
41E
100
AcDbEntity
  8
THICK_LINE
 62
     0
100
AcDbMText
 10
3.8984625278
 20
37.5289887512
 30
0.0
 40
29.6333333333
 41
0.0
 46
0.0
 71
     1
 72
     1
  1
Кабель питания
  7
SLDTEXTSTYLE0
 73
     1
 44
1.0
  0
ENDBLK
  5
420
330
41E
100
AcDbEntity
  8
0
100
AcDbBlockEnd
  0
ENDSEC
  0
SECTION
  2
ENTITIES
  0
LINE
  5
79
330
1F
100
AcDbEntity
  8
THICK_LINE
100
AcDbLine
 10
160.0
 20
2336.0
 30
0.0
 11
720.0
 21
2336.0
 31
0.0
  0
LINE
  5
7A
330
1F
100
AcDbEntity
  8
THICK_LINE
100
AcDbLine
 10
160.0
 20
2336.0
 30
0.0
 11
160.0
 21
2224.0
 31
0.0
  0
LINE
  5
7B
330
1F
100
AcDbEntity
  8
THICK_LINE
100
AcDbLine
 10
160.0
 20
2224.0
 30
0.0
 11
720.0
 21
2224.0
 31
0.0
  0
LINE
  5
7C
330
1F
100
AcDbEntity
  8
THICK_LINE
100
AcDbLine
 10
720.0
 20
2336.0
 30
0.0
 11
720.0
 21
2224.0
 31
0.0
  0
LINE
  5
7D
330
1F
100
AcDbEntity
  8
THICK_LINE
100
AcDbLine
 10
217.1932620256
 20
160.6777803472
 30
0.0
 11
217.1932620256
 21
40.6777803472
 31
0.0
  0
LINE
  5
7E
330
1F
100
AcDbEntity
  8
THICK_LINE
100
AcDbLine
 10
1561.1932620256
 20
160.6777803472
 30
0.0
 11
1561.1932620256
 21
40.6777803472
 31
0.0
  0
LINE
  5
7F
330
1F
100
AcDbEntity
  8
THICK_LINE
100
AcDbLine
 10
1561.1932620256
 20
160.6777803472
 30
0.0
 11
1561.1932620256
 21
40.6777803472
 31
0.0
  0
LINE
  5
80
330
1F
100
AcDbEntity
  8
THICK_LINE
100
AcDbLine
 10
64.0204468216
 20
39.9744633888
 30
0.0
 11
64.0204468216
 21
1199.9744633888
 31
0.0
  0
LINE
  5
81
330
1F
100
AcDbEntity
  8
THICK_LINE
100
AcDbLine
 10
64.0204468216
 20
39.9744633888
 30
0.0
 11
160.0204468216
 21
39.9744633888
 31
0.0
  0
LINE
  5
82
330
1F
100
AcDbEntity
  8
THIN_LINE
100
AcDbLine
 10
104.0204468216
 20
39.9744633888
 30
0.0
 11
104.0204468216
 21
1199.9744633888
 31
0.0
  0
LINE
  5
83
330
1F
100
AcDbEntity
  8
THICK_LINE
100
AcDbLine
 10
160.0204468216
 20
39.9744633888
 30
0.0
 11
160.0204468216
 21
1199.9744633888
 31
0.0
  0
LINE
  5
84
330
1F
100
AcDbEntity
  8
THICK_LINE
100
AcDbLine
 10
64.0204468216
 20
239.9744633888
 30
0.0
 11
160.0204468216
 21
239.9744633888
 31
0.0
  0
LINE
  5
85
330
1F
100
AcDbEntity
  8
THICK_LINE
100
AcDbLine
 10
64.0204468216
 20
519.9744633888
 30
0.0
 11
160.0204468216
 21
519.9744633888
 31
0.0
  0
LINE
  5
86
330
1F
100
AcDbEntity
  8
THICK_LINE
100
AcDbLine
 10
64.0204468216
 20
719.9744633888
 30
0.0
 11
160.0204468216
 21
719.9744633888
 31
0.0
  0
LINE
  5
87
330
1F
100
AcDbEntity
  8
THICK_LINE
100
AcDbLine
 10
64.0204468216
 20
919.9744633888
 30
0.0
 11
160.0204468216
 21
919.9744633888
 31
0.0
  0
LINE
  5
88
330
1F
100
AcDbEntity
  8
THICK_LINE
100
AcDbLine
 10
64.0
 20
40.0
 30
0.0
 11
1640.0
 21
40.0
 31
0.0
  0
LINE
  5
89
330
1F
100
AcDbEntity
  8
THIN_LINE
100
AcDbLine
 10
160.0
 20
80.4833941736
 30
0.0
 11
680.0
 21
80.4833941736
 31
0.0
  0
LINE
  5
8A
330
1F
100
AcDbEntity
  8
THICK_LINE
100
AcDbLine
 10
1561.2062895552
 20
104.8320298152
 30
0.0
 11
1639.9812872176
 21
104.8320298152
 31
0.0
  0
LINE
  5
8B
330
1F
100
AcDbEntity
  8
THIN_LINE
100
AcDbLine
 10
160.0
 20
120.5870293472
 30
0.0
 11
680.0
 21
120.5870293472
 31
0.0
  0
LINE
  5
8C
330
1F
100
AcDbEntity
  8
THICK_LINE
100
AcDbLine
 10
160.0
 20
160.6906645208
 30
0.0
 11
1639.9812872176
 21
160.6906645208
 31
0.0
  0
LINE
  5
8D
330
1F
100
AcDbEntity
  8
THICK_LINE
100
AcDbLine
 10
160.0
 20
240.0
 30
0.0
 11
64.0
 21
240.0
 31
0.0
  0
LINE
  5
8E
330
1F
100
AcDbEntity
  8
THICK_LINE
100
AcDbLine
 10
64.0
 20
40.0
 30
0.0
 11
64.0
 21
1200.0
 31
0.0
  0
LINE
  5
8F
330
1F
100
AcDbEntity
  8
THIN_LINE
100
AcDbLine
 10
104.0
 20
40.0
 30
0.0
 11
104.0
 21
1200.0
 31
0.0
  0
LINE
  5
90
330
1F
100
AcDbEntity
  8
THICK_LINE
100
AcDbLine
 10
160.0
 20
40.0
 30
0.0
 11
160.0
 21
2336.0
 31
0.0
  0
LINE
  5
91
330
1F
100
AcDbEntity
  8
THICK_LINE
100
AcDbLine
 10
160.0
 20
520.0
 30
0.0
 11
64.0
 21
520.0
 31
0.0
  0
LINE
  5
92
330
1F
100
AcDbEntity
  8
THICK_LINE
100
AcDbLine
 10
296.0
 20
160.6906645208
 30
0.0
 11
296.0
 21
40.0
 31
0.0
  0
LINE
  5
93
330
1F
100
AcDbEntity
  8
THICK_LINE
100
AcDbLine
 10
160.0
 20
720.0
 30
0.0
 11
64.0
 21
720.0
 31
0.0
  0
LINE
  5
94
330
1F
100
AcDbEntity
  8
THICK_LINE
100
AcDbLine
 10
480.0
 20
40.0
 30
0.0
 11
480.0
 21
160.6906645208
 31
0.0
  0
LINE
  5
95
330
1F
100
AcDbEntity
  8
THICK_LINE
100
AcDbLine
 10
600.0
 20
160.6906645208
 30
0.0
 11
600.0
 21
40.0
 31
0.0
  0
LINE
  5
96
330
1F
100
AcDbEntity
  8
THICK_LINE
100
AcDbLine
 10
160.0
 20
920.0
 30
0.0
 11
64.0
 21
920.0
 31
0.0
  0
LINE
  5
97
330
1F
100
AcDbEntity
  8
THICK_LINE
100
AcDbLine
 10
680.0
 20
160.6906645208
 30
0.0
 11
680.0
 21
40.0
 31
0.0
  0
LINE
  5
98
330
1F
100
AcDbEntity
  8
THICK_LINE
100
AcDbLine
 10
720.0
 20
2336.0
 30
0.0
 11
720.0
 21
2224.0
 31
0.0
  0
LINE
  5
99
330
1F
100
AcDbEntity
  8
THICK_LINE
100
AcDbLine
 10
64.0
 20
1200.0
 30
0.0
 11
160.0
 21
1200.0
 31
0.0
  0
LINE
  5
9A
330
1F
100
AcDbEntity
  8
THICK_LINE
100
AcDbLine
 10
1561.2062895552
 20
160.6906645208
 30
0.0
 11
1561.2062895552
 21
40.379759
 31
0.0
  0
LINE
  5
9B
330
1F
100
AcDbEntity
  8
THICK_LINE
100
AcDbLine
 10
1640.0
 20
2336.0
 30
0.0
 11
1640.0
 21
40.0
 31
0.0
  0
LINE
  5
9C
330
1F
100
AcDbEntity
  8
THICK_LINE
100
AcDbLine
 10
160.0
 20
2224.0
 30
0.0
 11
720.0
 21
2224.0
 31
0.0
  0
LINE
  5
9D
330
1F
100
AcDbEntity
  8
THICK_LINE
100
AcDbLine
 10
160.0
 20
2336.0
 30
0.0
 11
1640.0
 21
2336.0
 31
0.0
  0
INSERT
  5
A4
330
1F
100
AcDbEntity
  8
THICK_LINE
 62
     7
100
AcDbBlockReference
  2
SW_NOTE_0
 10
215.4111264676
 20
272.9767287265
 30
0.0
  0
MTEXT
  5
A5
330
1F
100
AcDbEntity
  8
0
  6
Continuous
 62
     7
370
     0
100
AcDbMText
 10
163.6135560209
 20
78.6483028739
 30
0.0
 40
28.0
 41
0.0
 46
0.0
 71
     1
 72
     1
  1
Изм.
  7
SLDTEXTSTYLE0
 73
     1
 44
1.0
  0
MTEXT
  5
A6
330
1F
100
AcDbEntity
  8
0
  6
Continuous
 62
     7
370
     0
100
AcDbMText
 10
224.5997590327
 20
79.755201368
 30
0.0
 40
28.0
 41
0.0
 46
0.0
 71
     1
 72
     1
  1
Лист
  7
SLDTEXTSTYLE0
 73
     1
 44
1.0
  0
INSERT
  5
B2
330
1F
100
AcDbEntity
  8
0
  6
Continuous
 62
     7
370
     0
100
AcDbBlockReference
  2
SW_NOTE_1
 10
327.2514695738
 20
44.4376471274
 30
0.0
  0
MTEXT
  5
B3
330
1F
100
AcDbEntity
  8
0
  6
Continuous
 62
     7
370
     0
100
AcDbMText
 10
494.7583680679
 20
79.755201368
 30
0.0
 40
28.0
 41
0.0
 46
0.0
 71
     1
 72
     1
  1
Подп.
  7
SLDTEXTSTYLE0
 73
     1
 44
1.0
  0
MTEXT
  5
B4
330
1F
100
AcDbEntity
  8
0
  6
Continuous
 62
     7
370
     0
100
AcDbMText
 10
605.2790635503
 20
78.6483028739
 30
0.0
 40
28.0
 41
0.0
 46
0.0
 71
     1
 72
     1
  1
Дата
  7
SLDTEXTSTYLE0
 73
     1
 44
1.0
  0
MTEXT
  5
B6
330
1F
100
AcDbEntity
  8
0
  6
Continuous
 62
     7
370
     0
100
AcDbMText
 10
1563.8530875112
 20
141.2407253515
 30
0.0
 40
20.0
 41
0.0
 46
0.0
 71
     1
 72
     1
  1
Лист
  7
SLDTEXTSTYLE2
 73
     1
 44
1.0
  0
INSERT
  5
BD
330
1F
100
AcDbEntity
  8
0
  6
Continuous
 62
     7
370
     0
100
AcDbBlockReference
  2
SW_NOTE_2
 10
101.9664649237
 20
41.1371399794
 30
0.0
  0
MTEXT
  5
BE
330
1F
100
AcDbEntity
  8
0
  6
Continuous
 62
     7
370
     0
100
AcDbMText
 10
77.2264788026
 20
269.6249031384
 30
0.0
 40
20.0
 41
0.0
 46
0.0
 71
     1
 72
     1
  1
Подп. и дата
  7
SLDTEXTSTYLE2
 11
-3.491481338843133E-15
 21
1.0
 31
0.0
 73
     1
 44
1.0
  0
INSERT
  5
C4
330
1F
100
AcDbEntity
  8
0
  6
Continuous
 62
     7
370
     0
100
AcDbBlockReference
  2
SW_NOTE_3
 10
104.6671002485
 20
523.4559745267
 30
0.0
  0
INSERT
  5
CB
330
1F
100
AcDbEntity
  8
0
  6
Continuous
 62
     7
370
     0
100
AcDbBlockReference
  2
SW_NOTE_4
 10
101.3464047661
 20
724.014583562
 30
0.0
  0
MTEXT
  5
CC
330
1F
100
AcDbEntity
  8
0
  6
Continuous
 62
     7
370
     0
100
AcDbMText
 10
77.2264788026
 20
959.5869895855
 30
0.0
 40
20.0
 41
0.0
 46
0.0
 71
     1
 72
     1
  1
Подп. и дата
  7
SLDTEXTSTYLE2
 11
-3.491481338843133E-15
 21
1.0
 31
0.0
 73
     1
 44
1.0
  0
MTEXT
  5
CD
330
1F
100
AcDbEntity
  8
0
  6
Continuous
 62
     7
370
     0
100
AcDbMText
 10
1236.5255635638
 20
36.0347816939
 30
0.0
 40
28.0
 41
0.0
 46
0.0
 71
     1
 72
     1
  1
Формат А4
  7
SLDTEXTSTYLE0
 73
     1
 44
1.0
  0
MTEXT
  5
CE
330
1F
100
AcDbEntity
  8
0
  6
Continuous
 62
     7
370
     0
100
AcDbMText
 10
829.042648067
 20
37.7595224035
 30
0.0
 40
28.0
 41
0.0
 46
0.0
 71
     1
 72
     1
  1
Копировал
  7
SLDTEXTSTYLE0
 73
     1
 44
1.0
  0
MTEXT
  5
CF
330
1F
100
AcDbEntity
  8
0
  6
Continuous
 62
     7
370
     0
100
AcDbMText
 10
1585.9759735627
 20
95.9366085923
 30
0.0
 40
40.0
 41
0.0
 46
0.0
 71
     1
 72
     1
  1
1
  7
SLDTEXTSTYLE1
 73
     1
 44
1.0
  0
MTEXT
  5
D0
330
1F
100
AcDbEntity
  8
0
  6
Continuous
 62
     7
370
     0
100
AcDbMText
 10
406.655808585
 20
2301.2553227824
 30
0.0
 40
42.3333333333
 41
0.0
 46
0.0
 71
     2
 72
     1
  1
WELTPLAST
  7
SLDTEXTSTYLE1
 73
     1
 44
1.0
  0
MTEXT
  5
D2
330
1F
100
AcDbEntity
  8
THICK_LINE
100
AcDbMText
 10
1611.3141450306
 20
11.0524996546
 30
0.0
 40
8.0
 41
0.0
 46
0.0
 71
     1
 72
     1
  1
TESIS
  7
SLDTEXTSTYLE3
 73
     1
 44
1.0
  0
MTEXT
  5
D3
330
1F
100
AcDbEntity
  8
THICK_LINE
100
AcDbMText
 10
1025.884496057
 20
127.1246877858
 30
0.0
 40
42.3333333333
 41
0.0
 46
0.0
 71
     1
 72
     1
  1
Огонь РД
  7
SLDTEXTSTYLE0
 73
     1
 44
1.0
  0
LINE
  5
D4
330
1F
100
AcDbEntity
  8
0
  6
Continuous
 62
     7
370
    25
100
AcDbLine
 10
985.6430616523
 20
1743.035542596
 30
0.0
 11
985.6430616523
 21
1755.035542596
 31
0.0
  0
ARC
  5
D5
330
1F
100
AcDbEntity
  8
0
  6
Continuous
 62
     7
370
    25
100
AcDbCircle
 10
984.6430616523
 20
1755.035542596
 30
0.0
 40
1.0
100
AcDbArc
 50
0.0
 51
90.0
  0
ARC
  5
D6
330
1F
100
AcDbEntity
  8
0
  6
Continuous
 62
     7
370
    25
100
AcDbCircle
 10
927.7355636229
 20
1757.035542596
 30
0.0
 40
1.0
100
AcDbArc
 50
270.0
 51
0.0
  0
LINE
  5
D7
330
1F
100
AcDbEntity
  8
0
  6
Continuous
 62
     7
370
    25
100
AcDbLine
 10
1013.7355636229
 20
1758.235542596
 30
0.0
 11
1013.7355636229
 21
1794.035542596
 31
0.0
  0
LINE
  5
D8
330
1F
100
AcDbEntity
  8
0
  6
Continuous
 62
     7
370
    25
100
AcDbLine
 10
928.7355636229
 20
1794.035542596
 30
0.0
 11
928.7355636229
 21
1757.035542596
 31
0.0
  0
ARC
  5
D9
330
1F
100
AcDbEntity
  8
0
  6
Continuous
 62
     7
370
    25
100
AcDbCircle
 10
930.7355636229
 20
1794.035542596
 30
0.0
 40
2.0
100
AcDbArc
 50
90.0
 51
180.0
  0
ARC
  5
DA
330
1F
100
AcDbEntity
  8
0
  6
Continuous
 62
     7
370
    25
100
AcDbCircle
 10
1011.7355636229
 20
1794.035542596
 30
0.0
 40
2.0
100
AcDbArc
 50
0.0
 51
90.0
  0
ARC
  5
DB
330
1F
100
AcDbEntity
  8
0
  6
Continuous
 62
     7
370
    25
100
AcDbCircle
 10
927.4903893934
 20
1755.035542596
 30
0.0
 40
1.0
100
AcDbArc
 50
90.0
 51
180.0
  0
LINE
  5
DC
330
1F
100
AcDbEntity
  8
0
  6
Continuous
 62
     7
370
    25
100
AcDbLine
 10
926.4903893934
 20
1755.035542596
 30
0.0
 11
926.4903893934
 21
1743.035542596
 31
0.0
  0
ARC
  5
DD
330
1F
100
AcDbEntity
  8
0
  6
Continuous
 62
     7
370
    25
100
AcDbCircle
 10
1021.8882358818
 20
1755.035542596
 30
0.0
 40
1.000000000000114
100
AcDbArc
 50
0.0
 51
90.0
  0
LINE
  5
DE
330
1F
100
AcDbEntity
  8
0
  6
Continuous
 62
     7
370
    25
100
AcDbLine
 10
1022.8882358818
 20
1743.035542596
 30
0.0
 11
1022.8882358818
 21
1755.035542596
 31
0.0
  0
ARC
  5
DF
330
1F
100
AcDbEntity
  8
0
  6
Continuous
 62
     7
370
    25
100
AcDbCircle
 10
926.2355636229
 20
1755.035542596
 30
0.0
 40
1.0
100
AcDbArc
 50
90.0
 51
180.0
  0
LINE
  5
E0
330
1F
100
AcDbEntity
  8
0
  6
Continuous
 62
     7
370
    25
100
AcDbLine
 10
925.2355636229
 20
1755.035542596
 30
0.0
 11
925.2355636229
 21
1743.035542596
 31
0.0
  0
LINE
  5
E1
330
1F
100
AcDbEntity
  8
0
  6
Continuous
 62
     7
370
    25
100
AcDbLine
 10
919.5828913641
 20
1755.035542596
 30
0.0
 11
919.5828913641
 21
1743.035542596
 31
0.0
  0
ARC
  5
E2
330
1F
100
AcDbEntity
  8
0
  6
Continuous
 62
     7
370
    25
100
AcDbCircle
 10
920.5828913641
 20
1755.035542596
 30
0.0
 40
1.000000000000114
100
AcDbArc
 50
90.0
 51
180.0
  0
LINE
  5
E3
330
1F
100
AcDbEntity
  8
0
  6
Continuous
 62
     7
370
    25
100
AcDbLine
 10
1002.6048945521
 20
1526.8673472402
 30
0.0
 11
1002.6048945521
 21
1528.2673472402
 31
0.0
  0
LINE
  5
E4
330
1F
100
AcDbEntity
  8
0
  6
Continuous
 62
     7
370
    25
100
AcDbLine
 10
1001.0048945521
 20
1521.3673472402
 30
0.0
 11
1001.0048945521
 21
1526.8673472402
 31
0.0
  0
LINE
  5
E5
330
1F
100
AcDbEntity
  8
0
  6
Continuous
 62
     7
370
    25
100
AcDbLine
 10
939.8662326939
 20
1505.7673472402
 30
0.0
 11
939.8662326939
 21
1504.3673472402
 31
0.0
  0
LINE
  5
E6
330
1F
100
AcDbEntity
  8
0
  6
Continuous
 62
     7
370
    25
100
AcDbLine
 10
941.4662326939
 20
1511.2673472402
 30
0.0
 11
941.4662326939
 21
1505.7673472402
 31
0.0
  0
LINE
  5
E7
330
1F
100
AcDbEntity
  8
0
  6
Continuous
 62
     7
370
    25
100
AcDbLine
 10
980.64984448
 20
1504.3673472402
 30
0.0
 11
980.64984448
 21
1505.7673472402
 31
0.0
  0
LINE
  5
E8
330
1F
100
AcDbEntity
  8
0
  6
Continuous
 62
     7
370
    25
100
AcDbLine
 10
979.04984448
 20
1505.7673472402
 30
0.0
 11
979.04984448
 21
1511.2673472402
 31
0.0
  0
ARC
  5
E9
330
1F
100
AcDbEntity
  8
0
  6
Continuous
 62
     7
370
    25
100
AcDbCircle
 10
952.9228757787
 20
1556.5593281303
 30
0.0
 40
19.01306199355986
100
AcDbArc
 50
344.3567598426
 51
359.9283640777
  0
LWPOLYLINE
  5
EA
330
1F
100
AcDbEntity
  8
0
  6
Continuous
 62
     7
370
    25
100
AcDbPolyline
 90
        9
 70
   128
 43
0.0
 10
995.3017007294
 20
1541.7575391761
 10
995.219042677
 20
1543.114940591
 10
994.9039740601
 20
1545.0547825259
 10
994.4437900296
 20
1546.9138250844
 10
993.7690260436
 20
1549.2584916141
 10
993.0960435088
 20
1551.7711088552
 10
992.7015536002
 20
1553.7912959268
 10
992.5095990706
 20
1555.6605321935
 10
992.499999017
 20
1556.5356757051
  0
LINE
  5
EB
330
1F
100
AcDbEntity
  8
0
  6
Continuous
 62
     7
370
    25
100
AcDbLine
 10
992.4861981993
 20
1556.535542596
 30
0.0
 11
992.4861981993
 21
1566.535542596
 31
0.0
  0
LINE
  5
EC
330
1F
100
AcDbEntity
  8
0
  6
Continuous
 62
     7
370
    25
100
AcDbLine
 10
971.9399791188
 20
1566.535542596
 30
0.0
 11
971.9399791188
 21
1556.535542596
 31
0.0
  0
LINE
  5
ED
330
1F
100
AcDbEntity
  8
0
  6
Continuous
 62
     7
370
    25
100
AcDbLine
 10
995.323385031
 20
1532.7673472402
 30
0.0
 11
995.323385031
 21
1541.7575366275
 31
0.0
  0
LWPOLYLINE
  5
EE
330
1F
100
AcDbEntity
  8
0
  6
Continuous
 62
     7
370
    25
100
AcDbPolyline
 90
        9
 70
   128
 43
0.0
 10
947.1694265166
 20
1490.8771553043
 10
947.252084569
 20
1489.5197538894
 10
947.5671531859
 20
1487.5799119544
 10
948.0273372164
 20
1485.7208693959
 10
948.7021012024
 20
1483.3762028662
 10
949.3750837372
 20
1480.8635856251
 10
949.7695736458
 20
1478.8433985535
 10
949.9615281753
 20
1476.9741622868
 10
949.9711301253
 20
1476.0988459035
  0
LINE
  5
EF
330
1F
100
AcDbEntity
  8
0
  6
Continuous
 62
     7
370
    25
100
AcDbLine
 10
947.1477422149
 20
1499.8673472402
 30
0.0
 11
947.1477422149
 21
1490.8771578528
 31
0.0
  0
LWPOLYLINE
  5
F0
330
1F
100
AcDbEntity
  8
0
  6
Continuous
 62
     7
370
    25
100
AcDbPolyline
 90
        9
 70
   128
 43
0.0
 10
970.5352042954
 20
1476.0991204118
 10
970.5360834592
 20
1476.4972146799
 10
970.6818345396
 20
1478.3768911787
 10
971.0173391571
 20
1480.3167492648
 10
971.5641038671
 20
1482.4964195796
 10
972.3851465542
 20
1485.3487605258
 10
972.9328786547
 20
1487.5055617775
 10
973.2615285933
 20
1489.4964070808
 10
973.3494717948
 20
1490.8769515835
  0
LINE
  5
F1
330
1F
100
AcDbEntity
  8
0
  6
Continuous
 62
     7
370
    25
100
AcDbLine
 10
970.5311481272
 20
1466.0991518844
 30
0.0
 11
970.5311481272
 21
1476.0991518844
 31
0.0
  0
LINE
  5
F2
330
1F
100
AcDbEntity
  8
0
  6
Continuous
 62
     7
370
    25
100
AcDbLine
 10
949.9849290467
 20
1476.0991518844
 30
0.0
 11
949.9849290467
 21
1466.0991518844
 31
0.0
  0
LINE
  5
F3
330
1F
100
AcDbEntity
  8
0
  6
Continuous
 62
     7
370
    25
100
AcDbLine
 10
973.3683349589
 20
1490.8771578528
 30
0.0
 11
973.3683349589
 21
1499.8673472402
 31
0.0
  0
ARC
  5
F4
330
1F
100
AcDbEntity
  8
0
  6
Continuous
 62
     7
370
    25
100
AcDbCircle
 10
953.1847825875
 20
1476.1747610617
 30
0.0
 40
18.74155136284509
100
AcDbArc
 50
359.7679151541
 51
15.5601332804
  0
LWPOLYLINE
  5
F5
330
1F
100
AcDbEntity
  8
0
  6
Continuous
 62
     7
370
    25
100
AcDbPolyline
 90
        9
 70
   128
 43
0.0
 10
992.4902543675
 20
1476.0991204118
 10
992.4911335313
 20
1476.4972146799
 10
992.6368846117
 20
1478.3768911787
 10
992.9723892292
 20
1480.3167492648
 10
993.5191539392
 20
1482.4964195796
 10
994.3401966263
 20
1485.3487605258
 10
994.8879287269
 20
1487.5055617775
 10
995.2165786654
 20
1489.4964070808
 10
995.3045218669
 20
1490.8769515835
  0
LINE
  5
F6
330
1F
100
AcDbEntity
  8
0
  6
Continuous
 62
     7
370
    25
100
AcDbLine
 10
992.4861981993
 20
1466.0991518844
 30
0.0
 11
992.4861981993
 21
1476.0991518844
 31
0.0
  0
LINE
  5
F7
330
1F
100
AcDbEntity
  8
0
  6
Continuous
 62
     7
370
    25
100
AcDbLine
 10
971.9399791188
 20
1476.0991518844
 30
0.0
 11
971.9399791188
 21
1466.0991518844
 31
0.0
  0
LINE
  5
F8
330
1F
100
AcDbEntity
  8
0
  6
Continuous
 62
     7
370
    25
100
AcDbLine
 10
995.323385031
 20
1490.8771578528
 30
0.0
 11
995.323385031
 21
1499.8673472402
 31
0.0
  0
LWPOLYLINE
  5
F9
330
1F
100
AcDbEntity
  8
0
  6
Continuous
 62
     7
370
    25
100
AcDbPolyline
 90
        9
 70
   128
 43
0.0
 10
949.9808728395
 20
1556.5355564338
 10
949.9799937147
 20
1556.1374798005
 10
949.8342426343
 20
1554.2578033017
 10
949.4987380168
 20
1552.3179452156
 10
948.9519733068
 20
1550.1382749008
 10
948.1309306197
 20
1547.2859339546
 10
947.5831985191
 20
1545.1291327029
 10
947.2545485806
 20
1543.1382873996
 10
947.166605379
 20
1541.7577428969
  0
LINE
  5
FA
330
1F
100
AcDbEntity
  8
0
  6
Continuous
 62
     7
370
    25
100
AcDbLine
 10
947.1477422149
 20
1541.7575366275
 30
0.0
 11
947.1477422149
 21
1535.0173472402
 31
0.0
  0
LWPOLYLINE
  5
FB
330
1F
100
AcDbEntity
  8
0
  6
Continuous
 62
     7
370
    25
100
AcDbPolyline
 90
        9
 70
   128
 43
0.0
 10
973.3466506573
 20
1541.7575391761
 10
973.2639926049
 20
1543.114940591
 10
972.948923988
 20
1545.0547825259
 10
972.4887399575
 20
1546.9138250844
 10
971.8139759715
 20
1549.2584916141
 10
971.1409934367
 20
1551.7711088552
 10
970.7465035281
 20
1553.7912959268
 10
970.5545489985
 20
1555.6605321935
 10
970.5449489449
 20
1556.5356757051
  0
LINE
  5
FC
330
1F
100
AcDbEntity
  8
0
  6
Continuous
 62
     7
370
    25
100
AcDbLine
 10
970.5311481272
 20
1556.535542596
 30
0.0
 11
970.5311481272
 21
1566.535542596
 31
0.0
  0
LINE
  5
FD
330
1F
100
AcDbEntity
  8
0
  6
Continuous
 62
     7
370
    25
100
AcDbLine
 10
949.9849290467
 20
1566.535542596
 30
0.0
 11
949.9849290467
 21
1556.535542596
 31
0.0
  0
LINE
  5
FE
330
1F
100
AcDbEntity
  8
0
  6
Continuous
 62
     7
370
    25
100
AcDbLine
 10
973.3683349589
 20
1532.7673472402
 30
0.0
 11
973.3683349589
 21
1541.7575366275
 31
0.0
  0
LWPOLYLINE
  5
FF
330
1F
100
AcDbEntity
  8
0
  6
Continuous
 62
     7
370
    25
100
AcDbPolyline
 90
        3
 70
   128
 43
0.0
 10
957.0854703613
 20
1534.9865358381
 10
956.4542787477
 20
1534.9161834296
 10
955.82701641
 20
1534.5765182879
  0
LWPOLYLINE
  5
100
330
1F
100
AcDbEntity
  8
0
  6
Continuous
 62
     7
370
    25
100
AcDbPolyline
 90
        3
 70
   128
 43
0.0
 10
955.8239034415
 20
1534.5761814554
 10
955.3388320228
 20
1534.1794882567
 10
953.9485011748
 20
1532.9500530849
  0
ARC
  5
101
330
1F
100
AcDbEntity
  8
0
  6
Continuous
 62
     7
370
    25
100
AcDbCircle
 10
955.1419684078
 20
1531.5686993376
 30
0.0
 40
1.807145563123652
100
AcDbArc
 50
130.8000868752
 51
184.0171799606
  0
LINE
  5
102
330
1F
100
AcDbEntity
  8
0
  6
Continuous
 62
     7
370
    25
100
AcDbLine
 10
953.3178754142
 20
1531.4422063797
 30
0.0
 11
953.3178754142
 21
1529.0173472402
 31
0.0
  0
LINE
  5
103
330
1F
100
AcDbEntity
  8
0
  6
Continuous
 62
     7
370
    25
100
AcDbLine
 10
996.2393294317
 20
1499.8673472402
 30
0.0
 11
996.2393294317
 21
1521.3673472402
 31
0.0
  0
LINE
  5
104
330
1F
100
AcDbEntity
  8
0
  6
Continuous
 62
     7
370
    25
100
AcDbLine
 10
946.2317978142
 20
1511.4173472402
 30
0.0
 11
946.2317978142
 21
1511.2673472402
 31
0.0
  0
LINE
  5
105
330
1F
100
AcDbEntity
  8
0
  6
Continuous
 62
     7
370
    25
100
AcDbLine
 10
974.2842793596
 20
1511.2673472402
 30
0.0
 11
974.2842793596
 21
1526.8673472402
 31
0.0
  0
LINE
  5
106
330
1F
100
AcDbEntity
  8
0
  6
Continuous
 62
     7
370
    25
100
AcDbLine
 10
974.2842793596
 20
1528.2673472402
 30
0.0
 11
974.2842793596
 21
1532.7673472402
 31
0.0
  0
LINE
  5
107
330
1F
100
AcDbEntity
  8
0
  6
Continuous
 62
     7
370
    25
100
AcDbLine
 10
989.713088659
 20
1566.535542596
 30
0.0
 11
989.713088659
 21
1666.535542596
 31
0.0
  0
LINE
  5
108
330
1F
100
AcDbEntity
  8
0
  6
Continuous
 62
     7
370
    25
100
AcDbLine
 10
974.713088659
 20
1666.535542596
 30
0.0
 11
974.713088659
 21
1566.535542596
 31
0.0
  0
LINE
  5
109
330
1F
100
AcDbEntity
  8
0
  6
Continuous
 62
     7
370
    25
100
AcDbLine
 10
967.7580385869
 20
1566.535542596
 30
0.0
 11
967.7580385869
 21
1666.535542596
 31
0.0
  0
LINE
  5
10A
330
1F
100
AcDbEntity
  8
0
  6
Continuous
 62
     7
370
    25
100
AcDbLine
 10
952.7580385869
 20
1666.535542596
 30
0.0
 11
952.7580385869
 21
1566.535542596
 31
0.0
  0
LINE
  5
10B
330
1F
100
AcDbEntity
  8
0
  6
Continuous
 62
     7
370
    25
100
AcDbLine
 10
971.0080385869
 20
1676.535542596
 30
0.0
 11
971.0080385869
 21
1680.035542596
 31
0.0
  0
LINE
  5
10C
330
1F
100
AcDbEntity
  8
0
  6
Continuous
 62
     7
370
    25
100
AcDbLine
 10
949.5080385869
 20
1680.035542596
 30
0.0
 11
949.5080385869
 21
1676.535542596
 31
0.0
  0
LINE
  5
10D
330
1F
100
AcDbEntity
  8
0
  6
Continuous
 62
     7
370
    25
100
AcDbLine
 10
971.0080385869
 20
1670.535542596
 30
0.0
 11
971.0080385869
 21
1673.535542596
 31
0.0
  0
LINE
  5
10E
330
1F
100
AcDbEntity
  8
0
  6
Continuous
 62
     7
370
    25
100
AcDbLine
 10
949.5080385869
 20
1673.535542596
 30
0.0
 11
949.5080385869
 21
1670.535542596
 31
0.0
  0
ARC
  5
10F
330
1F
100
AcDbEntity
  8
0
  6
Continuous
 62
     7
370
    25
100
AcDbCircle
 10
967.0080385869
 20
1670.535542596
 30
0.0
 40
4.0
100
AcDbArc
 50
270.0
 51
0.0
  0
ARC
  5
110
330
1F
100
AcDbEntity
  8
0
  6
Continuous
 62
     7
370
    25
100
AcDbCircle
 10
953.5080385869
 20
1670.535542596
 30
0.0
 40
4.0
100
AcDbArc
 50
180.0
 51
270.0
  0
LINE
  5
111
330
1F
100
AcDbEntity
  8
0
  6
Continuous
 62
     7
370
    25
100
AcDbLine
 10
970.1080385869
 20
1680.035542596
 30
0.0
 11
970.1080385869
 21
1683.535542596
 31
0.0
  0
LINE
  5
112
330
1F
100
AcDbEntity
  8
0
  6
Continuous
 62
     7
370
    25
100
AcDbLine
 10
950.4080385869
 20
1683.535542596
 30
0.0
 11
950.4080385869
 21
1680.035542596
 31
0.0
  0
LINE
  5
113
330
1F
100
AcDbEntity
  8
0
  6
Continuous
 62
     7
370
    25
100
AcDbLine
 10
992.963088659
 20
1670.535542596
 30
0.0
 11
992.963088659
 21
1673.535542596
 31
0.0
  0
LINE
  5
114
330
1F
100
AcDbEntity
  8
0
  6
Continuous
 62
     7
370
    25
100
AcDbLine
 10
971.463088659
 20
1673.535542596
 30
0.0
 11
971.463088659
 21
1670.535542596
 31
0.0
  0
ARC
  5
115
330
1F
100
AcDbEntity
  8
0
  6
Continuous
 62
     7
370
    25
100
AcDbCircle
 10
988.963088659
 20
1670.535542596
 30
0.0
 40
4.0
100
AcDbArc
 50
270.0
 51
0.0
  0
ARC
  5
116
330
1F
100
AcDbEntity
  8
0
  6
Continuous
 62
     7
370
    25
100
AcDbCircle
 10
975.463088659
 20
1670.535542596
 30
0.0
 40
4.0
100
AcDbArc
 50
180.0
 51
270.0
  0
LINE
  5
117
330
1F
100
AcDbEntity
  8
0
  6
Continuous
 62
     7
370
    25
100
AcDbLine
 10
992.963088659
 20
1676.535542596
 30
0.0
 11
992.963088659
 21
1680.035542596
 31
0.0
  0
LINE
  5
118
330
1F
100
AcDbEntity
  8
0
  6
Continuous
 62
     7
370
    25
100
AcDbLine
 10
971.463088659
 20
1680.035542596
 30
0.0
 11
971.463088659
 21
1676.535542596
 31
0.0
  0
LINE
  5
119
330
1F
100
AcDbEntity
  8
0
  6
Continuous
 62
     7
370
    25
100
AcDbLine
 10
992.063088659
 20
1680.035542596
 30
0.0
 11
992.063088659
 21
1683.535542596
 31
0.0
  0
LINE
  5
11A
330
1F
100
AcDbEntity
  8
0
  6
Continuous
 62
     7
370
    25
100
AcDbLine
 10
972.363088659
 20
1683.535542596
 30
0.0
 11
972.363088659
 21
1680.035542596
 31
0.0
  0
ARC
  5
11B
330
1F
100
AcDbEntity
  8
0
  6
Continuous
 62
     7
370
    25
100
AcDbCircle
 10
1015.3882358818
 20
1754.3502678707
 30
0.0
 40
4.32496932831418
100
AcDbArc
 50
116.059831153
 51
151.4762140417
  0
ARC
  5
11C
330
1F
100
AcDbEntity
  8
0
  6
Continuous
 62
     7
370
    25
100
AcDbCircle
 10
1015.3882358818
 20
1754.3502678707
 30
0.0
 40
4.324969328314229
100
AcDbArc
 50
28.5237859583
 51
63.940168847
  0
LINE
  5
11D
330
1F
100
AcDbEntity
  8
0
  6
Continuous
 62
     7
370
    25
100
AcDbLine
 10
1011.5882358818
 20
1756.415542596
 30
0.0
 11
1011.5882358818
 21
1756.035542596
 31
0.0
  0
LINE
  5
11E
330
1F
100
AcDbEntity
  8
0
  6
Continuous
 62
     7
370
    25
100
AcDbLine
 10
1019.1882358818
 20
1756.035542596
 30
0.0
 11
1019.1882358818
 21
1756.415542596
 31
0.0
  0
ARC
  5
11F
330
1F
100
AcDbEntity
  8
0
  6
Continuous
 62
     7
370
    25
100
AcDbCircle
 10
1015.3882358818
 20
1688.2208173213
 30
0.0
 40
4.324969328314285
100
AcDbArc
 50
296.059831153
 51
331.4762140417
  0
ARC
  5
120
330
1F
100
AcDbEntity
  8
0
  6
Continuous
 62
     7
370
    25
100
AcDbCircle
 10
1015.3882358818
 20
1688.2208173213
 30
0.0
 40
4.32496932831418
100
AcDbArc
 50
208.5237859583
 51
243.940168847
  0
LINE
  5
121
330
1F
100
AcDbEntity
  8
0
  6
Continuous
 62
     7
370
    25
100
AcDbLine
 10
1019.1882358818
 20
1686.155542596
 30
0.0
 11
1019.1882358818
 21
1686.535542596
 31
0.0
  0
LINE
  5
122
330
1F
100
AcDbEntity
  8
0
  6
Continuous
 62
     7
370
    25
100
AcDbLine
 10
1011.5882358818
 20
1686.535542596
 30
0.0
 11
1011.5882358818
 21
1686.155542596
 31
0.0
  0
LINE
  5
123
330
1F
100
AcDbEntity
  8
0
  6
Continuous
 62
     7
370
    25
100
AcDbLine
 10
974.3430616523
 20
1756.415542596
 30
0.0
 11
974.3430616523
 21
1756.035542596
 31
0.0
  0
LINE
  5
124
330
1F
100
AcDbEntity
  8
0
  6
Continuous
 62
     7
370
    25
100
AcDbLine
 10
981.9430616523
 20
1756.035542596
 30
0.0
 11
981.9430616523
 21
1756.415542596
 31
0.0
  0
ARC
  5
125
330
1F
100
AcDbEntity
  8
0
  6
Continuous
 62
     7
370
    25
100
AcDbCircle
 10
978.1430616523
 20
1754.3502678707
 30
0.0
 40
4.32496932831418
100
AcDbArc
 50
116.059831153
 51
151.4762140417
  0
ARC
  5
126
330
1F
100
AcDbEntity
  8
0
  6
Continuous
 62
     7
370
    25
100
AcDbCircle
 10
978.1430616523
 20
1754.3502678707
 30
0.0
 40
4.32496932831418
100
AcDbArc
 50
28.5237859583
 51
63.940168847
  0
LINE
  5
127
330
1F
100
AcDbEntity
  8
0
  6
Continuous
 62
     7
370
    25
100
AcDbLine
 10
981.9430616523
 20
1686.155542596
 30
0.0
 11
981.9430616523
 21
1686.535542596
 31
0.0
  0
LINE
  5
128
330
1F
100
AcDbEntity
  8
0
  6
Continuous
 62
     7
370
    25
100
AcDbLine
 10
974.3430616523
 20
1686.535542596
 30
0.0
 11
974.3430616523
 21
1686.155542596
 31
0.0
  0
ARC
  5
129
330
1F
100
AcDbEntity
  8
0
  6
Continuous
 62
     7
370
    25
100
AcDbCircle
 10
978.1430616523
 20
1688.2208173213
 30
0.0
 40
4.324969328314185
100
AcDbArc
 50
296.059831153
 51
331.4762140417
  0
ARC
  5
12A
330
1F
100
AcDbEntity
  8
0
  6
Continuous
 62
     7
370
    25
100
AcDbCircle
 10
978.1430616523
 20
1688.2208173213
 30
0.0
 40
4.324969328314285
100
AcDbArc
 50
208.5237859583
 51
243.940168847
  0
ARC
  5
12B
330
1F
100
AcDbEntity
  8
0
  6
Continuous
 62
     7
370
    25
100
AcDbCircle
 10
927.0828913641
 20
1754.3502678707
 30
0.0
 40
4.32496932831418
100
AcDbArc
 50
116.059831153
 51
151.4762140417
  0
LINE
  5
12C
330
1F
100
AcDbEntity
  8
0
  6
Continuous
 62
     7
370
    25
100
AcDbLine
 10
923.2828913641
 20
1756.415542596
 30
0.0
 11
923.2828913641
 21
1756.035542596
 31
0.0
  0
ARC
  5
12D
330
1F
100
AcDbEntity
  8
0
  6
Continuous
 62
     7
370
    25
100
AcDbCircle
 10
933.9903893935
 20
1688.2208173213
 30
0.0
 40
4.324969328314285
100
AcDbArc
 50
296.059831153
 51
331.4762140417
  0
ARC
  5
12E
330
1F
100
AcDbEntity
  8
0
  6
Continuous
 62
     7
370
    25
100
AcDbCircle
 10
933.9903893935
 20
1688.2208173213
 30
0.0
 40
4.324969328314185
100
AcDbArc
 50
208.5237859583
 51
243.940168847
  0
LINE
  5
12F
330
1F
100
AcDbEntity
  8
0
  6
Continuous
 62
     7
370
    25
100
AcDbLine
 10
937.7903893935
 20
1686.155542596
 30
0.0
 11
937.7903893935
 21
1686.535542596
 31
0.0
  0
LINE
  5
130
330
1F
100
AcDbEntity
  8
0
  6
Continuous
 62
     7
370
    25
100
AcDbLine
 10
930.1903893935
 20
1686.535542596
 30
0.0
 11
930.1903893935
 21
1686.155542596
 31
0.0
  0
ARC
  5
131
330
1F
100
AcDbEntity
  8
0
  6
Continuous
 62
     7
370
    25
100
AcDbCircle
 10
933.9903893935
 20
1754.3502678707
 30
0.0
 40
4.324969328314129
100
AcDbArc
 50
116.059831153
 51
151.4762140417
  0
ARC
  5
132
330
1F
100
AcDbEntity
  8
0
  6
Continuous
 62
     7
370
    25
100
AcDbCircle
 10
933.9903893935
 20
1754.3502678707
 30
0.0
 40
4.324969328314229
100
AcDbArc
 50
28.5237859583
 51
63.940168847
  0
LINE
  5
133
330
1F
100
AcDbEntity
  8
0
  6
Continuous
 62
     7
370
    25
100
AcDbLine
 10
930.1903893935
 20
1756.415542596
 30
0.0
 11
930.1903893935
 21
1756.035542596
 31
0.0
  0
LINE
  5
134
330
1F
100
AcDbEntity
  8
0
  6
Continuous
 62
     7
370
    25
100
AcDbLine
 10
937.7903893935
 20
1756.035542596
 30
0.0
 11
937.7903893935
 21
1756.415542596
 31
0.0
  0
LINE
  5
135
330
1F
100
AcDbEntity
  8
0
  6
Continuous
 62
     7
370
    25
100
AcDbLine
 10
1004.6807378525
 20
1686.535542596
 30
0.0
 11
1004.6807378525
 21
1686.155542596
 31
0.0
  0
ARC
  5
136
330
1F
100
AcDbEntity
  8
0
  6
Continuous
 62
     7
370
    25
100
AcDbCircle
 10
1008.4807378525
 20
1688.2208173213
 30
0.0
 40
4.324969328314206
100
AcDbArc
 50
296.059831153
 51
322.9928448533
  0
ARC
  5
137
330
1F
100
AcDbEntity
  8
0
  6
Continuous
 62
     7
370
    25
100
AcDbCircle
 10
1008.4807378525
 20
1688.2208173213
 30
0.0
 40
4.324969328314285
100
AcDbArc
 50
208.5237859583
 51
243.940168847
  0
LINE
  5
138
330
1F
100
AcDbEntity
  8
0
  6
Continuous
 62
     7
370
    25
100
AcDbLine
 10
923.2828913642
 20
1686.535542596
 30
0.0
 11
923.2828913642
 21
1686.155542596
 31
0.0
  0
ARC
  5
139
330
1F
100
AcDbEntity
  8
0
  6
Continuous
 62
     7
370
    25
100
AcDbCircle
 10
927.0828913642
 20
1688.2208173213
 30
0.0
 40
4.324969328314229
100
AcDbArc
 50
296.059831153
 51
322.9928448532
  0
ARC
  5
13A
330
1F
100
AcDbEntity
  8
0
  6
Continuous
 62
     7
370
    25
100
AcDbCircle
 10
927.0828913642
 20
1688.2208173213
 30
0.0
 40
4.324969328314129
100
AcDbArc
 50
208.5237859583
 51
243.940168847
  0
LINE
  5
13B
330
1F
100
AcDbEntity
  8
0
  6
Continuous
 62
     7
370
    25
100
AcDbLine
 10
982.1430616524
 20
1688.035542596
 30
0.0
 11
982.1430616524
 21
1689.535542596
 31
0.0
  0
LINE
  5
13C
330
1F
100
AcDbEntity
  8
0
  6
Continuous
 62
     7
370
    25
100
AcDbLine
 10
929.9903893935
 20
1689.535542596
 30
0.0
 11
929.9903893935
 21
1688.035542596
 31
0.0
  0
LINE
  5
13D
330
1F
100
AcDbEntity
  8
0
  6
Continuous
 62
     7
370
    25
100
AcDbLine
 10
1019.3882358818
 20
1688.035542596
 30
0.0
 11
1019.3882358818
 21
1689.535542596
 31
0.0
  0
LINE
  5
13E
330
1F
100
AcDbEntity
  8
0
  6
Continuous
 62
     7
370
    25
100
AcDbLine
 10
928.735563623
 20
1689.535542596
 30
0.0
 11
928.735563623
 21
1688.035542596
 31
0.0
  0
LINE
  5
13F
330
1F
100
AcDbEntity
  8
0
  6
Continuous
 62
     7
370
    25
100
AcDbLine
 10
923.0828913641
 20
1689.535542596
 30
0.0
 11
923.0828913641
 21
1688.035542596
 31
0.0
  0
LINE
  5
140
330
1F
100
AcDbEntity
  8
0
  6
Continuous
 62
     7
370
    25
100
AcDbLine
 10
982.1430616524
 20
1686.535542596
 30
0.0
 11
982.1430616524
 21
1688.035542596
 31
0.0
  0
LINE
  5
141
330
1F
100
AcDbEntity
  8
0
  6
Continuous
 62
     7
370
    25
100
AcDbLine
 10
929.9903893935
 20
1688.035542596
 30
0.0
 11
929.9903893935
 21
1686.535542596
 31
0.0
  0
LINE
  5
142
330
1F
100
AcDbEntity
  8
0
  6
Continuous
 62
     7
370
    25
100
AcDbLine
 10
1019.3882358819
 20
1686.535542596
 30
0.0
 11
1019.3882358819
 21
1688.035542596
 31
0.0
  0
LINE
  5
143
330
1F
100
AcDbEntity
  8
0
  6
Continuous
 62
     7
370
    25
100
AcDbLine
 10
928.735563623
 20
1688.035542596
 30
0.0
 11
928.735563623
 21
1686.535542596
 31
0.0
  0
LINE
  5
144
330
1F
100
AcDbEntity
  8
0
  6
Continuous
 62
     7
370
    25
100
AcDbLine
 10
923.0828913642
 20
1688.035542596
 30
0.0
 11
923.0828913642
 21
1686.535542596
 31
0.0
  0
LINE
  5
145
330
1F
100
AcDbEntity
  8
0
  6
Continuous
 62
     7
370
    25
100
AcDbLine
 10
982.1430616523
 20
1689.535542596
 30
0.0
 11
982.1430616523
 21
1743.035542596
 31
0.0
  0
LINE
  5
146
330
1F
100
AcDbEntity
  8
0
  6
Continuous
 62
     7
370
    25
100
AcDbLine
 10
929.9903893935
 20
1743.035542596
 30
0.0
 11
929.9903893935
 21
1689.535542596
 31
0.0
  0
LINE
  5
147
330
1F
100
AcDbEntity
  8
0
  6
Continuous
 62
     7
370
    25
100
AcDbLine
 10
1019.3882358818
 20
1689.535542596
 30
0.0
 11
1019.3882358818
 21
1743.035542596
 31
0.0
  0
LINE
  5
148
330
1F
100
AcDbEntity
  8
0
  6
Continuous
 62
     7
370
    25
100
AcDbLine
 10
928.735563623
 20
1743.035542596
 30
0.0
 11
928.735563623
 21
1689.535542596
 31
0.0
  0
LINE
  5
149
330
1F
100
AcDbEntity
  8
0
  6
Continuous
 62
     7
370
    25
100
AcDbLine
 10
923.0828913641
 20
1743.035542596
 30
0.0
 11
923.0828913641
 21
1689.535542596
 31
0.0
  0
LINE
  5
14A
330
1F
100
AcDbEntity
  8
0
  6
Continuous
 62
     7
370
    25
100
AcDbLine
 10
943.8366367291
 20
1511.2673472402
 30
0.0
 11
943.8366367291
 21
1561.035542596
 31
0.0
  0
LINE
  5
14B
330
1F
100
AcDbEntity
  8
0
  6
Continuous
 62
     7
370
    25
100
AcDbLine
 10
903.6366367291
 20
1561.035542596
 30
0.0
 11
903.6366367291
 21
1506.035542596
 31
0.0
  0
LINE
  5
14C
330
1F
100
AcDbEntity
  8
0
  6
Continuous
 62
     7
370
    25
100
AcDbLine
 10
943.8366367291
 20
1616.035542596
 30
0.0
 11
943.8366367291
 21
1671.035542596
 31
0.0
  0
LINE
  5
14D
330
1F
100
AcDbEntity
  8
0
  6
Continuous
 62
     7
370
    25
100
AcDbLine
 10
903.6366367291
 20
1671.035542596
 30
0.0
 11
903.6366367291
 21
1616.035542596
 31
0.0
  0
LINE
  5
14E
330
1F
100
AcDbEntity
  8
0
  6
Continuous
 62
     7
370
    25
100
AcDbLine
 10
943.7366367291
 20
1671.035542596
 30
0.0
 11
943.7366367291
 21
1686.535542596
 31
0.0
  0
LINE
  5
14F
330
1F
100
AcDbEntity
  8
0
  6
Continuous
 62
     7
370
    25
100
AcDbLine
 10
903.7366367291
 20
1756.035542596
 30
0.0
 11
903.7366367291
 21
1741.535542596
 31
0.0
  0
LINE
  5
150
330
1F
100
AcDbEntity
  8
0
  6
Continuous
 62
     7
370
    25
100
AcDbLine
 10
903.7366367291
 20
1691.535542596
 30
0.0
 11
903.7366367291
 21
1671.035542596
 31
0.0
  0
LINE
  5
151
330
1F
100
AcDbEntity
  8
0
  6
Continuous
 62
     7
370
    25
100
AcDbLine
 10
943.7366367291
 20
1561.035542596
 30
0.0
 11
943.7366367291
 21
1616.035542596
 31
0.0
  0
LINE
  5
152
330
1F
100
AcDbEntity
  8
0
  6
Continuous
 62
     7
370
    25
100
AcDbLine
 10
903.7366367291
 20
1616.035542596
 30
0.0
 11
903.7366367291
 21
1561.035542596
 31
0.0
  0
LINE
  5
153
330
1F
100
AcDbEntity
  8
0
  6
Continuous
 62
     7
370
    25
100
AcDbLine
 10
943.7366367291
 20
1356.035542596
 30
0.0
 11
943.7366367291
 21
1499.8673472402
 31
0.0
  0
LINE
  5
154
330
1F
100
AcDbEntity
  8
0
  6
Continuous
 62
     7
370
    25
100
AcDbLine
 10
903.7366367291
 20
1506.035542596
 30
0.0
 11
903.7366367291
 21
1356.035542596
 31
0.0
  0
LINE
  5
155
330
1F
100
AcDbEntity
  8
0
  6
Continuous
 62
     7
370
    25
100
AcDbLine
 10
908.4366367291
 20
1356.035542596
 30
0.0
 11
908.4366367291
 21
1346.035542596
 31
0.0
  0
LINE
  5
156
330
1F
100
AcDbEntity
  8
0
  6
Continuous
 62
     7
370
    25
100
AcDbLine
 10
939.0366367291
 20
1346.035542596
 30
0.0
 11
939.0366367291
 21
1356.035542596
 31
0.0
  0
LINE
  5
157
330
1F
100
AcDbEntity
  8
0
  6
Continuous
 62
     7
370
    25
100
AcDbLine
 10
970.6528359986
 20
1743.035542596
 30
0.0
 11
970.6528359986
 21
1755.035542596
 31
0.0
  0
LINE
  5
158
330
1F
100
AcDbEntity
  8
0
  6
Continuous
 62
     7
370
    25
100
AcDbLine
 10
985.6430616523
 20
1743.035542596
 30
0.0
 11
970.6528359986
 21
1743.035542596
 31
0.0
  0
ARC
  5
159
330
1F
100
AcDbEntity
  8
0
  6
Continuous
 62
     7
370
    25
100
AcDbCircle
 10
971.6521848007
 20
1755.0361937945
 30
0.0
 40
0.9993490142408319
100
AcDbArc
 50
90.0373839524
 51
180.037335232
  0
LINE
  5
15A
330
1F
100
AcDbEntity
  8
0
  6
Continuous
 62
     7
370
    25
100
AcDbLine
 10
971.6515327525
 20
1756.035542596
 30
0.0
 11
984.6430616523
 21
1756.035542596
 31
0.0
  0
LINE
  5
15B
330
1F
100
AcDbEntity
  8
0
  6
Continuous
 62
     7
370
    25
100
AcDbLine
 10
930.7355636229
 20
1796.035542596
 30
0.0
 11
1011.7355636229
 21
1796.035542596
 31
0.0
  0
ARC
  5
15C
330
1F
100
AcDbEntity
  8
0
  6
Continuous
 62
     7
370
    25
100
AcDbCircle
 10
1009.0980332412
 20
1755.1077575811
 30
0.0
 40
0.9317286809328591
100
AcDbArc
 50
355.5547491462
 51
84.7265326155
  0
LINE
  5
15D
330
1F
100
AcDbEntity
  8
0
  6
Continuous
 62
     7
370
    25
100
AcDbLine
 10
1010.0269591429
 20
1755.035542596
 30
0.0
 11
986.389210679
 21
1755.035542596
 31
0.0
  0
LWPOLYLINE
  5
15E
330
1F
100
AcDbEntity
  8
0
  6
Continuous
 62
     7
370
    25
100
AcDbPolyline
 90
        9
 70
   128
 43
0.0
 10
986.0597835691
 20
1756.035542596
 10
986.1240516101
 20
1756.0163278764
 10
986.1858498663
 20
1755.9594221285
 10
986.2428034653
 20
1755.8670122083
 10
986.2927237124
 20
1755.7426493772
 10
986.3336922005
 20
1755.591112829
 10
986.3641345334
 20
1755.4182260284
 10
986.3828808295
 20
1755.230632918
 10
986.389210679
 20
1755.035542596
  0
LINE
  5
15F
330
1F
100
AcDbEntity
  8
0
  6
Continuous
 62
     7
370
    25
100
AcDbLine
 10
986.0597835691
 20
1756.035542596
 30
0.0
 11
1009.1836679359
 21
1756.035542596
 31
0.0
  0
LINE
  5
160
330
1F
100
AcDbEntity
  8
0
  6
Continuous
 62
     7
370
    25
100
AcDbLine
 10
986.389210679
 20
1743.035542596
 30
0.0
 11
986.389210679
 21
1755.035542596
 31
0.0
  0
LINE
  5
161
330
1F
100
AcDbEntity
  8
0
  6
Continuous
 62
     7
370
    25
100
AcDbLine
 10
1010.0269591429
 20
1743.035542596
 30
0.0
 11
1010.0269591429
 21
1755.035542596
 31
0.0
  0
LINE
  5
162
330
1F
100
AcDbEntity
  8
0
  6
Continuous
 62
     7
370
    25
100
AcDbLine
 10
1010.0269591429
 20
1743.035542596
 30
0.0
 11
986.389210679
 21
1743.035542596
 31
0.0
  0
LINE
  5
163
330
1F
100
AcDbEntity
  8
0
  6
Continuous
 62
     7
370
    25
100
AcDbLine
 10
969.2204994812
 20
1755.035542596
 30
0.0
 11
941.1988890994
 21
1755.035542596
 31
0.0
  0
LWPOLYLINE
  5
164
330
1F
100
AcDbEntity
  8
0
  6
Continuous
 62
     7
370
    25
100
AcDbPolyline
 90
        9
 70
   128
 43
0.0
 10
941.1988890994
 20
1755.035542596
 10
941.2114357577
 20
1755.230632918
 10
941.2485935713
 20
1755.4182260284
 10
941.3089345864
 20
1755.591112829
 10
941.3901399317
 20
1755.7426493772
 10
941.4890889312
 20
1755.8670122083
 10
941.6019790303
 20
1755.9594221285
 10
941.7244719259
 20
1756.0163278764
 10
941.8518602847
 20
1756.035542596
  0
ARC
  5
165
330
1F
100
AcDbEntity
  8
0
  6
Continuous
 62
     7
370
    25
100
AcDbCircle
 10
974.9603681514
 20
1755.2850628602
 30
0.0
 40
5.745289610900904
100
AcDbArc
 50
172.4942769642
 51
182.4891619329
  0
LINE
  5
166
330
1F
100
AcDbEntity
  8
0
  6
Continuous
 62
     7
370
    25
100
AcDbLine
 10
941.8518602847
 20
1756.035542596
 30
0.0
 11
969.2643052235
 21
1756.035542596
 31
0.0
  0
LINE
  5
167
330
1F
100
AcDbEntity
  8
0
  6
Continuous
 62
     7
370
    25
100
AcDbLine
 10
941.1988890994
 20
1743.035542596
 30
0.0
 11
941.1988890994
 21
1755.035542596
 31
0.0
  0
LINE
  5
168
330
1F
100
AcDbEntity
  8
0
  6
Continuous
 62
     7
370
    25
100
AcDbLine
 10
969.2204994812
 20
1743.035542596
 30
0.0
 11
969.2204994812
 21
1755.035542596
 31
0.0
  0
LINE
  5
169
330
1F
100
AcDbEntity
  8
0
  6
Continuous
 62
     7
370
    25
100
AcDbLine
 10
969.2204994812
 20
1743.035542596
 30
0.0
 11
941.1988890994
 21
1743.035542596
 31
0.0
  0
LINE
  5
16A
330
1F
100
AcDbEntity
  8
0
  6
Continuous
 62
     7
370
    25
100
AcDbLine
 10
970.6528359986
 20
1755.035542596
 30
0.0
 11
969.2204994812
 21
1755.035542596
 31
0.0
  0
LINE
  5
16B
330
1F
100
AcDbEntity
  8
0
  6
Continuous
 62
     7
370
    25
100
AcDbLine
 10
969.2643052235
 20
1756.035542596
 30
0.0
 11
971.6515327525
 21
1756.035542596
 31
0.0
  0
LINE
  5
16C
330
1F
100
AcDbEntity
  8
0
  6
Continuous
 62
     7
370
    25
100
AcDbLine
 10
970.6528359986
 20
1743.035542596
 30
0.0
 11
969.2204994812
 21
1743.035542596
 31
0.0
  0
LINE
  5
16D
330
1F
100
AcDbEntity
  8
0
  6
Continuous
 62
     7
370
    25
100
AcDbLine
 10
984.6430616523
 20
1756.035542596
 30
0.0
 11
986.0597835691
 21
1756.035542596
 31
0.0
  0
LINE
  5
16E
330
1F
100
AcDbEntity
  8
0
  6
Continuous
 62
     7
370
    25
100
AcDbLine
 10
985.6430616523
 20
1743.035542596
 30
0.0
 11
986.389210679
 21
1743.035542596
 31
0.0
  0
ARC
  5
16F
330
1F
100
AcDbEntity
  8
0
  6
Continuous
 62
     7
370
    25
100
AcDbCircle
 10
938.3009604009
 20
1755.1657864978
 30
0.0
 40
0.889881013159881
100
AcDbArc
 50
351.5838986176
 51
77.7915486517
  0
LINE
  5
170
330
1F
100
AcDbEntity
  8
0
  6
Continuous
 62
     7
370
    25
100
AcDbLine
 10
927.4903893934
 20
1756.035542596
 30
0.0
 11
938.4891426193
 21
1756.035542596
 31
0.0
  0
LINE
  5
171
330
1F
100
AcDbEntity
  8
0
  6
Continuous
 62
     7
370
    25
100
AcDbLine
 10
939.1812585002
 20
1743.035542596
 30
0.0
 11
939.1812585002
 21
1755.035542596
 31
0.0
  0
LINE
  5
172
330
1F
100
AcDbEntity
  8
0
  6
Continuous
 62
     7
370
    25
100
AcDbLine
 10
939.1812585002
 20
1743.035542596
 30
0.0
 11
926.4903893934
 21
1743.035542596
 31
0.0
  0
LINE
  5
173
330
1F
100
AcDbEntity
  8
0
  6
Continuous
 62
     7
370
    25
100
AcDbLine
 10
941.1988890994
 20
1755.035542596
 30
0.0
 11
939.1812585002
 21
1755.035542596
 31
0.0
  0
LINE
  5
174
330
1F
100
AcDbEntity
  8
0
  6
Continuous
 62
     7
370
    25
100
AcDbLine
 10
938.4891426193
 20
1756.035542596
 30
0.0
 11
941.8518602847
 21
1756.035542596
 31
0.0
  0
LINE
  5
175
330
1F
100
AcDbEntity
  8
0
  6
Continuous
 62
     7
370
    25
100
AcDbLine
 10
939.1812585002
 20
1743.035542596
 30
0.0
 11
941.1988890994
 21
1743.035542596
 31
0.0
  0
LWPOLYLINE
  5
176
330
1F
100
AcDbEntity
  8
0
  6
Continuous
 62
     7
370
    25
100
AcDbPolyline
 90
        9
 70
   128
 43
0.0
 10
1012.4297681556
 20
1756.035542596
 10
1012.3409730139
 20
1756.0163278764
 10
1012.2555902196
 20
1755.9594221285
 10
1012.1769009858
 20
1755.8670122083
 10
1012.1079292955
 20
1755.7426493772
 10
1012.0513256921
 20
1755.591112829
 10
1012.0092654203
 20
1755.4182260284
 10
1011.9833648328
 20
1755.230632918
 10
1011.9746192747
 20
1755.035542596
  0
LINE
  5
177
330
1F
100
AcDbEntity
  8
0
  6
Continuous
 62
     7
370
    25
100
AcDbLine
 10
1012.4297681556
 20
1756.035542596
 30
0.0
 11
1021.8882358818
 21
1756.035542596
 31
0.0
  0
LINE
  5
178
330
1F
100
AcDbEntity
  8
0
  6
Continuous
 62
     7
370
    25
100
AcDbLine
 10
1011.9746192747
 20
1743.035542596
 30
0.0
 11
1011.9746192747
 21
1755.035542596
 31
0.0
  0
LINE
  5
179
330
1F
100
AcDbEntity
  8
0
  6
Continuous
 62
     7
370
    25
100
AcDbLine
 10
1022.8882358818
 20
1743.035542596
 30
0.0
 11
1011.9746192747
 21
1743.035542596
 31
0.0
  0
LINE
  5
17A
330
1F
100
AcDbEntity
  8
0
  6
Continuous
 62
     7
370
    25
100
AcDbLine
 10
1011.9746192747
 20
1755.035542596
 30
0.0
 11
1010.0269591429
 21
1755.035542596
 31
0.0
  0
LINE
  5
17B
330
1F
100
AcDbEntity
  8
0
  6
Continuous
 62
     7
370
    25
100
AcDbLine
 10
1009.1836679359
 20
1756.035542596
 30
0.0
 11
1012.4297681556
 21
1756.035542596
 31
0.0
  0
LINE
  5
17C
330
1F
100
AcDbEntity
  8
0
  6
Continuous
 62
     7
370
    25
100
AcDbLine
 10
1011.9746192747
 20
1743.035542596
 30
0.0
 11
1010.0269591429
 21
1743.035542596
 31
0.0
  0
LINE
  5
17D
330
1F
100
AcDbEntity
  8
0
  6
Continuous
 62
     7
370
    25
100
AcDbLine
 10
926.2355636229
 20
1756.035542596
 30
0.0
 11
927.4903893934
 21
1756.035542596
 31
0.0
  0
LINE
  5
17E
330
1F
100
AcDbEntity
  8
0
  6
Continuous
 62
     7
370
    25
100
AcDbLine
 10
926.4903893934
 20
1743.035542596
 30
0.0
 11
925.2355636229
 21
1743.035542596
 31
0.0
  0
LWPOLYLINE
  5
17F
330
1F
100
AcDbEntity
  8
0
  6
Continuous
 62
     7
370
    25
100
AcDbPolyline
 90
        9
 70
   128
 43
0.0
 10
924.9901857278
 20
1755.035542596
 10
924.9955471614
 20
1755.230632918
 10
925.0114254253
 20
1755.4182260284
 10
925.0372103268
 20
1755.591112829
 10
925.0719109664
 20
1755.7426493772
 10
925.1141938182
 20
1755.8670122083
 10
925.1624339759
 20
1755.9594221285
 10
925.2147775971
 20
1756.0163278764
 10
925.269213146
 20
1756.035542596
  0
LINE
  5
180
330
1F
100
AcDbEntity
  8
0
  6
Continuous
 62
     7
370
    25
100
AcDbLine
 10
925.269213146
 20
1756.035542596
 30
0.0
 11
926.2355636229
 21
1756.035542596
 31
0.0
  0
LINE
  5
181
330
1F
100
AcDbEntity
  8
0
  6
Continuous
 62
     7
370
    25
100
AcDbLine
 10
924.9901857278
 20
1743.035542596
 30
0.0
 11
924.9901857278
 21
1755.035542596
 31
0.0
  0
LINE
  5
182
330
1F
100
AcDbEntity
  8
0
  6
Continuous
 62
     7
370
    25
100
AcDbLine
 10
924.9901857278
 20
1743.035542596
 30
0.0
 11
925.2355636229
 21
1743.035542596
 31
0.0
  0
LINE
  5
183
330
1F
100
AcDbEntity
  8
0
  6
Continuous
 62
     7
370
    25
100
AcDbLine
 10
924.9901857278
 20
1743.035542596
 30
0.0
 11
919.5828913641
 21
1743.035542596
 31
0.0
  0
LINE
  5
184
330
1F
100
AcDbEntity
  8
0
  6
Continuous
 62
     7
370
    25
100
AcDbLine
 10
920.5828913641
 20
1756.035542596
 30
0.0
 11
925.269213146
 21
1756.035542596
 31
0.0
  0
LINE
  5
185
330
1F
100
AcDbEntity
  8
0
  6
Continuous
 62
     7
370
    25
100
AcDbLine
 10
976.4283054129
 20
1528.2673472402
 30
0.0
 11
976.4283054129
 21
1526.8673472402
 31
0.0
  0
LINE
  5
186
330
1F
100
AcDbEntity
  8
0
  6
Continuous
 62
     7
370
    25
100
AcDbLine
 10
976.4283054129
 20
1528.2673472402
 30
0.0
 11
982.6856282963
 21
1528.2673472402
 31
0.0
  0
LINE
  5
187
330
1F
100
AcDbEntity
  8
0
  6
Continuous
 62
     7
370
    25
100
AcDbLine
 10
982.6856282963
 20
1528.2673472402
 30
0.0
 11
985.3368189801
 21
1528.2673472402
 31
0.0
  0
LWPOLYLINE
  5
188
330
1F
100
AcDbEntity
  8
0
  6
Continuous
 62
     7
370
    25
100
AcDbPolyline
 90
        3
 70
   128
 43
0.0
 10
985.7620700224
 20
1527.7673472402
 10
985.7533689364
 20
1527.7780146244
 10
985.3368189801
 20
1528.2673472402
  0
LINE
  5
189
330
1F
100
AcDbEntity
  8
0
  6
Continuous
 62
     7
370
    25
100
AcDbLine
 10
985.7620700224
 20
1527.7673472402
 30
0.0
 11
985.7620700224
 21
1526.8673472402
 31
0.0
  0
LINE
  5
18A
330
1F
100
AcDbEntity
  8
0
  6
Continuous
 62
     7
370
    25
100
AcDbLine
 10
976.4283054129
 20
1526.8673472402
 30
0.0
 11
985.7620700224
 21
1526.8673472402
 31
0.0
  0
LINE
  5
18B
330
1F
100
AcDbEntity
  8
0
  6
Continuous
 62
     7
370
    25
100
AcDbLine
 10
977.5631801456
 20
1526.8673472402
 30
0.0
 11
977.5631801456
 21
1521.3673472402
 31
0.0
  0
LINE
  5
18C
330
1F
100
AcDbEntity
  8
0
  6
Continuous
 62
     7
370
    25
100
AcDbLine
 10
984.6342139407
 20
1526.8673472402
 30
0.0
 11
984.6342139407
 21
1521.3673472402
 31
0.0
  0
LINE
  5
18D
330
1F
100
AcDbEntity
  8
0
  6
Continuous
 62
     7
370
    25
100
AcDbLine
 10
977.5631801456
 20
1521.3673472402
 30
0.0
 11
984.6342139407
 21
1521.3673472402
 31
0.0
  0
LINE
  5
18E
330
1F
100
AcDbEntity
  8
0
  6
Continuous
 62
     7
370
    25
100
AcDbLine
 10
974.2842793596
 20
1532.7673472402
 30
0.0
 11
979.1787450707
 21
1532.7673472402
 31
0.0
  0
LWPOLYLINE
  5
18F
330
1F
100
AcDbEntity
  8
0
  6
Continuous
 62
     7
370
    25
100
AcDbPolyline
 90
        9
 70
   128
 43
0.0
 10
982.6856282963
 20
1528.2673472402
 10
982.5621139722
 20
1529.1683164524
 10
982.3245872128
 20
1530.0220759407
 10
981.9810521716
 20
1530.7998558011
 10
981.543085259
 20
1531.4754464837
 10
981.0254450413
 20
1532.0260819996
 10
980.4455749081
 20
1532.4332070869
 10
979.8230152665
 20
1532.683102484
 10
979.1787450707
 20
1532.7673472402
  0
LINE
  5
190
330
1F
100
AcDbEntity
  8
0
  6
Continuous
 62
     7
370
    25
100
AcDbLine
 10
979.1787450707
 20
1532.7673472402
 30
0.0
 11
979.8880417786
 21
1532.7673472402
 31
0.0
  0
LWPOLYLINE
  5
191
330
1F
100
AcDbEntity
  8
0
  6
Continuous
 62
     7
370
    25
100
AcDbPolyline
 90
        9
 70
   128
 43
0.0
 10
979.8880417786
 20
1532.7673472402
 10
980.5323119745
 20
1532.683102484
 10
981.154871616
 20
1532.4332070869
 10
981.7347417493
 20
1532.0260819996
 10
982.252381967
 20
1531.4754464837
 10
982.6903488796
 20
1530.7998558011
 10
983.0338839207
 20
1530.0220759407
 10
983.2714106801
 20
1529.1683164524
 10
983.3949250042
 20
1528.2673472402
  0
LWPOLYLINE
  5
192
330
1F
100
AcDbEntity
  8
0
  6
Continuous
 62
     7
370
    25
100
AcDbPolyline
 90
        9
 70
   128
 43
0.0
 10
986.1699810173
 20
1528.2673472402
 10
986.0464666933
 20
1529.1683164524
 10
985.8089399339
 20
1530.0220759407
 10
985.4654048927
 20
1530.7998558011
 10
985.0274379801
 20
1531.4754464837
 10
984.5097977624
 20
1532.0260819996
 10
983.9299276292
 20
1532.4332070869
 10
983.3073679876
 20
1532.683102484
 10
982.6630977918
 20
1532.7673472402
  0
LWPOLYLINE
  5
193
330
1F
100
AcDbEntity
  8
0
  6
Continuous
 62
     7
370
    25
100
AcDbPolyline
 90
        9
 70
   128
 43
0.0
 10
983.3723944997
 20
1532.7673472402
 10
984.0166646956
 20
1532.683102484
 10
984.6392243371
 20
1532.4332070869
 10
985.2190944704
 20
1532.0260819996
 10
985.7367346881
 20
1531.4754464837
 10
986.1747016007
 20
1530.7998558011
 10
986.5182366418
 20
1530.0220759407
 10
986.7557634012
 20
1529.1683164524
 10
986.8792777253
 20
1528.2673472402
  0
LINE
  5
194
330
1F
100
AcDbEntity
  8
0
  6
Continuous
 62
     7
370
    25
100
AcDbLine
 10
986.8792777253
 20
1528.2673472402
 30
0.0
 11
989.5036755447
 21
1528.2673472402
 31
0.0
  0
LWPOLYLINE
  5
195
330
1F
100
AcDbEntity
  8
0
  6
Continuous
 62
     7
370
    25
100
AcDbPolyline
 90
        9
 70
   128
 43
0.0
 10
989.5036755447
 20
1528.2673472402
 10
989.3801612206
 20
1529.1683164524
 10
989.1426344612
 20
1530.0220759407
 10
988.79909942
 20
1530.7998558011
 10
988.3611325075
 20
1531.4754464837
 10
987.8434922898
 20
1532.0260819996
 10
987.2636221565
 20
1532.4332070869
 10
986.6410625149
 20
1532.683102484
 10
985.9967923191
 20
1532.7673472402
  0
LINE
  5
196
330
1F
100
AcDbEntity
  8
0
  6
Continuous
 62
     7
370
    25
100
AcDbLine
 10
985.9967923191
 20
1532.7673472402
 30
0.0
 11
986.7060890271
 21
1532.7673472402
 31
0.0
  0
LWPOLYLINE
  5
197
330
1F
100
AcDbEntity
  8
0
  6
Continuous
 62
     7
370
    25
100
AcDbPolyline
 90
        9
 70
   128
 43
0.0
 10
986.7060890271
 20
1532.7673472402
 10
987.3503592229
 20
1532.683102484
 10
987.9729188645
 20
1532.4332070869
 10
988.5527889977
 20
1532.0260819996
 10
989.0704292154
 20
1531.4754464837
 10
989.508396128
 20
1530.7998558011
 10
989.8519311691
 20
1530.0220759407
 10
990.0894579285
 20
1529.1683164524
 10
990.2129722526
 20
1528.2673472402
  0
LINE
  5
198
330
1F
100
AcDbEntity
  8
0
  6
Continuous
 62
     7
370
    25
100
AcDbLine
 10
990.2129722526
 20
1528.2673472402
 30
0.0
 11
992.837370072
 21
1528.2673472402
 31
0.0
  0
LWPOLYLINE
  5
199
330
1F
100
AcDbEntity
  8
0
  6
Continuous
 62
     7
370
    25
100
AcDbPolyline
 90
        9
 70
   128
 43
0.0
 10
992.837370072
 20
1528.2673472402
 10
992.7138557479
 20
1529.1683164524
 10
992.4763289885
 20
1530.0220759407
 10
992.1327939474
 20
1530.7998558011
 10
991.6948270348
 20
1531.4754464837
 10
991.1771868171
 20
1532.0260819996
 10
990.5973166838
 20
1532.4332070869
 10
989.9747570423
 20
1532.683102484
 10
989.3304868464
 20
1532.7673472402
  0
LINE
  5
19A
330
1F
100
AcDbEntity
  8
0
  6
Continuous
 62
     7
370
    25
100
AcDbLine
 10
989.3304868464
 20
1532.7673472402
 30
0.0
 11
990.0397835544
 21
1532.7673472402
 31
0.0
  0
LWPOLYLINE
  5
19B
330
1F
100
AcDbEntity
  8
0
  6
Continuous
 62
     7
370
    25
100
AcDbPolyline
 90
        9
 70
   128
 43
0.0
 10
990.0397835544
 20
1532.7673472402
 10
990.6840537502
 20
1532.683102484
 10
991.3066133918
 20
1532.4332070869
 10
991.886483525
 20
1532.0260819996
 10
992.4041237427
 20
1531.4754464837
 10
992.8420906553
 20
1530.7998558011
 10
993.1856256965
 20
1530.0220759407
 10
993.4231524559
 20
1529.1683164524
 10
993.5466667799
 20
1528.2673472402
  0
LINE
  5
19C
330
1F
100
AcDbEntity
  8
0
  6
Continuous
 62
     7
370
    25
100
AcDbLine
 10
993.5466667799
 20
1528.2673472402
 30
0.0
 11
996.1710645993
 21
1528.2673472402
 31
0.0
  0
LWPOLYLINE
  5
19D
330
1F
100
AcDbEntity
  8
0
  6
Continuous
 62
     7
370
    25
100
AcDbPolyline
 90
        9
 70
   128
 43
0.0
 10
996.1710645993
 20
1528.2673472402
 10
996.0475502752
 20
1529.1683164524
 10
995.8100235158
 20
1530.0220759407
 10
995.4664884747
 20
1530.7998558011
 10
995.0285215621
 20
1531.4754464837
 10
994.5108813444
 20
1532.0260819996
 10
993.9310112112
 20
1532.4332070869
 10
993.3084515696
 20
1532.683102484
 10
992.6641813738
 20
1532.7673472402
  0
LINE
  5
19E
330
1F
100
AcDbEntity
  8
0
  6
Continuous
 62
     7
370
    25
100
AcDbLine
 10
992.6641813738
 20
1532.7673472402
 30
0.0
 11
993.3734780817
 21
1532.7673472402
 31
0.0
  0
LWPOLYLINE
  5
19F
330
1F
100
AcDbEntity
  8
0
  6
Continuous
 62
     7
370
    25
100
AcDbPolyline
 90
        9
 70
   128
 43
0.0
 10
993.3734780817
 20
1532.7673472402
 10
994.0177482775
 20
1532.683102484
 10
994.6403079191
 20
1532.4332070869
 10
995.2201780523
 20
1532.0260819996
 10
995.73781827
 20
1531.4754464837
 10
996.1757851826
 20
1530.7998558011
 10
996.5193202238
 20
1530.0220759407
 10
996.7568469832
 20
1529.1683164524
 10
996.8803613072
 20
1528.2673472402
  0
LINE
  5
1A0
330
1F
100
AcDbEntity
  8
0
  6
Continuous
 62
     7
370
    25
100
AcDbLine
 10
996.8803613072
 20
1528.2673472402
 30
0.0
 11
999.5047591266
 21
1528.2673472402
 31
0.0
  0
LWPOLYLINE
  5
1A1
330
1F
100
AcDbEntity
  8
0
  6
Continuous
 62
     7
370
    25
100
AcDbPolyline
 90
        9
 70
   128
 43
0.0
 10
999.5047591266
 20
1528.2673472402
 10
999.3812448026
 20
1529.1683164524
 10
999.1437180432
 20
1530.0220759407
 10
998.800183002
 20
1530.7998558011
 10
998.3622160894
 20
1531.4754464837
 10
997.8445758717
 20
1532.0260819996
 10
997.2647057385
 20
1532.4332070869
 10
996.6421460969
 20
1532.683102484
 10
995.9978759011
 20
1532.7673472402
  0
LINE
  5
1A2
330
1F
100
AcDbEntity
  8
0
  6
Continuous
 62
     7
370
    25
100
AcDbLine
 10
995.9978759011
 20
1532.7673472402
 30
0.0
 11
996.707172609
 21
1532.7673472402
 31
0.0
  0
LWPOLYLINE
  5
1A3
330
1F
100
AcDbEntity
  8
0
  6
Continuous
 62
     7
370
    25
100
AcDbPolyline
 90
        9
 70
   128
 43
0.0
 10
996.707172609
 20
1532.7673472402
 10
997.3514428048
 20
1532.683102484
 10
997.9740024464
 20
1532.4332070869
 10
998.5538725797
 20
1532.0260819996
 10
999.0715127974
 20
1531.4754464837
 10
999.5094797099
 20
1530.7998558011
 10
999.8530147511
 20
1530.0220759407
 10
1000.0905415105
 20
1529.1683164524
 10
1000.2140558346
 20
1528.2673472402
  0
LINE
  5
1A4
330
1F
100
AcDbEntity
  8
0
  6
Continuous
 62
     7
370
    25
100
AcDbLine
 10
1000.2140558346
 20
1528.2673472402
 30
0.0
 11
1001.0472178718
 21
1528.2673472402
 31
0.0
  0
LWPOLYLINE
  5
1A5
330
1F
100
AcDbEntity
  8
0
  6
Continuous
 62
     7
370
    25
100
AcDbPolyline
 90
        3
 70
   128
 43
0.0
 10
1001.0472178718
 20
1528.2673472402
 10
1000.6659859324
 20
1527.7780146244
 10
1000.6573008892
 20
1527.7673472402
  0
LINE
  5
1A6
330
1F
100
AcDbEntity
  8
0
  6
Continuous
 62
     7
370
    25
100
AcDbLine
 10
1000.6573008892
 20
1527.7673472402
 30
0.0
 11
985.7620700224
 21
1527.7673472402
 31
0.0
  0
LINE
  5
1A7
330
1F
100
AcDbEntity
  8
0
  6
Continuous
 62
     7
370
    25
100
AcDbLine
 10
982.6630977918
 20
1532.7673472402
 30
0.0
 11
983.3723944997
 21
1532.7673472402
 31
0.0
  0
LINE
  5
1A8
330
1F
100
AcDbEntity
  8
0
  6
Continuous
 62
     7
370
    25
100
AcDbLine
 10
985.3368189801
 20
1528.2673472402
 30
0.0
 11
986.1699810173
 21
1528.2673472402
 31
0.0
  0
LINE
  5
1A9
330
1F
100
AcDbEntity
  8
0
  6
Continuous
 62
     7
370
    25
100
AcDbLine
 10
1000.6573008892
 20
1527.7673472402
 30
0.0
 11
1000.6573008892
 21
1526.8673472402
 31
0.0
  0
LINE
  5
1AA
330
1F
100
AcDbEntity
  8
0
  6
Continuous
 62
     7
370
    25
100
AcDbLine
 10
985.7620700224
 20
1526.8673472402
 30
0.0
 11
1000.6573008892
 21
1526.8673472402
 31
0.0
  0
LINE
  5
1AB
330
1F
100
AcDbEntity
  8
0
  6
Continuous
 62
     7
370
    25
100
AcDbLine
 10
974.2058988526
 20
1528.2673472402
 30
0.0
 11
976.4283054129
 21
1528.2673472402
 31
0.0
  0
LINE
  5
1AC
330
1F
100
AcDbEntity
  8
0
  6
Continuous
 62
     7
370
    25
100
AcDbLine
 10
974.2058988526
 20
1526.8673472402
 30
0.0
 11
976.4283054129
 21
1526.8673472402
 31
0.0
  0
LINE
  5
1AD
330
1F
100
AcDbEntity
  8
0
  6
Continuous
 62
     7
370
    25
100
AcDbLine
 10
980.7241545137
 20
1532.7673472402
 30
0.0
 11
982.6630977918
 21
1532.7673472402
 31
0.0
  0
LINE
  5
1AE
330
1F
100
AcDbEntity
  8
0
  6
Continuous
 62
     7
370
    25
100
AcDbLine
 10
999.5294448074
 20
1526.8673472402
 30
0.0
 11
999.5294448074
 21
1521.3673472402
 31
0.0
  0
LINE
  5
1AF
330
1F
100
AcDbEntity
  8
0
  6
Continuous
 62
     7
370
    25
100
AcDbLine
 10
984.6342139407
 20
1521.3673472402
 30
0.0
 11
999.5294448074
 21
1521.3673472402
 31
0.0
  0
LINE
  5
1B0
330
1F
100
AcDbEntity
  8
0
  6
Continuous
 62
     7
370
    25
100
AcDbLine
 10
974.2842793596
 20
1521.3673472402
 30
0.0
 11
977.5631801456
 21
1521.3673472402
 31
0.0
  0
LINE
  5
1B1
330
1F
100
AcDbEntity
  8
0
  6
Continuous
 62
     7
370
    25
100
AcDbLine
 10
984.0582896787
 20
1532.7673472402
 30
0.0
 11
985.9967923191
 21
1532.7673472402
 31
0.0
  0
LINE
  5
1B2
330
1F
100
AcDbEntity
  8
0
  6
Continuous
 62
     7
370
    25
100
AcDbLine
 10
976.5123950543
 20
1521.3673472402
 30
0.0
 11
976.5123950543
 21
1517.7673472402
 31
0.0
  0
LINE
  5
1B3
330
1F
100
AcDbEntity
  8
0
  6
Continuous
 62
     7
370
    25
100
AcDbLine
 10
976.5123950543
 20
1517.7673472402
 30
0.0
 11
978.1083126472
 21
1517.7673472402
 31
0.0
  0
LINE
  5
1B4
330
1F
100
AcDbEntity
  8
0
  6
Continuous
 62
     7
370
    25
100
AcDbLine
 10
976.5123950543
 20
1517.7673472402
 30
0.0
 11
974.2842793596
 21
1517.7673472402
 31
0.0
  0
LINE
  5
1B5
330
1F
100
AcDbEntity
  8
0
  6
Continuous
 62
     7
370
    25
100
AcDbLine
 10
977.2216917622
 20
1515.1673472402
 30
0.0
 11
978.1083126472
 21
1515.1673472402
 31
0.0
  0
LINE
  5
1B6
330
1F
100
AcDbEntity
  8
0
  6
Continuous
 62
     7
370
    25
100
AcDbLine
 10
976.5123950543
 20
1512.3673472402
 30
0.0
 11
976.5123950543
 21
1511.3673472402
 31
0.0
  0
LINE
  5
1B7
330
1F
100
AcDbEntity
  8
0
  6
Continuous
 62
     7
370
    25
100
AcDbLine
 10
977.2216917622
 20
1512.3673472402
 30
0.0
 11
976.5123950543
 21
1512.3673472402
 31
0.0
  0
LINE
  5
1B8
330
1F
100
AcDbEntity
  8
0
  6
Continuous
 62
     7
370
    25
100
AcDbLine
 10
977.2216917622
 20
1515.1673472402
 30
0.0
 11
977.2216917622
 21
1512.3673472402
 31
0.0
  0
LINE
  5
1B9
330
1F
100
AcDbEntity
  8
0
  6
Continuous
 62
     7
370
    25
100
AcDbLine
 10
976.5123950543
 20
1511.3673472402
 30
0.0
 11
978.1083126472
 21
1511.3673472402
 31
0.0
  0
LINE
  5
1BA
330
1F
100
AcDbEntity
  8
0
  6
Continuous
 62
     7
370
    25
100
AcDbLine
 10
976.5123950543
 20
1512.3673472402
 30
0.0
 11
974.291528547
 21
1512.3673472402
 31
0.0
  0
LINE
  5
1BB
330
1F
100
AcDbEntity
  8
0
  6
Continuous
 62
     7
370
    25
100
AcDbLine
 10
974.291528547
 20
1511.3673472402
 30
0.0
 11
976.5123950543
 21
1511.3673472402
 31
0.0
  0
LINE
  5
1BC
330
1F
100
AcDbEntity
  8
0
  6
Continuous
 62
     7
370
    25
100
AcDbLine
 10
975.6708896499
 20
1515.1673472402
 30
0.0
 11
975.6708896499
 21
1517.7673472402
 31
0.0
  0
LINE
  5
1BD
330
1F
100
AcDbEntity
  8
0
  6
Continuous
 62
     7
370
    25
100
AcDbLine
 10
977.2216917622
 20
1515.1673472402
 30
0.0
 11
975.6708896499
 21
1515.1673472402
 31
0.0
  0
LINE
  5
1BE
330
1F
100
AcDbEntity
  8
0
  6
Continuous
 62
     7
370
    25
100
AcDbLine
 10
994.5841078078
 20
1519.3673472402
 30
0.0
 11
994.5841078078
 21
1521.3673472402
 31
0.0
  0
LINE
  5
1BF
330
1F
100
AcDbEntity
  8
0
  6
Continuous
 62
     7
370
    25
100
AcDbLine
 10
994.5841078078
 20
1517.7673472402
 30
0.0
 11
994.5841078078
 21
1519.3673472402
 31
0.0
  0
LINE
  5
1C0
330
1F
100
AcDbEntity
  8
0
  6
Continuous
 62
     7
370
    25
100
AcDbLine
 10
991.392272622
 20
1516.7673472402
 30
0.0
 11
991.392272622
 21
1517.7673472402
 31
0.0
  0
LINE
  5
1C1
330
1F
100
AcDbEntity
  8
0
  6
Continuous
 62
     7
370
    25
100
AcDbLine
 10
984.6539538966
 20
1516.7673472402
 30
0.0
 11
991.392272622
 21
1516.7673472402
 31
0.0
  0
LINE
  5
1C2
330
1F
100
AcDbEntity
  8
0
  6
Continuous
 62
     7
370
    25
100
AcDbLine
 10
984.6539538966
 20
1517.7673472402
 30
0.0
 11
984.6539538966
 21
1516.7673472402
 31
0.0
  0
LINE
  5
1C3
330
1F
100
AcDbEntity
  8
0
  6
Continuous
 62
     7
370
    25
100
AcDbLine
 10
982.2423450896
 20
1521.3673472402
 30
0.0
 11
982.2423450896
 21
1517.7673472402
 31
0.0
  0
LINE
  5
1C4
330
1F
100
AcDbEntity
  8
0
  6
Continuous
 62
     7
370
    25
100
AcDbLine
 10
982.2423450896
 20
1517.7673472402
 30
0.0
 11
984.6539538966
 21
1517.7673472402
 31
0.0
  0
LINE
  5
1C5
330
1F
100
AcDbEntity
  8
0
  6
Continuous
 62
     7
370
    25
100
AcDbLine
 10
991.392272622
 20
1517.7673472402
 30
0.0
 11
994.5841078078
 21
1517.7673472402
 31
0.0
  0
LINE
  5
1C6
330
1F
100
AcDbEntity
  8
0
  6
Continuous
 62
     7
370
    25
100
AcDbLine
 10
982.0661175768
 20
1517.7673472402
 30
0.0
 11
982.2423450896
 21
1517.7673472402
 31
0.0
  0
LINE
  5
1C7
330
1F
100
AcDbEntity
  8
0
  6
Continuous
 62
     7
370
    25
100
AcDbLine
 10
987.391984206
 20
1532.7673472402
 30
0.0
 11
989.3304868464
 21
1532.7673472402
 31
0.0
  0
LINE
  5
1C8
330
1F
100
AcDbEntity
  8
0
  6
Continuous
 62
     7
370
    25
100
AcDbLine
 10
984.4777263838
 20
1516.7673472402
 30
0.0
 11
984.6539538966
 21
1516.7673472402
 31
0.0
  0
LINE
  5
1C9
330
1F
100
AcDbEntity
  8
0
  6
Continuous
 62
     7
370
    25
100
AcDbLine
 10
990.7256787333
 20
1532.7673472402
 30
0.0
 11
992.6641813738
 21
1532.7673472402
 31
0.0
  0
LINE
  5
1CA
330
1F
100
AcDbEntity
  8
0
  6
Continuous
 62
     7
370
    25
100
AcDbLine
 10
994.0593732606
 20
1532.7673472402
 30
0.0
 11
995.9978759011
 21
1532.7673472402
 31
0.0
  0
LINE
  5
1CB
330
1F
100
AcDbEntity
  8
0
  6
Continuous
 62
     7
370
    25
100
AcDbLine
 10
1002.404076777
 20
1528.2673472402
 30
0.0
 11
1002.6048945521
 21
1528.2673472402
 31
0.0
  0
LINE
  5
1CC
330
1F
100
AcDbEntity
  8
0
  6
Continuous
 62
     7
370
    25
100
AcDbLine
 10
1001.0472178718
 20
1528.2673472402
 30
0.0
 11
1002.404076777
 21
1528.2673472402
 31
0.0
  0
LINE
  5
1CD
330
1F
100
AcDbEntity
  8
0
  6
Continuous
 62
     7
370
    25
100
AcDbLine
 10
1000.6573008892
 20
1526.8673472402
 30
0.0
 11
1002.6048945521
 21
1526.8673472402
 31
0.0
  0
LINE
  5
1CE
330
1F
100
AcDbEntity
  8
0
  6
Continuous
 62
     7
370
    25
100
AcDbLine
 10
999.5294448074
 20
1521.3673472402
 30
0.0
 11
1001.0048945521
 21
1521.3673472402
 31
0.0
  0
LWPOLYLINE
  5
1CF
330
1F
100
AcDbEntity
  8
0
  6
Continuous
 62
     7
370
    25
100
AcDbPolyline
 90
        9
 70
   128
 43
0.0
 10
1001.6947800691
 20
1528.2673472402
 10
1001.571265745
 20
1529.1683164524
 10
1001.3337389856
 20
1530.0220759407
 10
1000.9902039444
 20
1530.7998558011
 10
1000.5522370319
 20
1531.4754464837
 10
1000.0345968141
 20
1532.0260819996
 10
999.4547266809
 20
1532.4332070869
 10
998.8321670393
 20
1532.683102484
 10
998.1878968435
 20
1532.7673472402
  0
LWPOLYLINE
  5
1D0
330
1F
100
AcDbEntity
  8
0
  6
Continuous
 62
     7
370
    25
100
AcDbPolyline
 90
        9
 70
   128
 43
0.0
 10
998.8971935515
 20
1532.7673472402
 10
999.5414637473
 20
1532.683102484
 10
1000.1640233888
 20
1532.4332070869
 10
1000.7438935221
 20
1532.0260819996
 10
1001.2615337398
 20
1531.4754464837
 10
1001.6995006524
 20
1530.7998558011
 10
1002.0430356935
 20
1530.0220759407
 10
1002.2805624529
 20
1529.1683164524
 10
1002.404076777
 20
1528.2673472402
  0
LINE
  5
1D1
330
1F
100
AcDbEntity
  8
0
  6
Continuous
 62
     7
370
    25
100
AcDbLine
 10
998.1878968435
 20
1532.7673472402
 30
0.0
 11
998.8971935515
 21
1532.7673472402
 31
0.0
  0
LINE
  5
1D2
330
1F
100
AcDbEntity
  8
0
  6
Continuous
 62
     7
370
    25
100
AcDbLine
 10
996.707172609
 20
1532.7673472402
 30
0.0
 11
998.1878968435
 21
1532.7673472402
 31
0.0
  0
LINE
  5
1D3
330
1F
100
AcDbEntity
  8
0
  6
Continuous
 62
     7
370
    25
100
AcDbLine
 10
995.5152694253
 20
1517.7673472402
 30
0.0
 11
994.5841078078
 21
1517.7673472402
 31
0.0
  0
LINE
  5
1D4
330
1F
100
AcDbEntity
  8
0
  6
Continuous
 62
     7
370
    25
100
AcDbLine
 10
960.7305782241
 20
1504.3673472402
 30
0.0
 11
954.4732553408
 21
1504.3673472402
 31
0.0
  0
LINE
  5
1D5
330
1F
100
AcDbEntity
  8
0
  6
Continuous
 62
     7
370
    25
100
AcDbLine
 10
954.4732553408
 20
1504.3673472402
 30
0.0
 11
954.4732553408
 21
1505.7673472402
 31
0.0
  0
LINE
  5
1D6
330
1F
100
AcDbEntity
  8
0
  6
Continuous
 62
     7
370
    25
100
AcDbLine
 10
963.8070199503
 20
1504.8673472402
 30
0.0
 11
963.8070199503
 21
1505.7673472402
 31
0.0
  0
LWPOLYLINE
  5
1D7
330
1F
100
AcDbEntity
  8
0
  6
Continuous
 62
     7
370
    25
100
AcDbPolyline
 90
        3
 70
   128
 43
0.0
 10
963.381768908
 20
1504.3673472402
 10
963.7983188643
 20
1504.856679856
 10
963.8070199503
 20
1504.8673472402
  0
LINE
  5
1D8
330
1F
100
AcDbEntity
  8
0
  6
Continuous
 62
     7
370
    25
100
AcDbLine
 10
963.381768908
 20
1504.3673472402
 30
0.0
 11
960.7305782241
 21
1504.3673472402
 31
0.0
  0
LINE
  5
1D9
330
1F
100
AcDbEntity
  8
0
  6
Continuous
 62
     7
370
    25
100
AcDbLine
 10
963.8070199503
 20
1505.7673472402
 30
0.0
 11
954.4732553408
 21
1505.7673472402
 31
0.0
  0
LINE
  5
1DA
330
1F
100
AcDbEntity
  8
0
  6
Continuous
 62
     7
370
    25
100
AcDbLine
 10
962.6791638686
 20
1505.7673472402
 30
0.0
 11
962.6791638686
 21
1511.2673472402
 31
0.0
  0
LINE
  5
1DB
330
1F
100
AcDbEntity
  8
0
  6
Continuous
 62
     7
370
    25
100
AcDbLine
 10
955.6081300735
 20
1505.7673472402
 30
0.0
 11
955.6081300735
 21
1511.2673472402
 31
0.0
  0
LINE
  5
1DC
330
1F
100
AcDbEntity
  8
0
  6
Continuous
 62
     7
370
    25
100
AcDbLine
 10
962.6791638686
 20
1511.2673472402
 30
0.0
 11
955.6081300735
 21
1511.2673472402
 31
0.0
  0
LWPOLYLINE
  5
1DD
330
1F
100
AcDbEntity
  8
0
  6
Continuous
 62
     7
370
    25
100
AcDbPolyline
 90
        9
 70
   128
 43
0.0
 10
961.4398749321
 20
1504.3673472402
 10
961.316360608
 20
1503.466378028
 10
961.0788338486
 20
1502.6126185397
 10
960.7352988075
 20
1501.8348386793
 10
960.2973318949
 20
1501.1592479966
 10
959.7796916772
 20
1500.6086124807
 10
959.1998215439
 20
1500.2014873935
 10
958.5772619024
 20
1499.9515919964
 10
957.9329917065
 20
1499.8673472402
  0
LINE
  5
1DE
330
1F
100
AcDbEntity
  8
0
  6
Continuous
 62
     7
370
    25
100
AcDbLine
 10
957.9329917065
 20
1499.8673472402
 30
0.0
 11
957.2236949986
 21
1499.8673472402
 31
0.0
  0
LWPOLYLINE
  5
1DF
330
1F
100
AcDbEntity
  8
0
  6
Continuous
 62
     7
370
    25
100
AcDbPolyline
 90
        9
 70
   128
 43
0.0
 10
957.2236949986
 20
1499.8673472402
 10
957.8679651944
 20
1499.9515919964
 10
958.490524836
 20
1500.2014873935
 10
959.0703949692
 20
1500.6086124807
 10
959.5880351869
 20
1501.1592479966
 10
960.0260020995
 20
1501.8348386793
 10
960.3695371407
 20
1502.6126185397
 10
960.6070639001
 20
1503.466378028
 10
960.7305782241
 20
1504.3673472402
  0
LINE
  5
1E0
330
1F
100
AcDbEntity
  8
0
  6
Continuous
 62
     7
370
    25
100
AcDbLine
 10
950.7512693721
 20
1499.8673472402
 30
0.0
 11
950.7512693721
 21
1504.3673472402
 31
0.0
  0
LINE
  5
1E1
330
1F
100
AcDbEntity
  8
0
  6
Continuous
 62
     7
370
    25
100
AcDbLine
 10
950.7512693721
 20
1499.8673472402
 30
0.0
 11
957.2236949986
 21
1499.8673472402
 31
0.0
  0
LINE
  5
1E2
330
1F
100
AcDbEntity
  8
0
  6
Continuous
 62
     7
370
    25
100
AcDbLine
 10
979.0921677997
 20
1504.3673472402
 30
0.0
 11
978.2590057625
 21
1504.3673472402
 31
0.0
  0
LWPOLYLINE
  5
1E3
330
1F
100
AcDbEntity
  8
0
  6
Continuous
 62
     7
370
    25
100
AcDbPolyline
 90
        9
 70
   128
 43
0.0
 10
978.2590057625
 20
1504.3673472402
 10
978.1354914384
 20
1503.466378028
 10
977.897964679
 20
1502.6126185397
 10
977.5544296378
 20
1501.8348386793
 10
977.1164627253
 20
1501.1592479966
 10
976.5988225076
 20
1500.6086124807
 10
976.0189523743
 20
1500.2014873935
 10
975.3963927327
 20
1499.9515919964
 10
974.7521225369
 20
1499.8673472402
  0
LINE
  5
1E4
330
1F
100
AcDbEntity
  8
0
  6
Continuous
 62
     7
370
    25
100
AcDbLine
 10
974.7521225369
 20
1499.8673472402
 30
0.0
 11
974.042825829
 21
1499.8673472402
 31
0.0
  0
LWPOLYLINE
  5
1E5
330
1F
100
AcDbEntity
  8
0
  6
Continuous
 62
     7
370
    25
100
AcDbPolyline
 90
        9
 70
   128
 43
0.0
 10
974.042825829
 20
1499.8673472402
 10
974.6870960248
 20
1499.9515919964
 10
975.3096556664
 20
1500.2014873935
 10
975.8895257996
 20
1500.6086124807
 10
976.4071660173
 20
1501.1592479966
 10
976.8451329299
 20
1501.8348386793
 10
977.1886679711
 20
1502.6126185397
 10
977.4261947305
 20
1503.466378028
 10
977.5497090545
 20
1504.3673472402
  0
LINE
  5
1E6
330
1F
100
AcDbEntity
  8
0
  6
Continuous
 62
     7
370
    25
100
AcDbLine
 10
977.5497090545
 20
1504.3673472402
 30
0.0
 11
974.9253112351
 21
1504.3673472402
 31
0.0
  0
LWPOLYLINE
  5
1E7
330
1F
100
AcDbEntity
  8
0
  6
Continuous
 62
     7
370
    25
100
AcDbPolyline
 90
        9
 70
   128
 43
0.0
 10
974.9253112351
 20
1504.3673472402
 10
974.8017969111
 20
1503.466378028
 10
974.5642701517
 20
1502.6126185397
 10
974.2207351105
 20
1501.8348386793
 10
973.7827681979
 20
1501.1592479966
 10
973.2651279802
 20
1500.6086124807
 10
972.685257847
 20
1500.2014873935
 10
972.0626982054
 20
1499.9515919964
 10
971.4184280096
 20
1499.8673472402
  0
LINE
  5
1E8
330
1F
100
AcDbEntity
  8
0
  6
Continuous
 62
     7
370
    25
100
AcDbLine
 10
971.4184280096
 20
1499.8673472402
 30
0.0
 11
970.7091313017
 21
1499.8673472402
 31
0.0
  0
LWPOLYLINE
  5
1E9
330
1F
100
AcDbEntity
  8
0
  6
Continuous
 62
     7
370
    25
100
AcDbPolyline
 90
        9
 70
   128
 43
0.0
 10
970.7091313017
 20
1499.8673472402
 10
971.3534014975
 20
1499.9515919964
 10
971.975961139
 20
1500.2014873935
 10
972.5558312723
 20
1500.6086124807
 10
973.07347149
 20
1501.1592479966
 10
973.5114384026
 20
1501.8348386793
 10
973.8549734437
 20
1502.6126185397
 10
974.0925002031
 20
1503.466378028
 10
974.2160145272
 20
1504.3673472402
  0
LINE
  5
1EA
330
1F
100
AcDbEntity
  8
0
  6
Continuous
 62
     7
370
    25
100
AcDbLine
 10
974.2160145272
 20
1504.3673472402
 30
0.0
 11
971.5916167078
 21
1504.3673472402
 31
0.0
  0
LWPOLYLINE
  5
1EB
330
1F
100
AcDbEntity
  8
0
  6
Continuous
 62
     7
370
    25
100
AcDbPolyline
 90
        9
 70
   128
 43
0.0
 10
971.5916167078
 20
1504.3673472402
 10
971.4681023838
 20
1503.466378028
 10
971.2305756244
 20
1502.6126185397
 10
970.8870405832
 20
1501.8348386793
 10
970.4490736706
 20
1501.1592479966
 10
969.9314334529
 20
1500.6086124807
 10
969.3515633197
 20
1500.2014873935
 10
968.7290036781
 20
1499.9515919964
 10
968.0847334823
 20
1499.8673472402
  0
LINE
  5
1EC
330
1F
100
AcDbEntity
  8
0
  6
Continuous
 62
     7
370
    25
100
AcDbLine
 10
968.0847334823
 20
1499.8673472402
 30
0.0
 11
967.3754367743
 21
1499.8673472402
 31
0.0
  0
LWPOLYLINE
  5
1ED
330
1F
100
AcDbEntity
  8
0
  6
Continuous
 62
     7
370
    25
100
AcDbPolyline
 90
        9
 70
   128
 43
0.0
 10
967.3754367743
 20
1499.8673472402
 10
968.0197069702
 20
1499.9515919964
 10
968.6422666117
 20
1500.2014873935
 10
969.222136745
 20
1500.6086124807
 10
969.7397769627
 20
1501.1592479966
 10
970.1777438753
 20
1501.8348386793
 10
970.5212789164
 20
1502.6126185397
 10
970.7588056758
 20
1503.466378028
 10
970.8823199999
 20
1504.3673472402
  0
LINE
  5
1EE
330
1F
100
AcDbEntity
  8
0
  6
Continuous
 62
     7
370
    25
100
AcDbLine
 10
970.8823199999
 20
1504.3673472402
 30
0.0
 11
968.2579221805
 21
1504.3673472402
 31
0.0
  0
LWPOLYLINE
  5
1EF
330
1F
100
AcDbEntity
  8
0
  6
Continuous
 62
     7
370
    25
100
AcDbPolyline
 90
        9
 70
   128
 43
0.0
 10
968.2579221805
 20
1504.3673472402
 10
968.1344078564
 20
1503.466378028
 10
967.896881097
 20
1502.6126185397
 10
967.5533460559
 20
1501.8348386793
 10
967.1153791433
 20
1501.1592479966
 10
966.5977389256
 20
1500.6086124807
 10
966.0178687923
 20
1500.2014873935
 10
965.3953091508
 20
1499.9515919964
 10
964.751038955
 20
1499.8673472402
  0
LINE
  5
1F0
330
1F
100
AcDbEntity
  8
0
  6
Continuous
 62
     7
370
    25
100
AcDbLine
 10
964.751038955
 20
1499.8673472402
 30
0.0
 11
964.041742247
 21
1499.8673472402
 31
0.0
  0
LWPOLYLINE
  5
1F1
330
1F
100
AcDbEntity
  8
0
  6
Continuous
 62
     7
370
    25
100
AcDbPolyline
 90
        9
 70
   128
 43
0.0
 10
964.041742247
 20
1499.8673472402
 10
964.6860124428
 20
1499.9515919964
 10
965.3085720844
 20
1500.2014873935
 10
965.8884422177
 20
1500.6086124807
 10
966.4060824354
 20
1501.1592479966
 10
966.8440493479
 20
1501.8348386793
 10
967.1875843891
 20
1502.6126185397
 10
967.4251111485
 20
1503.466378028
 10
967.5486254726
 20
1504.3673472402
  0
LINE
  5
1F2
330
1F
100
AcDbEntity
  8
0
  6
Continuous
 62
     7
370
    25
100
AcDbLine
 10
967.5486254726
 20
1504.3673472402
 30
0.0
 11
964.9242276532
 21
1504.3673472402
 31
0.0
  0
LWPOLYLINE
  5
1F3
330
1F
100
AcDbEntity
  8
0
  6
Continuous
 62
     7
370
    25
100
AcDbPolyline
 90
        9
 70
   128
 43
0.0
 10
964.9242276532
 20
1504.3673472402
 10
964.8007133291
 20
1503.466378028
 10
964.5631865697
 20
1502.6126185397
 10
964.2196515286
 20
1501.8348386793
 10
963.781684616
 20
1501.1592479966
 10
963.2640443983
 20
1500.6086124807
 10
962.684174265
 20
1500.2014873935
 10
962.0616146235
 20
1499.9515919964
 10
961.4173444276
 20
1499.8673472402
  0
LWPOLYLINE
  5
1F4
330
1F
100
AcDbEntity
  8
0
  6
Continuous
 62
     7
370
    25
100
AcDbPolyline
 90
        9
 70
   128
 43
0.0
 10
960.7080477197
 20
1499.8673472402
 10
961.3523179155
 20
1499.9515919964
 10
961.9748775571
 20
1500.2014873935
 10
962.5547476903
 20
1500.6086124807
 10
963.072387908
 20
1501.1592479966
 10
963.5103548206
 20
1501.8348386793
 10
963.8538898618
 20
1502.6126185397
 10
964.0914166212
 20
1503.466378028
 10
964.2149309452
 20
1504.3673472402
  0
LINE
  5
1F5
330
1F
100
AcDbEntity
  8
0
  6
Continuous
 62
     7
370
    25
100
AcDbLine
 10
963.8070199503
 20
1504.8673472402
 30
0.0
 11
978.7022508171
 21
1504.8673472402
 31
0.0
  0
LWPOLYLINE
  5
1F6
330
1F
100
AcDbEntity
  8
0
  6
Continuous
 62
     7
370
    25
100
AcDbPolyline
 90
        3
 70
   128
 43
0.0
 10
978.7022508171
 20
1504.8673472402
 10
978.7109358602
 20
1504.856679856
 10
979.0921677997
 20
1504.3673472402
  0
LINE
  5
1F7
330
1F
100
AcDbEntity
  8
0
  6
Continuous
 62
     7
370
    25
100
AcDbLine
 10
961.4173444276
 20
1499.8673472402
 30
0.0
 11
960.7080477197
 21
1499.8673472402
 31
0.0
  0
LINE
  5
1F8
330
1F
100
AcDbEntity
  8
0
  6
Continuous
 62
     7
370
    25
100
AcDbLine
 10
964.2149309452
 20
1504.3673472402
 30
0.0
 11
963.381768908
 21
1504.3673472402
 31
0.0
  0
LINE
  5
1F9
330
1F
100
AcDbEntity
  8
0
  6
Continuous
 62
     7
370
    25
100
AcDbLine
 10
978.7022508171
 20
1504.8673472402
 30
0.0
 11
978.7022508171
 21
1505.7673472402
 31
0.0
  0
LINE
  5
1FA
330
1F
100
AcDbEntity
  8
0
  6
Continuous
 62
     7
370
    25
100
AcDbLine
 10
978.7022508171
 20
1505.7673472402
 30
0.0
 11
963.8070199503
 21
1505.7673472402
 31
0.0
  0
LINE
  5
1FB
330
1F
100
AcDbEntity
  8
0
  6
Continuous
 62
     7
370
    25
100
AcDbLine
 10
948.4815199067
 20
1499.8673472402
 30
0.0
 11
948.4815199067
 21
1504.3673472402
 31
0.0
  0
LINE
  5
1FC
330
1F
100
AcDbEntity
  8
0
  6
Continuous
 62
     7
370
    25
100
AcDbLine
 10
947.7766098556
 20
1499.8673472402
 30
0.0
 11
947.7766098556
 21
1504.3673472402
 31
0.0
  0
LINE
  5
1FD
330
1F
100
AcDbEntity
  8
0
  6
Continuous
 62
     7
370
    25
100
AcDbLine
 10
947.7766098556
 20
1504.3673472402
 30
0.0
 11
941.7848744215
 21
1504.3673472402
 31
0.0
  0
LINE
  5
1FE
330
1F
100
AcDbEntity
  8
0
  6
Continuous
 62
     7
370
    25
100
AcDbLine
 10
941.7848744215
 20
1504.3673472402
 30
0.0
 11
941.7848744215
 21
1505.7673472402
 31
0.0
  0
LINE
  5
1FF
330
1F
100
AcDbEntity
  8
0
  6
Continuous
 62
     7
370
    25
100
AcDbLine
 10
948.4815199067
 20
1499.8673472402
 30
0.0
 11
947.7766098556
 21
1499.8673472402
 31
0.0
  0
LINE
  5
200
330
1F
100
AcDbEntity
  8
0
  6
Continuous
 62
     7
370
    25
100
AcDbLine
 10
954.4732553408
 20
1504.3673472402
 30
0.0
 11
948.4815199067
 21
1504.3673472402
 31
0.0
  0
LINE
  5
201
330
1F
100
AcDbEntity
  8
0
  6
Continuous
 62
     7
370
    25
100
AcDbLine
 10
954.4732553408
 20
1505.7673472402
 30
0.0
 11
941.7848744215
 21
1505.7673472402
 31
0.0
  0
LINE
  5
202
330
1F
100
AcDbEntity
  8
0
  6
Continuous
 62
     7
370
    25
100
AcDbLine
 10
958.7691044416
 20
1499.8673472402
 30
0.0
 11
960.7080477197
 21
1499.8673472402
 31
0.0
  0
LINE
  5
203
330
1F
100
AcDbEntity
  8
0
  6
Continuous
 62
     7
370
    25
100
AcDbLine
 10
977.5743947353
 20
1505.7673472402
 30
0.0
 11
977.5743947353
 21
1511.2673472402
 31
0.0
  0
LINE
  5
204
330
1F
100
AcDbEntity
  8
0
  6
Continuous
 62
     7
370
    25
100
AcDbLine
 10
977.5743947353
 20
1511.2673472402
 30
0.0
 11
962.6791638686
 21
1511.2673472402
 31
0.0
  0
LINE
  5
205
330
1F
100
AcDbEntity
  8
0
  6
Continuous
 62
     7
370
    25
100
AcDbLine
 10
942.9197491542
 20
1505.7673472402
 30
0.0
 11
942.9197491542
 21
1511.2673472402
 31
0.0
  0
LINE
  5
206
330
1F
100
AcDbEntity
  8
0
  6
Continuous
 62
     7
370
    25
100
AcDbLine
 10
955.6081300735
 20
1511.2673472402
 30
0.0
 11
942.9197491542
 21
1511.2673472402
 31
0.0
  0
LINE
  5
207
330
1F
100
AcDbEntity
  8
0
  6
Continuous
 62
     7
370
    25
100
AcDbLine
 10
961.2803104086
 20
1513.2673472402
 30
0.0
 11
961.2803104086
 21
1511.2673472402
 31
0.0
  0
LINE
  5
208
330
1F
100
AcDbEntity
  8
0
  6
Continuous
 62
     7
370
    25
100
AcDbLine
 10
959.9966937655
 20
1514.8673472402
 30
0.0
 11
961.2803104086
 21
1514.8673472402
 31
0.0
  0
LINE
  5
209
330
1F
100
AcDbEntity
  8
0
  6
Continuous
 62
     7
370
    25
100
AcDbLine
 10
961.2803104086
 20
1514.8673472402
 30
0.0
 11
961.2803104086
 21
1513.2673472402
 31
0.0
  0
LINE
  5
20A
330
1F
100
AcDbEntity
  8
0
  6
Continuous
 62
     7
370
    25
100
AcDbLine
 10
962.1032396066
 20
1499.8673472402
 30
0.0
 11
964.041742247
 21
1499.8673472402
 31
0.0
  0
LINE
  5
20B
330
1F
100
AcDbEntity
  8
0
  6
Continuous
 62
     7
370
    25
100
AcDbLine
 10
974.291528547
 20
1521.2673472402
 30
0.0
 11
974.2842793596
 21
1521.2673472402
 31
0.0
  0
LINE
  5
20C
330
1F
100
AcDbEntity
  8
0
  6
Continuous
 62
     7
370
    25
100
AcDbLine
 10
974.2842793596
 20
1520.2673472402
 30
0.0
 11
974.291528547
 21
1520.2673472402
 31
0.0
  0
LINE
  5
20D
330
1F
100
AcDbEntity
  8
0
  6
Continuous
 62
     7
370
    25
100
AcDbLine
 10
948.4815199067
 20
1499.8673472402
 30
0.0
 11
950.7512693721
 21
1499.8673472402
 31
0.0
  0
LINE
  5
20E
330
1F
100
AcDbEntity
  8
0
  6
Continuous
 62
     7
370
    25
100
AcDbLine
 10
964.4721455943
 20
1515.8673472402
 30
0.0
 11
964.4721455943
 21
1514.8673472402
 31
0.0
  0
LINE
  5
20F
330
1F
100
AcDbEntity
  8
0
  6
Continuous
 62
     7
370
    25
100
AcDbLine
 10
971.2104643198
 20
1515.8673472402
 30
0.0
 11
964.4721455943
 21
1515.8673472402
 31
0.0
  0
LINE
  5
210
330
1F
100
AcDbEntity
  8
0
  6
Continuous
 62
     7
370
    25
100
AcDbLine
 10
971.2104643198
 20
1514.8673472402
 30
0.0
 11
971.2104643198
 21
1515.8673472402
 31
0.0
  0
LINE
  5
211
330
1F
100
AcDbEntity
  8
0
  6
Continuous
 62
     7
370
    25
100
AcDbLine
 10
973.6220731268
 20
1511.2673472402
 30
0.0
 11
973.6220731268
 21
1514.8673472402
 31
0.0
  0
LINE
  5
212
330
1F
100
AcDbEntity
  8
0
  6
Continuous
 62
     7
370
    25
100
AcDbLine
 10
973.6220731268
 20
1514.8673472402
 30
0.0
 11
971.2104643198
 21
1514.8673472402
 31
0.0
  0
LINE
  5
213
330
1F
100
AcDbEntity
  8
0
  6
Continuous
 62
     7
370
    25
100
AcDbLine
 10
964.4721455943
 20
1514.8673472402
 30
0.0
 11
961.2803104086
 21
1514.8673472402
 31
0.0
  0
LINE
  5
214
330
1F
100
AcDbEntity
  8
0
  6
Continuous
 62
     7
370
    25
100
AcDbLine
 10
965.4369341339
 20
1499.8673472402
 30
0.0
 11
967.3754367743
 21
1499.8673472402
 31
0.0
  0
LWPOLYLINE
  5
215
330
1F
100
AcDbEntity
  8
0
  6
Continuous
 62
     7
370
    25
100
AcDbPolyline
 90
        9
 70
   128
 43
0.0
 10
940.067050469
 20
1504.3673472402
 10
940.190564793
 20
1503.466378028
 10
940.4280915524
 20
1502.6126185397
 10
940.7716265936
 20
1501.8348386793
 10
941.2095935062
 20
1501.1592479966
 10
941.7272337239
 20
1500.6086124807
 10
942.3071038571
 20
1500.2014873935
 10
942.9296634987
 20
1499.9515919964
 10
943.5739336945
 20
1499.8673472402
  0
LINE
  5
216
330
1F
100
AcDbEntity
  8
0
  6
Continuous
 62
     7
370
    25
100
AcDbLine
 10
943.5739336945
 20
1499.8673472402
 30
0.0
 11
947.7766098556
 21
1499.8673472402
 31
0.0
  0
LINE
  5
217
330
1F
100
AcDbEntity
  8
0
  6
Continuous
 62
     7
370
    25
100
AcDbLine
 10
964.2959180816
 20
1515.8673472402
 30
0.0
 11
964.4721455943
 21
1515.8673472402
 31
0.0
  0
LINE
  5
218
330
1F
100
AcDbEntity
  8
0
  6
Continuous
 62
     7
370
    25
100
AcDbLine
 10
968.7706286612
 20
1499.8673472402
 30
0.0
 11
970.7091313017
 21
1499.8673472402
 31
0.0
  0
LINE
  5
219
330
1F
100
AcDbEntity
  8
0
  6
Continuous
 62
     7
370
    25
100
AcDbLine
 10
941.7848744215
 20
1504.3673472402
 30
0.0
 11
939.8662326939
 21
1504.3673472402
 31
0.0
  0
LINE
  5
21A
330
1F
100
AcDbEntity
  8
0
  6
Continuous
 62
     7
370
    25
100
AcDbLine
 10
941.7848744215
 20
1505.7673472402
 30
0.0
 11
939.8662326939
 21
1505.7673472402
 31
0.0
  0
LINE
  5
21B
330
1F
100
AcDbEntity
  8
0
  6
Continuous
 62
     7
370
    25
100
AcDbLine
 10
972.1043231885
 20
1499.8673472402
 30
0.0
 11
974.042825829
 21
1499.8673472402
 31
0.0
  0
LINE
  5
21C
330
1F
100
AcDbEntity
  8
0
  6
Continuous
 62
     7
370
    25
100
AcDbLine
 10
942.9197491542
 20
1511.2673472402
 30
0.0
 11
941.4662326939
 21
1511.2673472402
 31
0.0
  0
LINE
  5
21D
330
1F
100
AcDbEntity
  8
0
  6
Continuous
 62
     7
370
    25
100
AcDbLine
 10
980.64984448
 20
1504.3673472402
 30
0.0
 11
980.4490267049
 21
1504.3673472402
 31
0.0
  0
LINE
  5
21E
330
1F
100
AcDbEntity
  8
0
  6
Continuous
 62
     7
370
    25
100
AcDbLine
 10
980.4490267049
 20
1504.3673472402
 30
0.0
 11
979.0921677997
 21
1504.3673472402
 31
0.0
  0
LINE
  5
21F
330
1F
100
AcDbEntity
  8
0
  6
Continuous
 62
     7
370
    25
100
AcDbLine
 10
980.64984448
 20
1505.7673472402
 30
0.0
 11
978.7022508171
 21
1505.7673472402
 31
0.0
  0
LINE
  5
220
330
1F
100
AcDbEntity
  8
0
  6
Continuous
 62
     7
370
    25
100
AcDbLine
 10
979.04984448
 20
1511.2673472402
 30
0.0
 11
977.5743947353
 21
1511.2673472402
 31
0.0
  0
LWPOLYLINE
  5
221
330
1F
100
AcDbEntity
  8
0
  6
Continuous
 62
     7
370
    25
100
AcDbPolyline
 90
        9
 70
   128
 43
0.0
 10
980.4490267049
 20
1504.3673472402
 10
980.3255123808
 20
1503.466378028
 10
980.0879856214
 20
1502.6126185397
 10
979.7444505803
 20
1501.8348386793
 10
979.3064836677
 20
1501.1592479966
 10
978.78884345
 20
1500.6086124807
 10
978.2089733167
 20
1500.2014873935
 10
977.5864136752
 20
1499.9515919964
 10
976.9421434794
 20
1499.8673472402
  0
LWPOLYLINE
  5
222
330
1F
100
AcDbEntity
  8
0
  6
Continuous
 62
     7
370
    25
100
AcDbPolyline
 90
        9
 70
   128
 43
0.0
 10
976.2328467714
 20
1499.8673472402
 10
976.8771169672
 20
1499.9515919964
 10
977.4996766088
 20
1500.2014873935
 10
978.079546742
 20
1500.6086124807
 10
978.5971869597
 20
1501.1592479966
 10
979.0351538723
 20
1501.8348386793
 10
979.3786889135
 20
1502.6126185397
 10
979.6162156729
 20
1503.466378028
 10
979.739729997
 20
1504.3673472402
  0
LINE
  5
223
330
1F
100
AcDbEntity
  8
0
  6
Continuous
 62
     7
370
    25
100
AcDbLine
 10
976.9421434794
 20
1499.8673472402
 30
0.0
 11
976.2328467714
 21
1499.8673472402
 31
0.0
  0
LINE
  5
224
330
1F
100
AcDbEntity
  8
0
  6
Continuous
 62
     7
370
    25
100
AcDbLine
 10
974.7521225369
 20
1499.8673472402
 30
0.0
 11
976.2328467714
 21
1499.8673472402
 31
0.0
  0
LINE
  5
225
330
1F
100
AcDbEntity
  8
0
  6
Continuous
 62
     7
370
    25
100
AcDbLine
 10
974.4176528045
 20
1511.2673472402
 30
0.0
 11
974.4176528045
 21
1511.3673472402
 31
0.0
  0
LINE
  5
226
330
1F
100
AcDbEntity
  8
0
  6
Continuous
 62
     7
370
    25
100
AcDbLine
 10
974.4176528045
 20
1512.3673472402
 30
0.0
 11
974.4176528045
 21
1514.8673472402
 31
0.0
  0
LINE
  5
227
330
1F
100
AcDbEntity
  8
0
  6
Continuous
 62
     7
370
    25
100
AcDbLine
 10
974.4176528045
 20
1514.8673472402
 30
0.0
 11
974.2842793596
 21
1514.8673472402
 31
0.0
  0
LWPOLYLINE
  5
228
330
1F
100
AcDbEntity
  8
0
  6
Continuous
 62
     7
370
    25
100
AcDbPolyline
 90
        6
 70
   128
 43
0.0
 10
977.9316464687
 20
1541.7673472402
 10
977.931647842
 20
1541.7674072089
 10
978.2240579503
 20
1544.4940423499
 10
979.3359711141
 20
1548.8513460828
 10
980.3541302682
 20
1552.7397648601
 10
980.7688333005
 20
1556.535542596
  0
LINE
  5
229
330
1F
100
AcDbEntity
  8
0
  6
Continuous
 62
     7
370
    25
100
AcDbLine
 10
980.7688333005
 20
1556.535542596
 30
0.0
 11
983.5972468185
 21
1556.535542596
 31
0.0
  0
LWPOLYLINE
  5
22A
330
1F
100
AcDbEntity
  8
0
  6
Continuous
 62
     7
370
    25
100
AcDbPolyline
 90
        6
 70
   128
 43
0.0
 10
983.5972468185
 20
1556.535542596
 10
983.4703748988
 20
1554.3382760535
 10
983.1267341707
 20
1552.1843000922
 10
982.0577467982
 20
1548.0905772707
 10
981.007536178
 20
1543.9946486016
 10
980.7600599867
 20
1541.7333808312
  0
ARC
  5
22B
330
1F
100
AcDbEntity
  8
0
  6
Continuous
 62
     7
370
    25
100
AcDbCircle
 10
977.8599546204
 20
1418.0182465794
 30
0.0
 40
123.749121427501
100
AcDbArc
 50
88.6571297682
 51
89.9668067093
  0
LINE
  5
22C
330
1F
100
AcDbEntity
  8
0
  6
Continuous
 62
     7
370
    25
100
AcDbLine
 10
980.7241545137
 20
1532.7673472402
 30
0.0
 11
979.8880417786
 21
1532.7673472402
 31
0.0
  0
LINE
  5
22D
330
1F
100
AcDbEntity
  8
0
  6
Continuous
 62
     7
370
    25
100
AcDbLine
 10
977.9316464687
 20
1532.7673472402
 30
0.0
 11
977.9316464687
 21
1541.7673472402
 31
0.0
  0
LINE
  5
22E
330
1F
100
AcDbEntity
  8
0
  6
Continuous
 62
     7
370
    25
100
AcDbLine
 10
980.7600599867
 20
1532.7673472402
 30
0.0
 11
980.7600599867
 21
1541.7333808312
 31
0.0
  0
LINE
  5
22F
330
1F
100
AcDbEntity
  8
0
  6
Continuous
 62
     7
370
    25
100
AcDbLine
 10
972.5213857029
 20
1556.535542596
 30
0.0
 11
980.7688333005
 21
1556.535542596
 31
0.0
  0
LINE
  5
230
330
1F
100
AcDbEntity
  8
0
  6
Continuous
 62
     7
370
    25
100
AcDbLine
 10
977.9316464687
 20
1541.7673472402
 30
0.0
 11
973.3460534018
 21
1541.7673472402
 31
0.0
  0
LINE
  5
231
330
1F
100
AcDbEntity
  8
0
  6
Continuous
 62
     7
370
    25
100
AcDbLine
 10
994.7332051332
 20
1532.7673472402
 30
0.0
 11
994.7332051332
 21
1541.7333808312
 31
0.0
  0
LINE
  5
232
330
1F
100
AcDbEntity
  8
0
  6
Continuous
 62
     7
370
    25
100
AcDbLine
 10
983.5972468185
 20
1566.535542596
 30
0.0
 11
983.5972468185
 21
1556.535542596
 31
0.0
  0
LINE
  5
233
330
1F
100
AcDbEntity
  8
0
  6
Continuous
 62
     7
370
    25
100
AcDbLine
 10
983.5972468185
 20
1566.535542596
 30
0.0
 11
991.8960183014
 21
1566.535542596
 31
0.0
  0
LINE
  5
234
330
1F
100
AcDbEntity
  8
0
  6
Continuous
 62
     7
370
    25
100
AcDbLine
 10
991.8960183014
 20
1556.535542596
 30
0.0
 11
991.8960183014
 21
1566.535542596
 31
0.0
  0
LWPOLYLINE
  5
235
330
1F
100
AcDbEntity
  8
0
  6
Continuous
 62
     7
370
    25
100
AcDbPolyline
 90
        6
 70
   128
 43
0.0
 10
994.7332051332
 20
1541.7333808312
 10
994.4857289419
 20
1543.9946486016
 10
993.4355183217
 20
1548.0905772707
 10
992.3665309493
 20
1552.1843000922
 10
992.0228902211
 20
1554.3382760535
 10
991.8960183014
 20
1556.535542596
  0
LINE
  5
236
330
1F
100
AcDbEntity
  8
0
  6
Continuous
 62
     7
370
    25
100
AcDbLine
 10
994.0593732606
 20
1532.7673472402
 30
0.0
 11
993.3734780817
 21
1532.7673472402
 31
0.0
  0
LINE
  5
237
330
1F
100
AcDbEntity
  8
0
  6
Continuous
 62
     7
370
    25
100
AcDbLine
 10
990.7256787333
 20
1532.7673472402
 30
0.0
 11
990.0397835544
 21
1532.7673472402
 31
0.0
  0
LINE
  5
238
330
1F
100
AcDbEntity
  8
0
  6
Continuous
 62
     7
370
    25
100
AcDbLine
 10
987.391984206
 20
1532.7673472402
 30
0.0
 11
986.7060890271
 21
1532.7673472402
 31
0.0
  0
LINE
  5
239
330
1F
100
AcDbEntity
  8
0
  6
Continuous
 62
     7
370
    25
100
AcDbLine
 10
984.0582896787
 20
1532.7673472402
 30
0.0
 11
983.3723944997
 21
1532.7673472402
 31
0.0
  0
LINE
  5
23A
330
1F
100
AcDbEntity
  8
0
  6
Continuous
 62
     7
370
    25
100
AcDbLine
 10
980.7688333005
 20
1556.535542596
 30
0.0
 11
980.7688333005
 21
1566.535542596
 31
0.0
  0
LINE
  5
23B
330
1F
100
AcDbEntity
  8
0
  6
Continuous
 62
     7
370
    25
100
AcDbLine
 10
980.7688333005
 20
1566.535542596
 30
0.0
 11
983.5972468185
 21
1566.535542596
 31
0.0
  0
LINE
  5
23C
330
1F
100
AcDbEntity
  8
0
  6
Continuous
 62
     7
370
    25
100
AcDbLine
 10
972.5213857029
 20
1566.535542596
 30
0.0
 11
972.5213857029
 21
1556.535542596
 31
0.0
  0
LINE
  5
23D
330
1F
100
AcDbEntity
  8
0
  6
Continuous
 62
     7
370
    25
100
AcDbLine
 10
972.5213857029
 20
1566.535542596
 30
0.0
 11
980.7688333005
 21
1566.535542596
 31
0.0
  0
ARC
  5
23E
330
1F
100
AcDbEntity
  8
0
  6
Continuous
 62
     7
370
    25
100
AcDbCircle
 10
994.6271187957
 20
1550.9061647286
 30
0.0
 40
9.173397338982907
100
AcDbArc
 50
270.6626154595
 51
274.1917657914
  0
LINE
  5
23F
330
1F
100
AcDbEntity
  8
0
  6
Continuous
 62
     7
370
    25
100
AcDbLine
 10
991.8960183014
 20
1566.535542596
 30
0.0
 11
992.4861981993
 21
1566.535542596
 31
0.0
  0
LINE
  5
240
330
1F
100
AcDbEntity
  8
0
  6
Continuous
 62
     7
370
    25
100
AcDbLine
 10
971.9399791188
 20
1566.535542596
 30
0.0
 11
972.5213857029
 21
1566.535542596
 31
0.0
  0
LWPOLYLINE
  5
241
330
1F
100
AcDbEntity
  8
0
  6
Continuous
 62
     7
370
    25
100
AcDbPolyline
 90
        6
 70
   128
 43
0.0
 10
958.8050099146
 20
1490.9013136492
 10
959.0524861059
 20
1488.6400458788
 10
960.1026967261
 20
1484.5441172096
 10
961.1716840986
 20
1480.4503943882
 10
961.5153248267
 20
1478.2964184268
 10
961.6421967464
 20
1476.0991518844
  0
LINE
  5
242
330
1F
100
AcDbEntity
  8
0
  6
Continuous
 62
     7
370
    25
100
AcDbLine
 10
961.6421967464
 20
1476.0991518844
 30
0.0
 11
958.8137832284
 21
1476.0991518844
 31
0.0
  0
LWPOLYLINE
  5
243
330
1F
100
AcDbEntity
  8
0
  6
Continuous
 62
     7
370
    25
100
AcDbPolyline
 90
        6
 70
   128
 43
0.0
 10
958.8137832284
 20
1476.0991518844
 10
958.8137832283
 20
1476.0992118844
 10
958.3990801961
 20
1479.8949296202
 10
957.380921042
 20
1483.7833483976
 10
956.2690078782
 20
1488.1406521304
 10
955.9765963966
 20
1490.8673472402
  0
ARC
  5
244
330
1F
100
AcDbEntity
  8
0
  6
Continuous
 62
     7
370
    25
100
AcDbCircle
 10
955.904904553
 20
1614.6164475052
 30
0.0
 40
123.7491210316803
100
AcDbArc
 50
270.0331932887
 51
271.3428702339
  0
LINE
  5
245
330
1F
100
AcDbEntity
  8
0
  6
Continuous
 62
     7
370
    25
100
AcDbLine
 10
957.9329917065
 20
1499.8673472402
 30
0.0
 11
958.7691044416
 21
1499.8673472402
 31
0.0
  0
LINE
  5
246
330
1F
100
AcDbEntity
  8
0
  6
Continuous
 62
     7
370
    25
100
AcDbLine
 10
958.8050099146
 20
1499.8673472402
 30
0.0
 11
958.8050099146
 21
1490.9013136492
 31
0.0
  0
LINE
  5
247
330
1F
100
AcDbEntity
  8
0
  6
Continuous
 62
     7
370
    25
100
AcDbLine
 10
955.9765963966
 20
1499.8673472402
 30
0.0
 11
955.9765963966
 21
1490.8673472402
 31
0.0
  0
LWPOLYLINE
  5
248
330
1F
100
AcDbEntity
  8
0
  6
Continuous
 62
     7
370
    25
100
AcDbPolyline
 90
        6
 70
   128
 43
0.0
 10
947.7291487991
 20
1490.8673472402
 10
947.7291501724
 20
1490.8672872714
 10
948.0215602806
 20
1488.1406521304
 10
949.1334734444
 20
1483.7833483976
 10
950.1516325985
 20
1479.8949296202
 10
950.5663356308
 20
1476.0991518844
  0
LINE
  5
249
330
1F
100
AcDbEntity
  8
0
  6
Continuous
 62
     7
370
    25
100
AcDbLine
 10
947.7291487991
 20
1490.8673472402
 30
0.0
 11
955.9765963966
 21
1490.8673472402
 31
0.0
  0
LINE
  5
24A
330
1F
100
AcDbEntity
  8
0
  6
Continuous
 62
     7
370
    25
100
AcDbLine
 10
950.5663356308
 20
1476.0991518844
 30
0.0
 11
958.8137832284
 21
1476.0991518844
 31
0.0
  0
LINE
  5
24B
330
1F
100
AcDbEntity
  8
0
  6
Continuous
 62
     7
370
    25
100
AcDbLine
 10
972.7781550611
 20
1499.8673472402
 30
0.0
 11
972.7781550611
 21
1490.9013136492
 31
0.0
  0
LWPOLYLINE
  5
24C
330
1F
100
AcDbEntity
  8
0
  6
Continuous
 62
     7
370
    25
100
AcDbPolyline
 90
        6
 70
   128
 43
0.0
 10
969.9409682293
 20
1476.0991518844
 10
970.067840149
 20
1478.2964184268
 10
970.4114808772
 20
1480.4503943882
 10
971.4804682496
 20
1484.5441172096
 10
972.5306788698
 20
1488.6400458788
 10
972.7781550611
 20
1490.9013136492
  0
LINE
  5
24D
330
1F
100
AcDbEntity
  8
0
  6
Continuous
 62
     7
370
    25
100
AcDbLine
 10
969.9409682293
 20
1466.0991518844
 30
0.0
 11
969.9409682293
 21
1476.0991518844
 31
0.0
  0
LINE
  5
24E
330
1F
100
AcDbEntity
  8
0
  6
Continuous
 62
     7
370
    25
100
AcDbLine
 10
969.9409682293
 20
1466.0991518844
 30
0.0
 11
961.6421967464
 21
1466.0991518844
 31
0.0
  0
LINE
  5
24F
330
1F
100
AcDbEntity
  8
0
  6
Continuous
 62
     7
370
    25
100
AcDbLine
 10
961.6421967464
 20
1476.0991518844
 30
0.0
 11
961.6421967464
 21
1466.0991518844
 31
0.0
  0
LINE
  5
250
330
1F
100
AcDbEntity
  8
0
  6
Continuous
 62
     7
370
    25
100
AcDbLine
 10
961.4173444276
 20
1499.8673472402
 30
0.0
 11
962.1032396066
 21
1499.8673472402
 31
0.0
  0
LINE
  5
251
330
1F
100
AcDbEntity
  8
0
  6
Continuous
 62
     7
370
    25
100
AcDbLine
 10
964.751038955
 20
1499.8673472402
 30
0.0
 11
965.4369341339
 21
1499.8673472402
 31
0.0
  0
LINE
  5
252
330
1F
100
AcDbEntity
  8
0
  6
Continuous
 62
     7
370
    25
100
AcDbLine
 10
968.0847334823
 20
1499.8673472402
 30
0.0
 11
968.7706286612
 21
1499.8673472402
 31
0.0
  0
LINE
  5
253
330
1F
100
AcDbEntity
  8
0
  6
Continuous
 62
     7
370
    25
100
AcDbLine
 10
971.4184280096
 20
1499.8673472402
 30
0.0
 11
972.1043231885
 21
1499.8673472402
 31
0.0
  0
LINE
  5
254
330
1F
100
AcDbEntity
  8
0
  6
Continuous
 62
     7
370
    25
100
AcDbLine
 10
947.7291487991
 20
1499.8673472402
 30
0.0
 11
947.7291487991
 21
1490.8673472402
 31
0.0
  0
LINE
  5
255
330
1F
100
AcDbEntity
  8
0
  6
Continuous
 62
     7
370
    25
100
AcDbLine
 10
961.6421967464
 20
1466.0991518844
 30
0.0
 11
958.8137832284
 21
1466.0991518844
 31
0.0
  0
LINE
  5
256
330
1F
100
AcDbEntity
  8
0
  6
Continuous
 62
     7
370
    25
100
AcDbLine
 10
958.8137832284
 20
1466.0991518844
 30
0.0
 11
958.8137832284
 21
1476.0991518844
 31
0.0
  0
LINE
  5
257
330
1F
100
AcDbEntity
  8
0
  6
Continuous
 62
     7
370
    25
100
AcDbLine
 10
950.5663356308
 20
1476.0991518844
 30
0.0
 11
950.5663356308
 21
1466.0991518844
 31
0.0
  0
LINE
  5
258
330
1F
100
AcDbEntity
  8
0
  6
Continuous
 62
     7
370
    25
100
AcDbLine
 10
950.5663356308
 20
1466.0991518844
 30
0.0
 11
958.8137832284
 21
1466.0991518844
 31
0.0
  0
LWPOLYLINE
  5
259
330
1F
100
AcDbEntity
  8
0
  6
Continuous
 62
     7
370
    25
100
AcDbPolyline
 90
        4
 70
   128
 43
0.0
 10
947.1734801802
 20
1490.8773881821
 10
947.159317104
 20
1490.874492992
 10
947.3424885374
 20
1490.8691711422
 10
947.7291487991
 20
1490.8673472402
  0
ARC
  5
25A
330
1F
100
AcDbEntity
  8
0
  6
Continuous
 62
     7
370
    25
100
AcDbCircle
 10
972.6726420338
 20
1481.7501610571
 30
0.0
 40
9.151760855840784
100
AcDbArc
 50
85.8008870915
 51
89.3394074454
  0
LINE
  5
25B
330
1F
100
AcDbEntity
  8
0
  6
Continuous
 62
     7
370
    25
100
AcDbLine
 10
970.5311481272
 20
1466.0991518844
 30
0.0
 11
969.9409682293
 21
1466.0991518844
 31
0.0
  0
LINE
  5
25C
330
1F
100
AcDbEntity
  8
0
  6
Continuous
 62
     7
370
    25
100
AcDbLine
 10
950.5663356308
 20
1466.0991518844
 30
0.0
 11
949.9849290467
 21
1466.0991518844
 31
0.0
  0
LWPOLYLINE
  5
25D
330
1F
100
AcDbEntity
  8
0
  6
Continuous
 62
     7
370
    25
100
AcDbPolyline
 90
        6
 70
   128
 43
0.0
 10
980.7600599867
 20
1490.9013136492
 10
981.007536178
 20
1488.6400458788
 10
982.0577467982
 20
1484.5441172096
 10
983.1267341707
 20
1480.4503943882
 10
983.4703748988
 20
1478.2964184268
 10
983.5972468185
 20
1476.0991518844
  0
LINE
  5
25E
330
1F
100
AcDbEntity
  8
0
  6
Continuous
 62
     7
370
    25
100
AcDbLine
 10
983.5972468185
 20
1476.0991518844
 30
0.0
 11
980.7688333005
 21
1476.0991518844
 31
0.0
  0
LWPOLYLINE
  5
25F
330
1F
100
AcDbEntity
  8
0
  6
Continuous
 62
     7
370
    25
100
AcDbPolyline
 90
        6
 70
   128
 43
0.0
 10
980.7688333005
 20
1476.0991518844
 10
980.7688333004
 20
1476.0992118844
 10
980.3541302682
 20
1479.8949296202
 10
979.3359711141
 20
1483.7833483976
 10
978.2240579503
 20
1488.1406521304
 10
977.9316464687
 20
1490.8673472402
  0
ARC
  5
260
330
1F
100
AcDbEntity
  8
0
  6
Continuous
 62
     7
370
    25
100
AcDbCircle
 10
977.8599546254
 20
1614.6164474781
 30
0.0
 40
123.7491210045669
100
AcDbArc
 50
270.0331932885
 51
271.342870234
  0
LINE
  5
261
330
1F
100
AcDbEntity
  8
0
  6
Continuous
 62
     7
370
    25
100
AcDbLine
 10
977.9316464687
 20
1499.8673472402
 30
0.0
 11
978.4427923253
 21
1499.8673472402
 31
0.0
  0
LINE
  5
262
330
1F
100
AcDbEntity
  8
0
  6
Continuous
 62
     7
370
    25
100
AcDbLine
 10
980.7600599867
 20
1499.8673472402
 30
0.0
 11
980.7600599867
 21
1490.9013136492
 31
0.0
  0
LINE
  5
263
330
1F
100
AcDbEntity
  8
0
  6
Continuous
 62
     7
370
    25
100
AcDbLine
 10
977.9316464687
 20
1499.8673472402
 30
0.0
 11
977.9316464687
 21
1490.8673472402
 31
0.0
  0
LINE
  5
264
330
1F
100
AcDbEntity
  8
0
  6
Continuous
 62
     7
370
    25
100
AcDbLine
 10
980.7688333005
 20
1476.0991518844
 30
0.0
 11
972.5213857029
 21
1476.0991518844
 31
0.0
  0
LINE
  5
265
330
1F
100
AcDbEntity
  8
0
  6
Continuous
 62
     7
370
    25
100
AcDbLine
 10
973.3488599807
 20
1490.8673472402
 30
0.0
 11
977.9316464687
 21
1490.8673472402
 31
0.0
  0
LINE
  5
266
330
1F
100
AcDbEntity
  8
0
  6
Continuous
 62
     7
370
    25
100
AcDbLine
 10
994.7332051332
 20
1499.8673472402
 30
0.0
 11
994.7332051332
 21
1490.9013136492
 31
0.0
  0
LWPOLYLINE
  5
267
330
1F
100
AcDbEntity
  8
0
  6
Continuous
 62
     7
370
    25
100
AcDbPolyline
 90
        6
 70
   128
 43
0.0
 10
991.8960183014
 20
1476.0991518844
 10
992.0228902211
 20
1478.2964184268
 10
992.3665309493
 20
1480.4503943882
 10
993.4355183217
 20
1484.5441172096
 10
994.4857289419
 20
1488.6400458788
 10
994.7332051332
 20
1490.9013136492
  0
LINE
  5
268
330
1F
100
AcDbEntity
  8
0
  6
Continuous
 62
     7
370
    25
100
AcDbLine
 10
991.8960183014
 20
1466.0991518844
 30
0.0
 11
991.8960183014
 21
1476.0991518844
 31
0.0
  0
LINE
  5
269
330
1F
100
AcDbEntity
  8
0
  6
Continuous
 62
     7
370
    25
100
AcDbLine
 10
983.5972468185
 20
1466.0991518844
 30
0.0
 11
991.8960183014
 21
1466.0991518844
 31
0.0
  0
LINE
  5
26A
330
1F
100
AcDbEntity
  8
0
  6
Continuous
 62
     7
370
    25
100
AcDbLine
 10
983.5972468185
 20
1476.0991518844
 30
0.0
 11
983.5972468185
 21
1466.0991518844
 31
0.0
  0
LINE
  5
26B
330
1F
100
AcDbEntity
  8
0
  6
Continuous
 62
     7
370
    25
100
AcDbLine
 10
976.9421434794
 20
1499.8673472402
 30
0.0
 11
977.9316464687
 21
1499.8673472402
 31
0.0
  0
LINE
  5
26C
330
1F
100
AcDbEntity
  8
0
  6
Continuous
 62
     7
370
    25
100
AcDbLine
 10
980.7688333005
 20
1466.0991518844
 30
0.0
 11
980.7688333005
 21
1476.0991518844
 31
0.0
  0
LINE
  5
26D
330
1F
100
AcDbEntity
  8
0
  6
Continuous
 62
     7
370
    25
100
AcDbLine
 10
983.5972468185
 20
1466.0991518844
 30
0.0
 11
980.7688333005
 21
1466.0991518844
 31
0.0
  0
LINE
  5
26E
330
1F
100
AcDbEntity
  8
0
  6
Continuous
 62
     7
370
    25
100
AcDbLine
 10
972.5213857029
 20
1476.0991518844
 30
0.0
 11
972.5213857029
 21
1466.0991518844
 31
0.0
  0
LINE
  5
26F
330
1F
100
AcDbEntity
  8
0
  6
Continuous
 62
     7
370
    25
100
AcDbLine
 10
980.7688333005
 20
1466.0991518844
 30
0.0
 11
972.5213857029
 21
1466.0991518844
 31
0.0
  0
ARC
  5
270
330
1F
100
AcDbEntity
  8
0
  6
Continuous
 62
     7
370
    25
100
AcDbCircle
 10
994.6276921058
 20
1481.7501610551
 30
0.0
 40
9.151760857874905
100
AcDbArc
 50
85.8008870918
 51
89.3394074449
  0
LINE
  5
271
330
1F
100
AcDbEntity
  8
0
  6
Continuous
 62
     7
370
    25
100
AcDbLine
 10
992.4861981993
 20
1466.0991518844
 30
0.0
 11
991.8960183014
 21
1466.0991518844
 31
0.0
  0
LINE
  5
272
330
1F
100
AcDbEntity
  8
0
  6
Continuous
 62
     7
370
    25
100
AcDbLine
 10
972.5213857029
 20
1466.0991518844
 30
0.0
 11
971.9399791188
 21
1466.0991518844
 31
0.0
  0
LWPOLYLINE
  5
273
330
1F
100
AcDbEntity
  8
0
  6
Continuous
 62
     7
370
    25
100
AcDbPolyline
 90
        6
 70
   128
 43
0.0
 10
955.9765963966
 20
1541.7673472402
 10
955.9765977699
 20
1541.7674072089
 10
956.2690078782
 20
1544.4940423499
 10
957.380921042
 20
1548.8513460828
 10
958.3990801961
 20
1552.7397648601
 10
958.8137832284
 20
1556.535542596
  0
LINE
  5
274
330
1F
100
AcDbEntity
  8
0
  6
Continuous
 62
     7
370
    25
100
AcDbLine
 10
958.8137832284
 20
1556.535542596
 30
0.0
 11
961.6421967464
 21
1556.535542596
 31
0.0
  0
LWPOLYLINE
  5
275
330
1F
100
AcDbEntity
  8
0
  6
Continuous
 62
     7
370
    25
100
AcDbPolyline
 90
        6
 70
   128
 43
0.0
 10
961.6421967464
 20
1556.535542596
 10
961.5153248267
 20
1554.3382760535
 10
961.1716840986
 20
1552.1843000922
 10
960.1026967261
 20
1548.0905772707
 10
959.0524861059
 20
1543.9946486016
 10
958.8050099146
 20
1541.7333808312
  0
ARC
  5
276
330
1F
100
AcDbEntity
  8
0
  6
Continuous
 62
     7
370
    25
100
AcDbCircle
 10
955.9049045486
 20
1418.0182466037
 30
0.0
 40
123.7491214031766
100
AcDbArc
 50
88.6571297681
 51
89.9668067094
  0
LINE
  5
277
330
1F
100
AcDbEntity
  8
0
  6
Continuous
 62
     7
370
    25
100
AcDbLine
 10
955.9765963966
 20
1541.7673472402
 30
0.0
 11
947.7291487991
 21
1541.7673472402
 31
0.0
  0
LWPOLYLINE
  5
278
330
1F
100
AcDbEntity
  8
0
  6
Continuous
 62
     7
370
    25
100
AcDbPolyline
 90
        6
 70
   128
 43
0.0
 10
950.5663356308
 20
1556.535542596
 10
950.5663356307
 20
1556.535482596
 10
950.1516325985
 20
1552.7397648601
 10
949.1334734444
 20
1548.8513460828
 10
948.0215602806
 20
1544.4940423499
 10
947.7291487991
 20
1541.7673472402
  0
LINE
  5
279
330
1F
100
AcDbEntity
  8
0
  6
Continuous
 62
     7
370
    25
100
AcDbLine
 10
958.8137832284
 20
1556.535542596
 30
0.0
 11
950.5663356308
 21
1556.535542596
 31
0.0
  0
LINE
  5
27A
330
1F
100
AcDbEntity
  8
0
  6
Continuous
 62
     7
370
    25
100
AcDbLine
 10
972.7781550611
 20
1532.7673472402
 30
0.0
 11
972.7781550611
 21
1541.7333808312
 31
0.0
  0
LINE
  5
27B
330
1F
100
AcDbEntity
  8
0
  6
Continuous
 62
     7
370
    25
100
AcDbLine
 10
961.6421967464
 20
1566.535542596
 30
0.0
 11
961.6421967464
 21
1556.535542596
 31
0.0
  0
LINE
  5
27C
330
1F
100
AcDbEntity
  8
0
  6
Continuous
 62
     7
370
    25
100
AcDbLine
 10
969.9409682293
 20
1566.535542596
 30
0.0
 11
961.6421967464
 21
1566.535542596
 31
0.0
  0
LINE
  5
27D
330
1F
100
AcDbEntity
  8
0
  6
Continuous
 62
     7
370
    25
100
AcDbLine
 10
969.9409682293
 20
1556.535542596
 30
0.0
 11
969.9409682293
 21
1566.535542596
 31
0.0
  0
LWPOLYLINE
  5
27E
330
1F
100
AcDbEntity
  8
0
  6
Continuous
 62
     7
370
    25
100
AcDbPolyline
 90
        6
 70
   128
 43
0.0
 10
972.7781550611
 20
1541.7333808312
 10
972.5306788698
 20
1543.9946486016
 10
971.4804682496
 20
1548.0905772707
 10
970.4114808772
 20
1552.1843000922
 10
970.067840149
 20
1554.3382760535
 10
969.9409682293
 20
1556.535542596
  0
LINE
  5
27F
330
1F
100
AcDbEntity
  8
0
  6
Continuous
 62
     7
370
    25
100
AcDbLine
 10
953.8182254037
 20
1532.7673472402
 30
0.0
 11
949.8281513046
 21
1532.7673472402
 31
0.0
  0
LINE
  5
280
330
1F
100
AcDbEntity
  8
0
  6
Continuous
 62
     7
370
    25
100
AcDbLine
 10
958.8137832284
 20
1556.535542596
 30
0.0
 11
958.8137832284
 21
1566.535542596
 31
0.0
  0
LINE
  5
281
330
1F
100
AcDbEntity
  8
0
  6
Continuous
 62
     7
370
    25
100
AcDbLine
 10
958.8137832284
 20
1566.535542596
 30
0.0
 11
961.6421967464
 21
1566.535542596
 31
0.0
  0
LINE
  5
282
330
1F
100
AcDbEntity
  8
0
  6
Continuous
 62
     7
370
    25
100
AcDbLine
 10
950.5663356308
 20
1566.535542596
 30
0.0
 11
950.5663356308
 21
1556.535542596
 31
0.0
  0
LINE
  5
283
330
1F
100
AcDbEntity
  8
0
  6
Continuous
 62
     7
370
    25
100
AcDbLine
 10
958.8137832284
 20
1566.535542596
 30
0.0
 11
950.5663356308
 21
1566.535542596
 31
0.0
  0
LWPOLYLINE
  5
284
330
1F
100
AcDbEntity
  8
0
  6
Continuous
 62
     7
370
    25
100
AcDbPolyline
 90
        4
 70
   128
 43
0.0
 10
947.7291487991
 20
1541.7673472402
 10
947.3424885374
 20
1541.7655233381
 10
947.159317104
 20
1541.7602014883
 10
947.1733179876
 20
1541.7573394533
  0
ARC
  5
285
330
1F
100
AcDbEntity
  8
0
  6
Continuous
 62
     7
370
    25
100
AcDbCircle
 10
972.6720687236
 20
1550.9061647297
 30
0.0
 40
9.17339734017513
100
AcDbArc
 50
270.6626154598
 51
274.1917657912
  0
LINE
  5
286
330
1F
100
AcDbEntity
  8
0
  6
Continuous
 62
     7
370
    25
100
AcDbLine
 10
969.9409682293
 20
1566.535542596
 30
0.0
 11
970.5311481272
 21
1566.535542596
 31
0.0
  0
LINE
  5
287
330
1F
100
AcDbEntity
  8
0
  6
Continuous
 62
     7
370
    25
100
AcDbLine
 10
949.9849290467
 20
1566.535542596
 30
0.0
 11
950.5663356308
 21
1566.535542596
 31
0.0
  0
ARC
  5
288
330
1F
100
AcDbEntity
  8
0
  6
Continuous
 62
     7
370
    25
100
AcDbCircle
 10
954.7650428014
 20
1531.4571537763
 30
0.0
 40
1.020378247363654
100
AcDbArc
 50
131.5347531417
 51
180.839348914
  0
ELLIPSE
  5
289
330
1F
100
AcDbEntity
  8
0
  6
Continuous
 62
     7
370
    25
100
AcDbEllipse
 10
960.6219905164
 20
1530.3499285319
 30
0.0
 11
11.62602773607034
 21
7.608452227045518
 31
0.0
210
0.0
220
0.0
230
1.0
 40
0.3906778
 41
1.709536242206803
 42
1.896232789965664
  0
LWPOLYLINE
  5
28A
330
1F
100
AcDbEntity
  8
0
  6
Continuous
 62
     7
370
    25
100
AcDbPolyline
 90
        3
 70
   128
 43
0.0
 10
956.7757983864
 20
1534.0173472402
 10
956.4127494323
 20
1533.9651993543
 10
956.0702749142
 20
1533.796102515
  0
LINE
  5
28B
330
1F
100
AcDbEntity
  8
0
  6
Continuous
 62
     7
370
    25
100
AcDbLine
 10
958.8880944879
 20
1534.0173472402
 30
0.0
 11
956.7757983864
 21
1534.0173472402
 31
0.0
  0
LINE
  5
28C
330
1F
100
AcDbEntity
  8
0
  6
Continuous
 62
     7
370
    25
100
AcDbLine
 10
958.8880944879
 20
1511.4173472402
 30
0.0
 11
958.8880944879
 21
1534.0173472402
 31
0.0
  0
LINE
  5
28D
330
1F
100
AcDbEntity
  8
0
  6
Continuous
 62
     7
370
    25
100
AcDbLine
 10
952.1104300211
 20
1511.4173472402
 30
0.0
 11
952.1104300211
 21
1529.0173472402
 31
0.0
  0
LINE
  5
28E
330
1F
100
AcDbEntity
  8
0
  6
Continuous
 62
     7
370
    25
100
AcDbLine
 10
952.1104300211
 20
1529.0173472402
 30
0.0
 11
953.7447740412
 21
1529.0173472402
 31
0.0
  0
LINE
  5
28F
330
1F
100
AcDbEntity
  8
0
  6
Continuous
 62
     7
370
    25
100
AcDbLine
 10
953.7447740412
 20
1531.4422063797
 30
0.0
 11
953.7447740412
 21
1529.0173472402
 31
0.0
  0
LINE
  5
290
330
1F
100
AcDbEntity
  8
0
  6
Continuous
 62
     7
370
    25
100
AcDbLine
 10
958.8880944879
 20
1511.4173472402
 30
0.0
 11
952.1104300211
 21
1511.4173472402
 31
0.0
  0
LWPOLYLINE
  5
291
330
1F
100
AcDbEntity
  8
0
  6
Continuous
 62
     7
370
    25
100
AcDbPolyline
 90
        9
 70
   128
 43
0.0
 10
956.7757983864
 20
1534.0173472402
 10
956.7819570117
 20
1534.2124375622
 10
956.800196215
 20
1534.4000306725
 10
956.829815074
 20
1534.5729174732
 10
956.8696753525
 20
1534.7244540214
 10
956.9182452424
 20
1534.8488168525
 10
956.9736582301
 20
1534.9412267727
 10
957.0337848255
 20
1534.9981325206
 10
957.0963143972
 20
1535.0173472402
  0
LINE
  5
292
330
1F
100
AcDbEntity
  8
0
  6
Continuous
 62
     7
370
    25
100
AcDbLine
 10
957.0963143972
 20
1535.0173472402
 30
0.0
 11
957.5983125546
 21
1535.0173472402
 31
0.0
  0
LWPOLYLINE
  5
293
330
1F
100
AcDbEntity
  8
0
  6
Continuous
 62
     7
370
    25
100
AcDbPolyline
 90
        7
 70
   128
 43
0.0
 10
957.5983125546
 20
1535.0173472402
 10
958.3032226057
 20
1534.870714801
 10
958.5424625836
 20
1534.7191432322
 10
958.7491237582
 20
1534.4871739468
 10
958.8466958315
 20
1534.2801306407
 10
958.8861550446
 20
1534.0747795745
 10
958.8880944879
 20
1534.0173472402
  0
LWPOLYLINE
  5
294
330
1F
100
AcDbEntity
  8
0
  6
Continuous
 62
     7
370
    25
100
AcDbPolyline
 90
        7
 70
   128
 43
0.0
 10
954.0884563007
 20
1532.2209616545
 10
953.9910853898
 20
1532.3870148833
 10
953.9227119051
 20
1532.545565969
 10
953.8864249024
 20
1532.6894517089
 10
953.8838637974
 20
1532.8121714679
 10
953.9151442987
 20
1532.9081808722
 10
953.9485522434
 20
1532.9501010059
  0
LINE
  5
295
330
1F
100
AcDbEntity
  8
0
  6
Continuous
 62
     7
370
    25
100
AcDbLine
 10
949.2202988117
 20
1529.0173472402
 30
0.0
 11
949.2202988117
 21
1511.4173472402
 31
0.0
  0
LINE
  5
296
330
1F
100
AcDbEntity
  8
0
  6
Continuous
 62
     7
370
    25
100
AcDbLine
 10
949.2202988117
 20
1529.0173472402
 30
0.0
 11
952.1104300211
 21
1529.0173472402
 31
0.0
  0
LINE
  5
297
330
1F
100
AcDbEntity
  8
0
  6
Continuous
 62
     7
370
    25
100
AcDbLine
 10
949.2202988117
 20
1511.4173472402
 30
0.0
 11
952.1104300211
 21
1511.4173472402
 31
0.0
  0
LINE
  5
298
330
1F
100
AcDbEntity
  8
0
  6
Continuous
 62
     7
370
    25
100
AcDbLine
 10
946.3413004707
 20
1534.0173472402
 30
0.0
 11
945.8472585431
 21
1534.0173472402
 31
0.0
  0
LWPOLYLINE
  5
299
330
1F
100
AcDbEntity
  8
0
  6
Continuous
 62
     7
370
    25
100
AcDbPolyline
 90
        3
 70
   128
 43
0.0
 10
946.6005981655
 20
1533.796102515
 10
946.4827989773
 20
1533.9528586125
 10
946.3413004707
 20
1534.0173472402
  0
ELLIPSE
  5
29A
330
1F
100
AcDbEntity
  8
0
  6
Continuous
 62
     7
370
    25
100
AcDbEllipse
 10
957.731859307
 20
1530.3499285319
 30
0.0
 11
11.62602773607045
 21
-7.608452227045292
 31
0.0
210
0.0
220
0.0
230
1.0
 40
0.3906778
 41
3.774749174078856
 42
3.9614457218377
  0
ARC
  5
29B
330
1F
100
AcDbEntity
  8
0
  6
Continuous
 62
     7
370
    25
100
AcDbCircle
 10
946.5133283578
 20
1531.469866169
 30
0.0
 40
1.34252758479179
100
AcDbArc
 50
358.8194646071
 51
34.0187189626
  0
LINE
  5
29C
330
1F
100
AcDbEntity
  8
0
  6
Continuous
 62
     7
370
    25
100
AcDbLine
 10
947.8555709782
 20
1529.0173472402
 30
0.0
 11
947.8555709782
 21
1531.4422063797
 31
0.0
  0
LINE
  5
29D
330
1F
100
AcDbEntity
  8
0
  6
Continuous
 62
     7
370
    25
100
AcDbLine
 10
947.8555709782
 20
1529.0173472402
 30
0.0
 11
949.2202988117
 21
1529.0173472402
 31
0.0
  0
LINE
  5
29E
330
1F
100
AcDbEntity
  8
0
  6
Continuous
 62
     7
370
    25
100
AcDbLine
 10
945.8472585431
 20
1534.0173472402
 30
0.0
 11
945.8472585431
 21
1511.4173472402
 31
0.0
  0
LINE
  5
29F
330
1F
100
AcDbEntity
  8
0
  6
Continuous
 62
     7
370
    25
100
AcDbLine
 10
949.2202988117
 20
1511.4173472402
 30
0.0
 11
945.8472585431
 21
1511.4173472402
 31
0.0
  0
ARC
  5
2A0
330
1F
100
AcDbEntity
  8
0
  6
Continuous
 62
     7
370
    25
100
AcDbCircle
 10
946.7747009745
 20
1531.5004363304
 30
0.0
 40
2.609453863628127
100
AcDbArc
 50
358.7213388149
 51
35.0686310437
  0
LINE
  5
2A1
330
1F
100
AcDbEntity
  8
0
  6
Continuous
 62
     7
370
    25
100
AcDbLine
 10
949.3835050566
 20
1531.4422063797
 30
0.0
 11
947.8555709782
 21
1531.4422063797
 31
0.0
  0
ARC
  5
2A2
330
1F
100
AcDbEntity
  8
0
  6
Continuous
 62
     7
370
    25
100
AcDbCircle
 10
948.8424136938
 20
1531.6634322239
 30
0.0
 40
1.338015403225831
100
AcDbArc
 50
87.085496876
 51
155.3745976296
  0
LINE
  5
2A3
330
1F
100
AcDbEntity
  8
0
  6
Continuous
 62
     7
370
    25
100
AcDbLine
 10
949.3835050566
 20
1531.4422063797
 30
0.0
 11
949.3835050566
 21
1529.0173472402
 31
0.0
  0
ELLIPSE
  5
2A4
330
1F
100
AcDbEntity
  8
0
  6
Continuous
 62
     7
370
    25
100
AcDbEllipse
 10
958.1740690085
 20
1531.1286838067
 30
0.0
 11
10.5446907703739
 21
-7.777269132721586
 31
0.0
210
0.0
220
0.0
230
1.0
 40
0.4027135399
 41
3.813162043109993
 42
3.999858590868862
  0
ARC
  5
2A5
330
1F
100
AcDbEntity
  8
0
  6
Continuous
 62
     7
370
    25
100
AcDbCircle
 10
947.738599316
 20
1533.3884973953
 30
0.0
 40
1.20879632361383
100
AcDbArc
 50
78.9437685447
 51
160.2936759186
  0
LINE
  5
2A6
330
1F
100
AcDbEntity
  8
0
  6
Continuous
 62
     7
370
    25
100
AcDbLine
 10
950.2529463623
 20
1531.4422063797
 30
0.0
 11
949.3835050566
 21
1531.4422063797
 31
0.0
  0
ARC
  5
2A7
330
1F
100
AcDbEntity
  8
0
  6
Continuous
 62
     7
370
    25
100
AcDbCircle
 10
947.7156337249
 20
1531.4744613568
 30
0.0
 40
2.537517645866431
100
AcDbArc
 50
359.271680403
 51
30.6310724167
  0
LINE
  5
2A8
330
1F
100
AcDbEntity
  8
0
  6
Continuous
 62
     7
370
    25
100
AcDbLine
 10
950.2529463623
 20
1531.4422063797
 30
0.0
 11
950.2529463623
 21
1529.0173472402
 31
0.0
  0
LWPOLYLINE
  5
2A9
330
1F
100
AcDbEntity
  8
0
  6
Continuous
 62
     7
370
    25
100
AcDbPolyline
 90
        3
 70
   128
 43
0.0
 10
947.2905137071
 20
1535.0173472402
 10
947.6692629804
 20
1534.8883699849
 10
947.9704129622
 20
1534.5748577897
  0
ARC
  5
2AA
330
1F
100
AcDbEntity
  8
0
  6
Continuous
 62
     7
370
    25
100
AcDbCircle
 10
947.3165864135
 20
1534.0420957982
 30
0.0
 40
0.9755998981016277
100
AcDbArc
 50
91.5314002361
 51
181.4536082365
  0
LINE
  5
2AB
330
1F
100
AcDbEntity
  8
0
  6
Continuous
 62
     7
370
    25
100
AcDbLine
 10
947.2905137071
 20
1535.0173472402
 30
0.0
 11
947.4345516693
 21
1535.0173472402
 31
0.0
  0
LINE
  5
2AC
330
1F
100
AcDbEntity
  8
0
  6
Continuous
 62
     7
370
    25
100
AcDbLine
 10
947.1370404763
 20
1535.0173472402
 30
0.0
 11
947.2905137071
 21
1535.0173472402
 31
0.0
  0
ARC
  5
2AD
330
1F
100
AcDbEntity
  8
0
  6
Continuous
 62
     7
370
    25
100
AcDbCircle
 10
946.9667700718
 20
1533.905190214
 30
0.0
 40
1.125115665813695
100
AcDbArc
 50
81.2956474969
 51
174.2789749308
  0
LINE
  5
2AE
330
1F
100
AcDbEntity
  8
0
  6
Continuous
 62
     7
370
    25
100
AcDbLine
 10
996.3628328987
 20
1519.9673472402
 30
0.0
 11
996.2393294317
 21
1519.9673472402
 31
0.0
  0
LINE
  5
2AF
330
1F
100
AcDbEntity
  8
0
  6
Continuous
 62
     7
370
    25
100
AcDbLine
 10
996.3628328987
 20
1519.9673472402
 30
0.0
 11
996.3628328987
 21
1501.2673472402
 31
0.0
  0
LINE
  5
2B0
330
1F
100
AcDbEntity
  8
0
  6
Continuous
 62
     7
370
    25
100
AcDbLine
 10
996.3628328987
 20
1501.2673472402
 30
0.0
 11
996.2393294317
 21
1501.2673472402
 31
0.0
  0
LWPOLYLINE
  5
2B1
330
1F
100
AcDbEntity
  8
0
  6
Continuous
 62
     7
370
    25
100
AcDbPolyline
 90
        7
 70
   128
 43
0.0
 10
996.2218352633
 20
1497.6173472402
 10
996.9267453144
 20
1497.7639796794
 10
997.1659852923
 20
1497.9155512482
 10
997.3726464669
 20
1498.1475205336
 10
997.4702185402
 20
1498.3545638397
 10
997.5096777534
 20
1498.5599149059
 10
997.5116171966
 20
1498.6173472402
  0
LINE
  5
2B2
330
1F
100
AcDbEntity
  8
0
  6
Continuous
 62
     7
370
    25
100
AcDbLine
 10
996.2393294317
 20
1521.2173472402
 30
0.0
 11
997.5116171966
 21
1521.2173472402
 31
0.0
  0
LINE
  5
2B3
330
1F
100
AcDbEntity
  8
0
  6
Continuous
 62
     7
370
    25
100
AcDbLine
 10
997.5116171966
 20
1521.2173472402
 30
0.0
 11
997.5116171966
 21
1498.6173472402
 31
0.0
  0
LINE
  5
2B4
330
1F
100
AcDbEntity
  8
0
  6
Continuous
 62
     7
370
    25
100
AcDbLine
 10
996.2218352633
 20
1497.6173472402
 30
0.0
 11
995.8940995692
 21
1497.6173472402
 31
0.0
  0
ARC
  5
2B5
330
1F
100
AcDbEntity
  8
0
  6
Continuous
 62
     7
370
    25
100
AcDbCircle
 10
995.9036708994
 20
1498.6861163347
 30
0.0
 40
1.068811951524143
100
AcDbArc
 50
237.1169481187
 51
269.4869030493
  0
LINE
  5
2B6
330
1F
100
AcDbEntity
  8
0
  6
Continuous
 62
     7
370
    25
100
AcDbLine
 10
981.817863729
 20
1521.3673472402
 30
0.0
 11
981.817863729
 21
1499.8673472402
 31
0.0
  0
LINE
  5
2B7
330
1F
100
AcDbEntity
  8
0
  6
Continuous
 62
     7
370
    25
100
AcDbLine
 10
981.817863729
 20
1499.8673472402
 30
0.0
 11
978.989450211
 21
1499.8673472402
 31
0.0
  0
LINE
  5
2B8
330
1F
100
AcDbEntity
  8
0
  6
Continuous
 62
     7
370
    25
100
AcDbLine
 10
995.6491495339
 20
1499.8673472402
 30
0.0
 11
995.6491495339
 21
1521.3673472402
 31
0.0
  0
LINE
  5
2B9
330
1F
100
AcDbEntity
  8
0
  6
Continuous
 62
     7
370
    25
100
AcDbLine
 10
981.817863729
 20
1499.8673472402
 30
0.0
 11
995.6491495339
 21
1499.8673472402
 31
0.0
  0
LINE
  5
2BA
330
1F
100
AcDbEntity
  8
0
  6
Continuous
 62
     7
370
    25
100
AcDbLine
 10
978.4427923253
 20
1499.8673472402
 30
0.0
 11
978.989450211
 21
1499.8673472402
 31
0.0
  0
LINE
  5
2BB
330
1F
100
AcDbEntity
  8
0
  6
Continuous
 62
     7
370
    25
100
AcDbLine
 10
996.2393294317
 20
1499.8673472402
 30
0.0
 11
995.6491495339
 21
1499.8673472402
 31
0.0
  0
LINE
  5
2BC
330
1F
100
AcDbEntity
  8
0
  6
Continuous
 62
     7
370
    25
100
AcDbLine
 10
958.8880944879
 20
1532.7673472402
 30
0.0
 11
959.8628136569
 21
1532.7673472402
 31
0.0
  0
LINE
  5
2BD
330
1F
100
AcDbEntity
  8
0
  6
Continuous
 62
     7
370
    25
100
AcDbLine
 10
959.8628136569
 20
1532.7673472402
 30
0.0
 11
959.8628136569
 21
1511.2673472402
 31
0.0
  0
LINE
  5
2BE
330
1F
100
AcDbEntity
  8
0
  6
Continuous
 62
     7
370
    25
100
AcDbLine
 10
973.6940994618
 20
1511.2673472402
 30
0.0
 11
973.6940994618
 21
1532.7673472402
 31
0.0
  0
LINE
  5
2BF
330
1F
100
AcDbEntity
  8
0
  6
Continuous
 62
     7
370
    25
100
AcDbLine
 10
973.6940994618
 20
1532.7673472402
 30
0.0
 11
959.8628136569
 21
1532.7673472402
 31
0.0
  0
LINE
  5
2C0
330
1F
100
AcDbEntity
  8
0
  6
Continuous
 62
     7
370
    25
100
AcDbLine
 10
973.6940994618
 20
1532.7673472402
 30
0.0
 11
974.2842793596
 21
1532.7673472402
 31
0.0
  0
LINE
  5
2C1
330
1F
100
AcDbEntity
  8
0
  6
Continuous
 62
     7
370
    25
100
AcDbLine
 10
974.713088659
 20
1666.535542596
 30
0.0
 11
989.713088659
 21
1666.535542596
 31
0.0
  0
LINE
  5
2C2
330
1F
100
AcDbEntity
  8
0
  6
Continuous
 62
     7
370
    25
100
AcDbLine
 10
952.7580385869
 20
1666.535542596
 30
0.0
 11
967.7580385869
 21
1666.535542596
 31
0.0
  0
LINE
  5
2C3
330
1F
100
AcDbEntity
  8
0
  6
Continuous
 62
     7
370
    25
100
AcDbLine
 10
954.3272884787
 20
1686.535542596
 30
0.0
 11
954.3272884787
 21
1683.535542596
 31
0.0
  0
LINE
  5
2C4
330
1F
100
AcDbEntity
  8
0
  6
Continuous
 62
     7
370
    25
100
AcDbLine
 10
967.0199268872
 20
1686.535542596
 30
0.0
 11
967.0199268872
 21
1683.535542596
 31
0.0
  0
LINE
  5
2C5
330
1F
100
AcDbEntity
  8
0
  6
Continuous
 62
     7
370
    25
100
AcDbLine
 10
967.0199268872
 20
1683.535542596
 30
0.0
 11
954.3272884787
 21
1683.535542596
 31
0.0
  0
LINE
  5
2C6
330
1F
100
AcDbEntity
  8
0
  6
Continuous
 62
     7
370
    25
100
AcDbLine
 10
954.3272884787
 20
1676.535542596
 30
0.0
 11
954.3272884787
 21
1673.535542596
 31
0.0
  0
LINE
  5
2C7
330
1F
100
AcDbEntity
  8
0
  6
Continuous
 62
     7
370
    25
100
AcDbLine
 10
967.0199268872
 20
1676.535542596
 30
0.0
 11
967.0199268872
 21
1673.535542596
 31
0.0
  0
LINE
  5
2C8
330
1F
100
AcDbEntity
  8
0
  6
Continuous
 62
     7
370
    25
100
AcDbLine
 10
967.0199268872
 20
1676.535542596
 30
0.0
 11
954.3272884787
 21
1676.535542596
 31
0.0
  0
LINE
  5
2C9
330
1F
100
AcDbEntity
  8
0
  6
Continuous
 62
     7
370
    25
100
AcDbLine
 10
967.0199268872
 20
1673.535542596
 30
0.0
 11
954.3272884787
 21
1673.535542596
 31
0.0
  0
LINE
  5
2CA
330
1F
100
AcDbEntity
  8
0
  6
Continuous
 62
     7
370
    25
100
AcDbLine
 10
970.1212117429
 20
1680.035542596
 30
0.0
 11
949.5080385869
 21
1680.035542596
 31
0.0
  0
LINE
  5
2CB
330
1F
100
AcDbEntity
  8
0
  6
Continuous
 62
     7
370
    25
100
AcDbLine
 10
971.0080385869
 20
1680.035542596
 30
0.0
 11
970.1212117429
 21
1680.035542596
 31
0.0
  0
LINE
  5
2CC
330
1F
100
AcDbEntity
  8
0
  6
Continuous
 62
     7
370
    25
100
AcDbLine
 10
947.5654001784
 20
1676.535542596
 30
0.0
 11
947.5654001784
 21
1673.535542596
 31
0.0
  0
LINE
  5
2CD
330
1F
100
AcDbEntity
  8
0
  6
Continuous
 62
     7
370
    25
100
AcDbLine
 10
954.3272884787
 20
1676.535542596
 30
0.0
 11
947.5654001784
 21
1676.535542596
 31
0.0
  0
LINE
  5
2CE
330
1F
100
AcDbEntity
  8
0
  6
Continuous
 62
     7
370
    25
100
AcDbLine
 10
954.3272884787
 20
1673.535542596
 30
0.0
 11
947.5654001784
 21
1673.535542596
 31
0.0
  0
LINE
  5
2CF
330
1F
100
AcDbEntity
  8
0
  6
Continuous
 62
     7
370
    25
100
AcDbLine
 10
947.5654001784
 20
1686.535542596
 30
0.0
 11
947.5654001784
 21
1683.535542596
 31
0.0
  0
LINE
  5
2D0
330
1F
100
AcDbEntity
  8
0
  6
Continuous
 62
     7
370
    25
100
AcDbLine
 10
954.3272884787
 20
1683.535542596
 30
0.0
 11
947.5654001784
 21
1683.535542596
 31
0.0
  0
LINE
  5
2D1
330
1F
100
AcDbEntity
  8
0
  6
Continuous
 62
     7
370
    25
100
AcDbLine
 10
972.9506769954
 20
1686.535542596
 30
0.0
 11
972.9506769954
 21
1683.535542596
 31
0.0
  0
LINE
  5
2D2
330
1F
100
AcDbEntity
  8
0
  6
Continuous
 62
     7
370
    25
100
AcDbLine
 10
972.9506769954
 20
1683.535542596
 30
0.0
 11
967.0199268872
 21
1683.535542596
 31
0.0
  0
LINE
  5
2D3
330
1F
100
AcDbEntity
  8
0
  6
Continuous
 62
     7
370
    25
100
AcDbLine
 10
972.9506769954
 20
1676.535542596
 30
0.0
 11
972.9506769954
 21
1673.535542596
 31
0.0
  0
LINE
  5
2D4
330
1F
100
AcDbEntity
  8
0
  6
Continuous
 62
     7
370
    25
100
AcDbLine
 10
972.9506769954
 20
1676.535542596
 30
0.0
 11
967.0199268872
 21
1676.535542596
 31
0.0
  0
LINE
  5
2D5
330
1F
100
AcDbEntity
  8
0
  6
Continuous
 62
     7
370
    25
100
AcDbLine
 10
972.9506769954
 20
1673.535542596
 30
0.0
 11
967.0199268872
 21
1673.535542596
 31
0.0
  0
LINE
  5
2D6
330
1F
100
AcDbEntity
  8
0
  6
Continuous
 62
     7
370
    25
100
AcDbLine
 10
976.2823385508
 20
1684.335542596
 30
0.0
 11
976.2823385508
 21
1683.535542596
 31
0.0
  0
LINE
  5
2D7
330
1F
100
AcDbEntity
  8
0
  6
Continuous
 62
     7
370
    25
100
AcDbLine
 10
988.9749769593
 20
1686.535542596
 30
0.0
 11
988.9749769593
 21
1683.535542596
 31
0.0
  0
LINE
  5
2D8
330
1F
100
AcDbEntity
  8
0
  6
Continuous
 62
     7
370
    25
100
AcDbLine
 10
988.9749769593
 20
1683.535542596
 30
0.0
 11
976.2823385508
 21
1683.535542596
 31
0.0
  0
LINE
  5
2D9
330
1F
100
AcDbEntity
  8
0
  6
Continuous
 62
     7
370
    25
100
AcDbLine
 10
976.2823385508
 20
1676.535542596
 30
0.0
 11
976.2823385508
 21
1673.535542596
 31
0.0
  0
LINE
  5
2DA
330
1F
100
AcDbEntity
  8
0
  6
Continuous
 62
     7
370
    25
100
AcDbLine
 10
988.9749769593
 20
1676.535542596
 30
0.0
 11
988.9749769593
 21
1673.535542596
 31
0.0
  0
LINE
  5
2DB
330
1F
100
AcDbEntity
  8
0
  6
Continuous
 62
     7
370
    25
100
AcDbLine
 10
988.9749769593
 20
1673.535542596
 30
0.0
 11
976.2823385508
 21
1673.535542596
 31
0.0
  0
LINE
  5
2DC
330
1F
100
AcDbEntity
  8
0
  6
Continuous
 62
     7
370
    25
100
AcDbLine
 10
988.9749769593
 20
1676.535542596
 30
0.0
 11
976.2823385508
 21
1676.535542596
 31
0.0
  0
LINE
  5
2DD
330
1F
100
AcDbEntity
  8
0
  6
Continuous
 62
     7
370
    25
100
AcDbLine
 10
992.076261815
 20
1680.035542596
 30
0.0
 11
971.463088659
 21
1680.035542596
 31
0.0
  0
LINE
  5
2DE
330
1F
100
AcDbEntity
  8
0
  6
Continuous
 62
     7
370
    25
100
AcDbLine
 10
992.963088659
 20
1680.035542596
 30
0.0
 11
992.076261815
 21
1680.035542596
 31
0.0
  0
LINE
  5
2DF
330
1F
100
AcDbEntity
  8
0
  6
Continuous
 62
     7
370
    25
100
AcDbLine
 10
976.2823385508
 20
1673.535542596
 30
0.0
 11
972.9506769954
 21
1673.535542596
 31
0.0
  0
LINE
  5
2E0
330
1F
100
AcDbEntity
  8
0
  6
Continuous
 62
     7
370
    25
100
AcDbLine
 10
976.2823385508
 20
1676.535542596
 30
0.0
 11
972.9506769954
 21
1676.535542596
 31
0.0
  0
LINE
  5
2E1
330
1F
100
AcDbEntity
  8
0
  6
Continuous
 62
     7
370
    25
100
AcDbLine
 10
976.2823385508
 20
1683.535542596
 30
0.0
 11
972.9506769954
 21
1683.535542596
 31
0.0
  0
LINE
  5
2E2
330
1F
100
AcDbEntity
  8
0
  6
Continuous
 62
     7
370
    25
100
AcDbLine
 10
994.9057270675
 20
1676.535542596
 30
0.0
 11
994.9057270675
 21
1673.535542596
 31
0.0
  0
LINE
  5
2E3
330
1F
100
AcDbEntity
  8
0
  6
Continuous
 62
     7
370
    25
100
AcDbLine
 10
994.9057270675
 20
1673.535542596
 30
0.0
 11
988.9749769593
 21
1673.535542596
 31
0.0
  0
LINE
  5
2E4
330
1F
100
AcDbEntity
  8
0
  6
Continuous
 62
     7
370
    25
100
AcDbLine
 10
994.9057270675
 20
1676.535542596
 30
0.0
 11
988.9749769593
 21
1676.535542596
 31
0.0
  0
LINE
  5
2E5
330
1F
100
AcDbEntity
  8
0
  6
Continuous
 62
     7
370
    25
100
AcDbLine
 10
994.9057270675
 20
1686.535542596
 30
0.0
 11
994.9057270675
 21
1683.535542596
 31
0.0
  0
LINE
  5
2E6
330
1F
100
AcDbEntity
  8
0
  6
Continuous
 62
     7
370
    25
100
AcDbLine
 10
994.9057270675
 20
1683.535542596
 30
0.0
 11
988.9749769593
 21
1683.535542596
 31
0.0
  0
LINE
  5
2E7
330
1F
100
AcDbEntity
  8
0
  6
Continuous
 62
     7
370
    25
100
AcDbLine
 10
1013.4882358818
 20
1758.235542596
 30
0.0
 11
1017.2882358818
 21
1758.235542596
 31
0.0
  0
LINE
  5
2E8
330
1F
100
AcDbEntity
  8
0
  6
Continuous
 62
     7
370
    25
100
AcDbLine
 10
1011.5882358818
 20
1756.415542596
 30
0.0
 11
1019.1882358818
 21
1756.415542596
 31
0.0
  0
LINE
  5
2E9
330
1F
100
AcDbEntity
  8
0
  6
Continuous
 62
     7
370
    25
100
AcDbLine
 10
1014.6325575357
 20
1684.335542596
 30
0.0
 11
1013.4882358818
 21
1684.335542596
 31
0.0
  0
LINE
  5
2EA
330
1F
100
AcDbEntity
  8
0
  6
Continuous
 62
     7
370
    25
100
AcDbLine
 10
1017.2882358818
 20
1684.335542596
 30
0.0
 11
1014.6325575357
 21
1684.335542596
 31
0.0
  0
LINE
  5
2EB
330
1F
100
AcDbEntity
  8
0
  6
Continuous
 62
     7
370
    25
100
AcDbLine
 10
1013.8768791895
 20
1686.155542596
 30
0.0
 11
1011.5882358818
 21
1686.155542596
 31
0.0
  0
LINE
  5
2EC
330
1F
100
AcDbEntity
  8
0
  6
Continuous
 62
     7
370
    25
100
AcDbLine
 10
1019.1882358818
 20
1686.155542596
 30
0.0
 11
1013.8768791895
 21
1686.155542596
 31
0.0
  0
LINE
  5
2ED
330
1F
100
AcDbEntity
  8
0
  6
Continuous
 62
     7
370
    25
100
AcDbLine
 10
974.3430616523
 20
1756.415542596
 30
0.0
 11
981.9430616523
 21
1756.415542596
 31
0.0
  0
LINE
  5
2EE
330
1F
100
AcDbEntity
  8
0
  6
Continuous
 62
     7
370
    25
100
AcDbLine
 10
976.2430616523
 20
1758.235542596
 30
0.0
 11
980.0430616523
 21
1758.235542596
 31
0.0
  0
LINE
  5
2EF
330
1F
100
AcDbEntity
  8
0
  6
Continuous
 62
     7
370
    25
100
AcDbLine
 10
976.6317049601
 20
1686.155542596
 30
0.0
 11
974.3430616523
 21
1686.155542596
 31
0.0
  0
LINE
  5
2F0
330
1F
100
AcDbEntity
  8
0
  6
Continuous
 62
     7
370
    25
100
AcDbLine
 10
981.9430616523
 20
1686.155542596
 30
0.0
 11
976.6317049601
 21
1686.155542596
 31
0.0
  0
LINE
  5
2F1
330
1F
100
AcDbEntity
  8
0
  6
Continuous
 62
     7
370
    25
100
AcDbLine
 10
977.3873833062
 20
1684.335542596
 30
0.0
 11
976.2430616523
 21
1684.335542596
 31
0.0
  0
LINE
  5
2F2
330
1F
100
AcDbEntity
  8
0
  6
Continuous
 62
     7
370
    25
100
AcDbLine
 10
980.0430616523
 20
1684.335542596
 30
0.0
 11
977.3873833062
 21
1684.335542596
 31
0.0
  0
LINE
  5
2F3
330
1F
100
AcDbEntity
  8
0
  6
Continuous
 62
     7
370
    25
100
AcDbLine
 10
925.1828913641
 20
1758.235542596
 30
0.0
 11
928.7355636229
 21
1758.235542596
 31
0.0
  0
LINE
  5
2F4
330
1F
100
AcDbEntity
  8
0
  6
Continuous
 62
     7
370
    25
100
AcDbLine
 10
923.2828913641
 20
1756.415542596
 30
0.0
 11
928.5201654328
 21
1756.415542596
 31
0.0
  0
LINE
  5
2F5
330
1F
100
AcDbEntity
  8
0
  6
Continuous
 62
     7
370
    25
100
AcDbLine
 10
933.2347110474
 20
1684.335542596
 30
0.0
 11
932.0903893935
 21
1684.335542596
 31
0.0
  0
LINE
  5
2F6
330
1F
100
AcDbEntity
  8
0
  6
Continuous
 62
     7
370
    25
100
AcDbLine
 10
935.8903893935
 20
1684.335542596
 30
0.0
 11
933.2347110474
 21
1684.335542596
 31
0.0
  0
LINE
  5
2F7
330
1F
100
AcDbEntity
  8
0
  6
Continuous
 62
     7
370
    25
100
AcDbLine
 10
932.4790327013
 20
1686.155542596
 30
0.0
 11
930.1903893935
 21
1686.155542596
 31
0.0
  0
LINE
  5
2F8
330
1F
100
AcDbEntity
  8
0
  6
Continuous
 62
     7
370
    25
100
AcDbLine
 10
937.7903893935
 20
1686.155542596
 30
0.0
 11
932.4790327013
 21
1686.155542596
 31
0.0
  0
LINE
  5
2F9
330
1F
100
AcDbEntity
  8
0
  6
Continuous
 62
     7
370
    25
100
AcDbLine
 10
932.0903893935
 20
1758.235542596
 30
0.0
 11
935.8903893935
 21
1758.235542596
 31
0.0
  0
LINE
  5
2FA
330
1F
100
AcDbEntity
  8
0
  6
Continuous
 62
     7
370
    25
100
AcDbLine
 10
930.1903893935
 20
1756.415542596
 30
0.0
 11
937.7903893935
 21
1756.415542596
 31
0.0
  0
LINE
  5
2FB
330
1F
100
AcDbEntity
  8
0
  6
Continuous
 62
     7
370
    25
100
AcDbLine
 10
1006.9693811602
 20
1686.155542596
 30
0.0
 11
1004.6807378525
 21
1686.155542596
 31
0.0
  0
LINE
  5
2FC
330
1F
100
AcDbEntity
  8
0
  6
Continuous
 62
     7
370
    25
100
AcDbLine
 10
1011.5882358818
 20
1686.155542596
 30
0.0
 11
1006.9693811602
 21
1686.155542596
 31
0.0
  0
LINE
  5
2FD
330
1F
100
AcDbEntity
  8
0
  6
Continuous
 62
     7
370
    25
100
AcDbLine
 10
1007.7250595063
 20
1684.335542596
 30
0.0
 11
1006.5807378525
 21
1684.335542596
 31
0.0
  0
LINE
  5
2FE
330
1F
100
AcDbEntity
  8
0
  6
Continuous
 62
     7
370
    25
100
AcDbLine
 10
1010.3807378525
 20
1684.335542596
 30
0.0
 11
1007.7250595063
 21
1684.335542596
 31
0.0
  0
LINE
  5
2FF
330
1F
100
AcDbEntity
  8
0
  6
Continuous
 62
     7
370
    25
100
AcDbLine
 10
925.5715346719
 20
1686.155542596
 30
0.0
 11
923.2828913642
 21
1686.155542596
 31
0.0
  0
LINE
  5
300
330
1F
100
AcDbEntity
  8
0
  6
Continuous
 62
     7
370
    25
100
AcDbLine
 10
930.1903893935
 20
1686.155542596
 30
0.0
 11
925.5715346719
 21
1686.155542596
 31
0.0
  0
LINE
  5
301
330
1F
100
AcDbEntity
  8
0
  6
Continuous
 62
     7
370
    25
100
AcDbLine
 10
926.3272130181
 20
1684.335542596
 30
0.0
 11
925.1828913642
 21
1684.335542596
 31
0.0
  0
LINE
  5
302
330
1F
100
AcDbEntity
  8
0
  6
Continuous
 62
     7
370
    25
100
AcDbLine
 10
928.9828913642
 20
1684.335542596
 30
0.0
 11
926.3272130181
 21
1684.335542596
 31
0.0
  0
LINE
  5
303
330
1F
100
AcDbEntity
  8
0
  6
Continuous
 62
     7
370
    25
100
AcDbLine
 10
974.1482746371
 20
1688.035542596
 30
0.0
 11
974.1482746371
 21
1689.535542596
 31
0.0
  0
LINE
  5
304
330
1F
100
AcDbEntity
  8
0
  6
Continuous
 62
     7
370
    25
100
AcDbLine
 10
982.1430616524
 20
1689.535542596
 30
0.0
 11
974.1482746371
 21
1689.535542596
 31
0.0
  0
LINE
  5
305
330
1F
100
AcDbEntity
  8
0
  6
Continuous
 62
     7
370
    25
100
AcDbLine
 10
982.1430616524
 20
1688.035542596
 30
0.0
 11
974.1482746371
 21
1688.035542596
 31
0.0
  0
LINE
  5
306
330
1F
100
AcDbEntity
  8
0
  6
Continuous
 62
     7
370
    25
100
AcDbLine
 10
973.8341738094
 20
1688.035542596
 30
0.0
 11
973.8341738094
 21
1689.535542596
 31
0.0
  0
LINE
  5
307
330
1F
100
AcDbEntity
  8
0
  6
Continuous
 62
     7
370
    25
100
AcDbLine
 10
974.1482746371
 20
1689.535542596
 30
0.0
 11
974.0105073633
 21
1689.535542596
 31
0.0
  0
LINE
  5
308
330
1F
100
AcDbEntity
  8
0
  6
Continuous
 62
     7
370
    25
100
AcDbLine
 10
974.1482746371
 20
1688.035542596
 30
0.0
 11
974.0105073633
 21
1688.035542596
 31
0.0
  0
LINE
  5
309
330
1F
100
AcDbEntity
  8
0
  6
Continuous
 62
     7
370
    25
100
AcDbLine
 10
1007.8678612066
 20
1688.035542596
 30
0.0
 11
1007.8678612066
 21
1689.535542596
 31
0.0
  0
LINE
  5
30A
330
1F
100
AcDbEntity
  8
0
  6
Continuous
 62
     7
370
    25
100
AcDbLine
 10
983.7950888908
 20
1688.035542596
 30
0.0
 11
983.7950888908
 21
1689.535542596
 31
0.0
  0
LINE
  5
30B
330
1F
100
AcDbEntity
  8
0
  6
Continuous
 62
     7
370
    25
100
AcDbLine
 10
1007.0754399186
 20
1689.535542596
 30
0.0
 11
985.2362157944
 21
1689.535542596
 31
0.0
  0
LINE
  5
30C
330
1F
100
AcDbEntity
  8
0
  6
Continuous
 62
     7
370
    25
100
AcDbLine
 10
1007.0754399186
 20
1688.035542596
 30
0.0
 11
985.2362157944
 21
1688.035542596
 31
0.0
  0
LINE
  5
30D
330
1F
100
AcDbEntity
  8
0
  6
Continuous
 62
     7
370
    25
100
AcDbLine
 10
970.8904268131
 20
1688.035542596
 30
0.0
 11
970.8904268131
 21
1689.535542596
 31
0.0
  0
LINE
  5
30E
330
1F
100
AcDbEntity
  8
0
  6
Continuous
 62
     7
370
    25
100
AcDbLine
 10
942.3531129622
 20
1688.035542596
 30
0.0
 11
942.3531129622
 21
1689.535542596
 31
0.0
  0
LINE
  5
30F
330
1F
100
AcDbEntity
  8
0
  6
Continuous
 62
     7
370
    25
100
AcDbLine
 10
969.373819579
 20
1689.535542596
 30
0.0
 11
943.484288248
 21
1689.535542596
 31
0.0
  0
LINE
  5
310
330
1F
100
AcDbEntity
  8
0
  6
Continuous
 62
     7
370
    25
100
AcDbLine
 10
969.3738195791
 20
1688.035542596
 30
0.0
 11
943.4842882481
 21
1688.035542596
 31
0.0
  0
LINE
  5
311
330
1F
100
AcDbEntity
  8
0
  6
Continuous
 62
     7
370
    25
100
AcDbLine
 10
936.758852917
 20
1688.035542596
 30
0.0
 11
936.758852917
 21
1689.535542596
 31
0.0
  0
LINE
  5
312
330
1F
100
AcDbEntity
  8
0
  6
Continuous
 62
     7
370
    25
100
AcDbLine
 10
936.758852917
 20
1689.535542596
 30
0.0
 11
929.9903893935
 21
1689.535542596
 31
0.0
  0
LINE
  5
313
330
1F
100
AcDbEntity
  8
0
  6
Continuous
 62
     7
370
    25
100
AcDbLine
 10
936.758852917
 20
1688.035542596
 30
0.0
 11
929.9903893935
 21
1688.035542596
 31
0.0
  0
LINE
  5
314
330
1F
100
AcDbEntity
  8
0
  6
Continuous
 62
     7
370
    25
100
AcDbLine
 10
938.4524820721
 20
1688.035542596
 30
0.0
 11
938.4524820721
 21
1689.535542596
 31
0.0
  0
LINE
  5
315
330
1F
100
AcDbEntity
  8
0
  6
Continuous
 62
     7
370
    25
100
AcDbLine
 10
937.5016929585
 20
1689.535542596
 30
0.0
 11
936.758852917
 21
1689.535542596
 31
0.0
  0
LINE
  5
316
330
1F
100
AcDbEntity
  8
0
  6
Continuous
 62
     7
370
    25
100
AcDbLine
 10
937.5016929565
 20
1688.035542596
 30
0.0
 11
936.758852917
 21
1688.035542596
 31
0.0
  0
LINE
  5
317
330
1F
100
AcDbEntity
  8
0
  6
Continuous
 62
     7
370
    25
100
AcDbLine
 10
1013.5676403581
 20
1688.035542596
 30
0.0
 11
1013.5676403581
 21
1689.535542596
 31
0.0
  0
LINE
  5
318
330
1F
100
AcDbEntity
  8
0
  6
Continuous
 62
     7
370
    25
100
AcDbLine
 10
1019.3882358818
 20
1689.535542596
 30
0.0
 11
1013.5676403581
 21
1689.535542596
 31
0.0
  0
LINE
  5
319
330
1F
100
AcDbEntity
  8
0
  6
Continuous
 62
     7
370
    25
100
AcDbLine
 10
1019.3882358818
 20
1688.035542596
 30
0.0
 11
1013.5676403581
 21
1688.035542596
 31
0.0
  0
LINE
  5
31A
330
1F
100
AcDbEntity
  8
0
  6
Continuous
 62
     7
370
    25
100
AcDbLine
 10
1011.5599103755
 20
1688.035542596
 30
0.0
 11
1011.5599103755
 21
1689.535542596
 31
0.0
  0
LINE
  5
31B
330
1F
100
AcDbEntity
  8
0
  6
Continuous
 62
     7
370
    25
100
AcDbLine
 10
1013.5676403581
 20
1689.535542596
 30
0.0
 11
1012.6870330429
 21
1689.535542596
 31
0.0
  0
LINE
  5
31C
330
1F
100
AcDbEntity
  8
0
  6
Continuous
 62
     7
370
    25
100
AcDbLine
 10
1013.5676403581
 20
1688.035542596
 30
0.0
 11
1012.6870330448
 21
1688.035542596
 31
0.0
  0
LINE
  5
31D
330
1F
100
AcDbEntity
  8
0
  6
Continuous
 62
     7
370
    25
100
AcDbLine
 10
929.9903893935
 20
1689.535542596
 30
0.0
 11
928.735563623
 21
1689.535542596
 31
0.0
  0
LINE
  5
31E
330
1F
100
AcDbEntity
  8
0
  6
Continuous
 62
     7
370
    25
100
AcDbLine
 10
929.9903893935
 20
1688.035542596
 30
0.0
 11
928.735563623
 21
1688.035542596
 31
0.0
  0
LINE
  5
31F
330
1F
100
AcDbEntity
  8
0
  6
Continuous
 62
     7
370
    25
100
AcDbLine
 10
927.974511674
 20
1688.035542596
 30
0.0
 11
927.974511674
 21
1689.535542596
 31
0.0
  0
LINE
  5
320
330
1F
100
AcDbEntity
  8
0
  6
Continuous
 62
     7
370
    25
100
AcDbLine
 10
925.9667816914
 20
1688.035542596
 30
0.0
 11
925.9667816914
 21
1689.535542596
 31
0.0
  0
LINE
  5
321
330
1F
100
AcDbEntity
  8
0
  6
Continuous
 62
     7
370
    25
100
AcDbLine
 10
926.847389007
 20
1689.535542596
 30
0.0
 11
925.9667816914
 21
1689.535542596
 31
0.0
  0
LINE
  5
322
330
1F
100
AcDbEntity
  8
0
  6
Continuous
 62
     7
370
    25
100
AcDbLine
 10
926.8473890046
 20
1688.035542596
 30
0.0
 11
925.9667816914
 21
1688.035542596
 31
0.0
  0
LINE
  5
323
330
1F
100
AcDbEntity
  8
0
  6
Continuous
 62
     7
370
    25
100
AcDbLine
 10
925.9667816914
 20
1689.535542596
 30
0.0
 11
923.0828913641
 21
1689.535542596
 31
0.0
  0
LINE
  5
324
330
1F
100
AcDbEntity
  8
0
  6
Continuous
 62
     7
370
    25
100
AcDbLine
 10
925.9667816914
 20
1688.035542596
 30
0.0
 11
923.0828913641
 21
1688.035542596
 31
0.0
  0
LINE
  5
325
330
1F
100
AcDbEntity
  8
0
  6
Continuous
 62
     7
370
    25
100
AcDbLine
 10
974.1482746371
 20
1686.535542596
 30
0.0
 11
974.1482746371
 21
1688.035542596
 31
0.0
  0
LINE
  5
326
330
1F
100
AcDbEntity
  8
0
  6
Continuous
 62
     7
370
    25
100
AcDbLine
 10
982.1430616524
 20
1686.535542596
 30
0.0
 11
974.1482746371
 21
1686.535542596
 31
0.0
  0
LINE
  5
327
330
1F
100
AcDbEntity
  8
0
  6
Continuous
 62
     7
370
    25
100
AcDbLine
 10
969.3738195791
 20
1686.535542596
 30
0.0
 11
969.3738195791
 21
1688.035542596
 31
0.0
  0
LINE
  5
328
330
1F
100
AcDbEntity
  8
0
  6
Continuous
 62
     7
370
    25
100
AcDbLine
 10
943.4842882481
 20
1686.535542596
 30
0.0
 11
943.4842882481
 21
1688.035542596
 31
0.0
  0
LINE
  5
329
330
1F
100
AcDbEntity
  8
0
  6
Continuous
 62
     7
370
    25
100
AcDbLine
 10
969.3738195791
 20
1686.535542596
 30
0.0
 11
943.4842882481
 21
1686.535542596
 31
0.0
  0
LINE
  5
32A
330
1F
100
AcDbEntity
  8
0
  6
Continuous
 62
     7
370
    25
100
AcDbLine
 10
974.1482746371
 20
1686.535542596
 30
0.0
 11
969.3738195791
 21
1686.535542596
 31
0.0
  0
LINE
  5
32B
330
1F
100
AcDbEntity
  8
0
  6
Continuous
 62
     7
370
    25
100
AcDbLine
 10
974.0105073633
 20
1688.035542596
 30
0.0
 11
969.3738195791
 21
1688.035542596
 31
0.0
  0
LINE
  5
32C
330
1F
100
AcDbEntity
  8
0
  6
Continuous
 62
     7
370
    25
100
AcDbLine
 10
985.2362157944
 20
1686.535542596
 30
0.0
 11
985.2362157944
 21
1688.035542596
 31
0.0
  0
LINE
  5
32D
330
1F
100
AcDbEntity
  8
0
  6
Continuous
 62
     7
370
    25
100
AcDbLine
 10
985.2362157944
 20
1686.535542596
 30
0.0
 11
982.1430616524
 21
1686.535542596
 31
0.0
  0
LINE
  5
32E
330
1F
100
AcDbEntity
  8
0
  6
Continuous
 62
     7
370
    25
100
AcDbLine
 10
985.2362157944
 20
1688.035542596
 30
0.0
 11
982.1430616524
 21
1688.035542596
 31
0.0
  0
LINE
  5
32F
330
1F
100
AcDbEntity
  8
0
  6
Continuous
 62
     7
370
    25
100
AcDbLine
 10
1007.0754399186
 20
1686.535542596
 30
0.0
 11
1007.0754399186
 21
1688.035542596
 31
0.0
  0
LINE
  5
330
330
1F
100
AcDbEntity
  8
0
  6
Continuous
 62
     7
370
    25
100
AcDbLine
 10
1007.0754399186
 20
1686.535542596
 30
0.0
 11
985.2362157944
 21
1686.535542596
 31
0.0
  0
LINE
  5
331
330
1F
100
AcDbEntity
  8
0
  6
Continuous
 62
     7
370
    25
100
AcDbLine
 10
936.7588529171
 20
1686.535542596
 30
0.0
 11
936.7588529171
 21
1688.035542596
 31
0.0
  0
LINE
  5
332
330
1F
100
AcDbEntity
  8
0
  6
Continuous
 62
     7
370
    25
100
AcDbLine
 10
943.4842882481
 20
1686.535542596
 30
0.0
 11
936.7588529171
 21
1686.535542596
 31
0.0
  0
LINE
  5
333
330
1F
100
AcDbEntity
  8
0
  6
Continuous
 62
     7
370
    25
100
AcDbLine
 10
943.4842882481
 20
1688.035542596
 30
0.0
 11
937.5016929565
 21
1688.035542596
 31
0.0
  0
LINE
  5
334
330
1F
100
AcDbEntity
  8
0
  6
Continuous
 62
     7
370
    25
100
AcDbLine
 10
936.7588529171
 20
1686.535542596
 30
0.0
 11
929.9903893935
 21
1686.535542596
 31
0.0
  0
LINE
  5
335
330
1F
100
AcDbEntity
  8
0
  6
Continuous
 62
     7
370
    25
100
AcDbLine
 10
1013.5676403581
 20
1686.535542596
 30
0.0
 11
1013.5676403581
 21
1688.035542596
 31
0.0
  0
LINE
  5
336
330
1F
100
AcDbEntity
  8
0
  6
Continuous
 62
     7
370
    25
100
AcDbLine
 10
1013.5676403581
 20
1686.535542596
 30
0.0
 11
1007.0754399186
 21
1686.535542596
 31
0.0
  0
LINE
  5
337
330
1F
100
AcDbEntity
  8
0
  6
Continuous
 62
     7
370
    25
100
AcDbLine
 10
1012.6775395516
 20
1688.035542596
 30
0.0
 11
1007.0754399186
 21
1688.035542596
 31
0.0
  0
LINE
  5
338
330
1F
100
AcDbEntity
  8
0
  6
Continuous
 62
     7
370
    25
100
AcDbLine
 10
1019.3882358819
 20
1686.535542596
 30
0.0
 11
1013.5676403581
 21
1686.535542596
 31
0.0
  0
LINE
  5
339
330
1F
100
AcDbEntity
  8
0
  6
Continuous
 62
     7
370
    25
100
AcDbLine
 10
929.9903893935
 20
1686.535542596
 30
0.0
 11
928.735563623
 21
1686.535542596
 31
0.0
  0
LINE
  5
33A
330
1F
100
AcDbEntity
  8
0
  6
Continuous
 62
     7
370
    25
100
AcDbLine
 10
925.9667816915
 20
1686.535542596
 30
0.0
 11
925.9667816915
 21
1688.035542596
 31
0.0
  0
LINE
  5
33B
330
1F
100
AcDbEntity
  8
0
  6
Continuous
 62
     7
370
    25
100
AcDbLine
 10
928.735563623
 20
1686.535542596
 30
0.0
 11
925.9667816915
 21
1686.535542596
 31
0.0
  0
LINE
  5
33C
330
1F
100
AcDbEntity
  8
0
  6
Continuous
 62
     7
370
    25
100
AcDbLine
 10
928.735563623
 20
1688.035542596
 30
0.0
 11
926.8473890046
 21
1688.035542596
 31
0.0
  0
LINE
  5
33D
330
1F
100
AcDbEntity
  8
0
  6
Continuous
 62
     7
370
    25
100
AcDbLine
 10
925.9667816915
 20
1686.535542596
 30
0.0
 11
923.0828913642
 21
1686.535542596
 31
0.0
  0
LINE
  5
33E
330
1F
100
AcDbEntity
  8
0
  6
Continuous
 62
     7
370
    25
100
AcDbLine
 10
974.0105073633
 20
1689.535542596
 30
0.0
 11
969.373819579
 21
1689.535542596
 31
0.0
  0
LINE
  5
33F
330
1F
100
AcDbEntity
  8
0
  6
Continuous
 62
     7
370
    25
100
AcDbLine
 10
982.1430616523
 20
1689.535542596
 30
0.0
 11
985.2362157944
 21
1689.535542596
 31
0.0
  0
LINE
  5
340
330
1F
100
AcDbEntity
  8
0
  6
Continuous
 62
     7
370
    25
100
AcDbLine
 10
937.5016929585
 20
1689.535542596
 30
0.0
 11
943.484288248
 21
1689.535542596
 31
0.0
  0
LINE
  5
341
330
1F
100
AcDbEntity
  8
0
  6
Continuous
 62
     7
370
    25
100
AcDbLine
 10
1012.6775395516
 20
1689.535542596
 30
0.0
 11
1007.0754399186
 21
1689.535542596
 31
0.0
  0
LINE
  5
342
330
1F
100
AcDbEntity
  8
0
  6
Continuous
 62
     7
370
    25
100
AcDbLine
 10
926.847389007
 20
1689.535542596
 30
0.0
 11
928.735563623
 21
1689.535542596
 31
0.0
  0
ARC
  5
343
330
1F
100
AcDbEntity
  8
0
  6
Continuous
 62
     7
370
    25
100
AcDbCircle
 10
891.942229885
 20
1737.0170090761
 30
0.0
 40
4.560063390536595
100
AcDbArc
 50
97.7386042132
 51
186.0607732306
  0
LINE
  5
344
330
1F
100
AcDbEntity
  8
0
  6
Continuous
 62
     7
370
    25
100
AcDbLine
 10
898.3014703942
 20
1741.535542596
 30
0.0
 11
891.3281997918
 21
1741.535542596
 31
0.0
  0
LINE
  5
345
330
1F
100
AcDbEntity
  8
0
  6
Continuous
 62
     7
370
    25
100
AcDbLine
 10
891.3281997918
 20
1691.535542596
 30
0.0
 11
898.3014703942
 21
1691.535542596
 31
0.0
  0
ARC
  5
346
330
1F
100
AcDbEntity
  8
0
  6
Continuous
 62
     7
370
    25
100
AcDbCircle
 10
891.942229885
 20
1696.0540761159
 30
0.0
 40
4.560063390536084
100
AcDbArc
 50
173.9392267694
 51
262.2613957868
  0
LINE
  5
347
330
1F
100
AcDbEntity
  8
0
  6
Continuous
 62
     7
370
    25
100
AcDbLine
 10
887.407655136
 20
1736.535542596
 30
0.0
 11
887.407655136
 21
1696.535542596
 31
0.0
  0
ARC
  5
348
330
1F
100
AcDbEntity
  8
0
  6
Continuous
 62
     7
370
    25
100
AcDbCircle
 10
895.7755574048
 20
1716.328514636
 30
0.0
 40
3.123798309539948
100
AcDbArc
 50
176.1999694496
 51
243.483609121
  0
ARC
  5
349
330
1F
100
AcDbEntity
  8
0
  6
Continuous
 62
     7
370
    25
100
AcDbCircle
 10
895.7755574048
 20
1716.742570556
 30
0.0
 40
3.123798309541395
100
AcDbArc
 50
116.516390879
 51
183.8000305504
  0
LINE
  5
34A
330
1F
100
AcDbEntity
  8
0
  6
Continuous
 62
     7
370
    25
100
AcDbLine
 10
890.0869533471
 20
1741.535542596
 30
0.0
 11
891.3281997918
 21
1741.535542596
 31
0.0
  0
LINE
  5
34B
330
1F
100
AcDbEntity
  8
0
  6
Continuous
 62
     7
370
    25
100
AcDbLine
 10
887.407655136
 20
1736.535542596
 30
0.0
 11
886.1664086914
 21
1736.535542596
 31
0.0
  0
ARC
  5
34C
330
1F
100
AcDbEntity
  8
0
  6
Continuous
 62
     7
370
    25
100
AcDbCircle
 10
890.7009834404
 20
1737.0170090761
 30
0.0
 40
4.56006339053658
100
AcDbArc
 50
97.7386042132
 51
186.0607732306
  0
LINE
  5
34D
330
1F
100
AcDbEntity
  8
0
  6
Continuous
 62
     7
370
    25
100
AcDbLine
 10
886.1664086914
 20
1696.535542596
 30
0.0
 11
887.407655136
 21
1696.535542596
 31
0.0
  0
LINE
  5
34E
330
1F
100
AcDbEntity
  8
0
  6
Continuous
 62
     7
370
    25
100
AcDbLine
 10
891.3281997918
 20
1691.535542596
 30
0.0
 11
890.0869533471
 21
1691.535542596
 31
0.0
  0
ARC
  5
34F
330
1F
100
AcDbEntity
  8
0
  6
Continuous
 62
     7
370
    25
100
AcDbCircle
 10
890.7009834404
 20
1696.0540761159
 30
0.0
 40
4.560063390536309
100
AcDbArc
 50
173.9392267694
 51
262.2613957868
  0
LINE
  5
350
330
1F
100
AcDbEntity
  8
0
  6
Continuous
 62
     7
370
    25
100
AcDbLine
 10
886.1664086914
 20
1736.535542596
 30
0.0
 11
886.1664086914
 21
1696.535542596
 31
0.0
  0
LINE
  5
351
330
1F
100
AcDbEntity
  8
0
  6
Continuous
 62
     7
370
    25
100
AcDbLine
 10
903.8446531351
 20
1714.3034460636
 30
0.0
 11
903.8446531351
 21
1718.7676391283
 31
0.0
  0
LINE
  5
352
330
1F
100
AcDbEntity
  8
0
  6
Continuous
 62
     7
370
    25
100
AcDbLine
 10
899.5427168388
 20
1691.535542596
 30
0.0
 11
898.3014703942
 21
1691.535542596
 31
0.0
  0
ARC
  5
353
330
1F
100
AcDbEntity
  8
0
  6
Continuous
 62
     7
370
    25
100
AcDbCircle
 10
898.9155004874
 20
1696.0540761159
 30
0.0
 40
4.560063390536611
100
AcDbArc
 50
173.9392267694
 51
262.2613957868
  0
LINE
  5
354
330
1F
100
AcDbEntity
  8
0
  6
Continuous
 62
     7
370
    25
100
AcDbLine
 10
894.3809257384
 20
1696.535542596
 30
0.0
 11
895.6221721831
 21
1696.535542596
 31
0.0
  0
ARC
  5
355
330
1F
100
AcDbEntity
  8
0
  6
Continuous
 62
     7
370
    25
100
AcDbCircle
 10
900.1567469321
 20
1696.0540761159
 30
0.0
 40
4.56006339053658
100
AcDbArc
 50
173.9392267694
 51
262.2613957868
  0
LINE
  5
356
330
1F
100
AcDbEntity
  8
0
  6
Continuous
 62
     7
370
    25
100
AcDbLine
 10
894.3809257384
 20
1696.535542596
 30
0.0
 11
894.3809257384
 21
1736.535542596
 31
0.0
  0
LINE
  5
357
330
1F
100
AcDbEntity
  8
0
  6
Continuous
 62
     7
370
    25
100
AcDbLine
 10
895.6221721831
 20
1736.535542596
 30
0.0
 11
894.3809257384
 21
1736.535542596
 31
0.0
  0
LINE
  5
358
330
1F
100
AcDbEntity
  8
0
  6
Continuous
 62
     7
370
    25
100
AcDbLine
 10
895.6221721831
 20
1696.535542596
 30
0.0
 11
895.6221721831
 21
1736.535542596
 31
0.0
  0
ARC
  5
359
330
1F
100
AcDbEntity
  8
0
  6
Continuous
 62
     7
370
    25
100
AcDbCircle
 10
898.9155004874
 20
1737.0170090761
 30
0.0
 40
4.560063390536642
100
AcDbArc
 50
97.7386042132
 51
186.0607732306
  0
LINE
  5
35A
330
1F
100
AcDbEntity
  8
0
  6
Continuous
 62
     7
370
    25
100
AcDbLine
 10
898.3014703942
 20
1741.535542596
 30
0.0
 11
899.5427168388
 21
1741.535542596
 31
0.0
  0
ARC
  5
35B
330
1F
100
AcDbEntity
  8
0
  6
Continuous
 62
     7
370
    25
100
AcDbCircle
 10
900.1567469321
 20
1737.0170090761
 30
0.0
 40
4.560063390536826
100
AcDbArc
 50
97.7386042132
 51
186.0607732306
  0
LINE
  5
35C
330
1F
100
AcDbEntity
  8
0
  6
Continuous
 62
     7
370
    25
100
AcDbLine
 10
911.1110109396
 20
1741.535542596
 30
0.0
 11
911.1110109396
 21
1691.535542596
 31
0.0
  0
LINE
  5
35D
330
1F
100
AcDbEntity
  8
0
  6
Continuous
 62
     7
370
    25
100
AcDbLine
 10
911.1110109396
 20
1691.535542596
 30
0.0
 11
899.5427168388
 21
1691.535542596
 31
0.0
  0
LINE
  5
35E
330
1F
100
AcDbEntity
  8
0
  6
Continuous
 62
     7
370
    25
100
AcDbLine
 10
899.5427168388
 20
1741.535542596
 30
0.0
 11
911.1110109396
 21
1741.535542596
 31
0.0
  0
LWPOLYLINE
  5
35F
330
1F
100
AcDbEntity
  8
0
  6
Continuous
 62
     7
370
    25
100
AcDbPolyline
 90
       19
 70
   128
 43
0.0
 10
900.8731440224
 20
1716.535542596
 10
901.0220998195
 20
1717.6129060475
 10
901.4510009436
 20
1718.5603235665
 10
902.1081155889
 20
1719.2635226179
 10
902.9141860315
 20
1719.637687018
 10
903.7719882795
 20
1719.637687018
 10
904.5780587221
 20
1719.2635226179
 10
905.2351733674
 20
1718.5603235665
 10
905.6640744914
 20
1717.6129060475
 10
905.8130302886
 20
1716.535542596
 10
905.6640744914
 20
1715.4581791445
 10
905.2351733674
 20
1714.5107616255
 10
904.5780587221
 20
1713.8075625741
 10
903.7719882795
 20
1713.433398174
 10
902.9141860315
 20
1713.433398174
 10
902.1081155889
 20
1713.8075625741
 10
901.4510009436
 20
1714.5107616255
 10
901.0220998195
 20
1715.4581791445
 10
900.8731440224
 20
1716.535542596
  0
ARC
  5
360
330
1F
100
AcDbEntity
  8
0
  6
Continuous
 62
     7
370
    25
100
AcDbCircle
 10
901.2544313835
 20
1716.535542596
 30
0.0
 40
3.383954091177487
100
AcDbArc
 50
295.7103373567
 51
64.2896626423
  0
LINE
  5
361
330
1F
100
AcDbEntity
  8
0
  6
Continuous
 62
     7
370
    25
100
AcDbLine
 10
923.0828913641
 20
1691.535542596
 30
0.0
 11
911.5434545307
 21
1691.535542596
 31
0.0
  0
LINE
  5
362
330
1F
100
AcDbEntity
  8
0
  6
Continuous
 62
     7
370
    25
100
AcDbLine
 10
911.5434545307
 20
1741.535542596
 30
0.0
 11
911.5434545307
 21
1691.535542596
 31
0.0
  0
LINE
  5
363
330
1F
100
AcDbEntity
  8
0
  6
Continuous
 62
     7
370
    25
100
AcDbLine
 10
911.5434545307
 20
1741.535542596
 30
0.0
 11
923.0828913641
 21
1741.535542596
 31
0.0
  0
LINE
  5
364
330
1F
100
AcDbEntity
  8
0
  6
Continuous
 62
     7
370
    25
100
AcDbLine
 10
911.1110109396
 20
1691.535542596
 30
0.0
 11
911.5434545307
 21
1691.535542596
 31
0.0
  0
LINE
  5
365
330
1F
100
AcDbEntity
  8
0
  6
Continuous
 62
     7
370
    25
100
AcDbLine
 10
911.5434545307
 20
1741.535542596
 30
0.0
 11
911.1110109396
 21
1741.535542596
 31
0.0
  0
LINE
  5
366
330
1F
100
AcDbEntity
  8
0
  6
Continuous
 62
     7
370
    25
100
AcDbLine
 10
903.6366367291
 20
1506.035542596
 30
0.0
 11
941.4662326939
 21
1506.035542596
 31
0.0
  0
LINE
  5
367
330
1F
100
AcDbEntity
  8
0
  6
Continuous
 62
     7
370
    25
100
AcDbLine
 10
943.8266831352
 20
1561.035542596
 30
0.0
 11
943.8366367291
 21
1561.035542596
 31
0.0
  0
LINE
  5
368
330
1F
100
AcDbEntity
  8
0
  6
Continuous
 62
     7
370
    25
100
AcDbLine
 10
903.6366367291
 20
1561.035542596
 30
0.0
 11
943.8266831352
 21
1561.035542596
 31
0.0
  0
LINE
  5
369
330
1F
100
AcDbEntity
  8
0
  6
Continuous
 62
     7
370
    25
100
AcDbLine
 10
943.8266831352
 20
1671.035542596
 30
0.0
 11
943.8366367291
 21
1671.035542596
 31
0.0
  0
LINE
  5
36A
330
1F
100
AcDbEntity
  8
0
  6
Continuous
 62
     7
370
    25
100
AcDbLine
 10
903.6366367291
 20
1671.035542596
 30
0.0
 11
943.8266831352
 21
1671.035542596
 31
0.0
  0
LINE
  5
36B
330
1F
100
AcDbEntity
  8
0
  6
Continuous
 62
     7
370
    25
100
AcDbLine
 10
943.8266831352
 20
1616.035542596
 30
0.0
 11
943.8366367291
 21
1616.035542596
 31
0.0
  0
LINE
  5
36C
330
1F
100
AcDbEntity
  8
0
  6
Continuous
 62
     7
370
    25
100
AcDbLine
 10
903.6366367291
 20
1616.035542596
 30
0.0
 11
943.8266831352
 21
1616.035542596
 31
0.0
  0
LINE
  5
36D
330
1F
100
AcDbEntity
  8
0
  6
Continuous
 62
     7
370
    25
100
AcDbLine
 10
903.7366367291
 20
1756.035542596
 30
0.0
 11
920.5828913641
 21
1756.035542596
 31
0.0
  0
CIRCLE
  5
36E
330
1F
100
AcDbEntity
  8
0
  6
Continuous
 62
     7
370
    25
100
AcDbCircle
 10
923.1081445821
 20
1386.0400816377
 30
0.0
 40
4.195461043346098
  0
LINE
  5
36F
330
1F
100
AcDbEntity
  8
0
  6
Continuous
 62
     7
370
    25
100
AcDbLine
 10
943.7267326555
 20
1356.035542596
 30
0.0
 11
943.7366367291
 21
1356.035542596
 31
0.0
  0
LINE
  5
370
330
1F
100
AcDbEntity
  8
0
  6
Continuous
 62
     7
370
    25
100
AcDbLine
 10
903.7366367291
 20
1356.035542596
 30
0.0
 11
943.7267326555
 21
1356.035542596
 31
0.0
  0
ARC
  5
371
330
1F
100
AcDbEntity
  8
0
  6
Continuous
 62
     7
370
    25
100
AcDbCircle
 10
924.0826794236
 20
1386.016874559
 30
0.0
 40
4.156454892719085
100
AcDbArc
 50
96.2959435539
 51
261.0102012836
  0
ARC
  5
372
330
1F
100
AcDbEntity
  8
0
  6
Continuous
 62
     7
370
    25
100
AcDbCircle
 10
924.1436217196
 20
1386.0364691158
 30
0.0
 40
4.108693077892254
100
AcDbArc
 50
96.8598468547
 51
266.0665405589
  0
ARC
  5
373
330
1F
100
AcDbEntity
  8
0
  6
Continuous
 62
     7
370
    25
100
AcDbCircle
 10
923.2147400347
 20
1386.0076866636
 30
0.0
 40
4.122342567243855
100
AcDbArc
 50
89.4504191636
 51
270.5622729026
  0
ARC
  5
374
330
1F
100
AcDbEntity
  8
0
  6
Continuous
 62
     7
370
    25
100
AcDbCircle
 10
923.2798159668
 20
1386.0074146648
 30
0.0
 40
4.122050114107361
100
AcDbArc
 50
89.4697629079
 51
270.5325345559
  0
ARC
  5
375
330
1F
100
AcDbEntity
  8
0
  6
Continuous
 62
     7
370
    25
100
AcDbCircle
 10
924.0662433264
 20
1386.0398244346
 30
0.0
 40
4.100149395041988
100
AcDbArc
 50
95.1394461373
 51
265.2203575615
  0
LINE
  5
376
330
1F
100
AcDbEntity
  8
0
  6
Continuous
 62
     7
370
    25
100
AcDbLine
 10
904.4366367291
 20
1346.035542596
 30
0.0
 11
904.4366367291
 21
646.035542596
 31
0.0
  0
LINE
  5
377
330
1F
100
AcDbEntity
  8
0
  6
Continuous
 62
     7
370
    25
100
AcDbLine
 10
904.4366367291
 20
646.035542596
 30
0.0
 11
954.4366367291
 21
696.035542596
 31
0.0
  0
LINE
  5
378
330
1F
100
AcDbEntity
  8
0
  6
Continuous
 62
     7
370
    25
100
AcDbLine
 10
954.4366367291
 20
1346.035542596
 30
0.0
 11
954.4366367291
 21
696.035542596
 31
0.0
  0
LINE
  5
379
330
1F
100
AcDbEntity
  8
0
  6
Continuous
 62
     7
370
    25
100
AcDbLine
 10
904.4366367291
 20
1346.035542596
 30
0.0
 11
954.4366367291
 21
1346.035542596
 31
0.0
  0
LINE
  5
37A
330
1F
100
AcDbEntity
  8
0
  6
Continuous
 62
     8
370
    25
100
AcDbLine
 10
985.6430616523
 20
1755.035542596
 30
0.0
 11
970.6528359986
 21
1755.035542596
 31
0.0
  0
LINE
  5
37B
330
1F
100
AcDbEntity
  8
0
  6
Continuous
 62
     8
370
    25
100
AcDbLine
 10
955.5638313149
 20
1757.035542596
 30
0.0
 11
974.7526841894
 21
1757.035542596
 31
0.0
  0
LINE
  5
37C
330
1F
100
AcDbEntity
  8
0
  6
Continuous
 62
     8
370
    25
100
AcDbLine
 10
981.5334391151
 20
1757.035542596
 30
0.0
 11
1011.9978584189
 21
1757.035542596
 31
0.0
  0
LINE
  5
37D
330
1F
100
AcDbEntity
  8
0
  6
Continuous
 62
     8
370
    25
100
AcDbLine
 10
928.7355636229
 20
1757.035542596
 30
0.0
 11
930.6000119306
 21
1757.035542596
 31
0.0
  0
LINE
  5
37E
330
1F
100
AcDbEntity
  8
0
  6
Continuous
 62
     8
370
    25
100
AcDbLine
 10
937.3807668563
 20
1757.035542596
 30
0.0
 11
955.5638313149
 21
1757.035542596
 31
0.0
  0
LINE
  5
37F
330
1F
100
AcDbEntity
  8
0
  6
Continuous
 62
     8
370
    25
100
AcDbLine
 10
1013.7355636229
 20
1794.035542596
 30
0.0
 11
928.7355636229
 21
1794.035542596
 31
0.0
  0
LINE
  5
380
330
1F
100
AcDbEntity
  8
0
  6
Continuous
 62
     8
370
    25
100
AcDbLine
 10
986.389210679
 20
1755.035542596
 30
0.0
 11
985.6430616523
 21
1755.035542596
 31
0.0
  0
LINE
  5
381
330
1F
100
AcDbEntity
  8
0
  6
Continuous
 62
     8
370
    25
100
AcDbLine
 10
939.1812585002
 20
1755.035542596
 30
0.0
 11
926.4903893934
 21
1755.035542596
 31
0.0
  0
LINE
  5
382
330
1F
100
AcDbEntity
  8
0
  6
Continuous
 62
     8
370
    25
100
AcDbLine
 10
1022.8882358818
 20
1755.035542596
 30
0.0
 11
1011.9746192747
 21
1755.035542596
 31
0.0
  0
LINE
  5
383
330
1F
100
AcDbEntity
  8
0
  6
Continuous
 62
     8
370
    25
100
AcDbLine
 10
926.4903893934
 20
1755.035542596
 30
0.0
 11
925.2355636229
 21
1755.035542596
 31
0.0
  0
LINE
  5
384
330
1F
100
AcDbEntity
  8
0
  6
Continuous
 62
     8
370
    25
100
AcDbLine
 10
925.2355636229
 20
1755.035542596
 30
0.0
 11
924.9901857278
 21
1755.035542596
 31
0.0
  0
LINE
  5
385
330
1F
100
AcDbEntity
  8
0
  6
Continuous
 62
     8
370
    25
100
AcDbLine
 10
924.9901857278
 20
1755.035542596
 30
0.0
 11
919.5828913641
 21
1755.035542596
 31
0.0
  0
LINE
  5
386
330
1F
100
AcDbEntity
  8
0
  6
Continuous
 62
     8
370
    25
100
AcDbLine
 10
995.5152694253
 20
1519.3673472402
 30
0.0
 11
994.5841078078
 21
1519.3673472402
 31
0.0
  0
LINE
  5
387
330
1F
100
AcDbEntity
  8
0
  6
Continuous
 62
     8
370
    25
100
AcDbLine
 10
954.2092766135
 20
1511.2673472402
 30
0.0
 11
954.2092766135
 21
1511.4173472402
 31
0.0
  0
LINE
  5
388
330
1F
100
AcDbEntity
  8
0
  6
Continuous
 62
     8
370
    25
100
AcDbLine
 10
959.9966937655
 20
1513.2673472402
 30
0.0
 11
961.2803104086
 21
1513.2673472402
 31
0.0
  0
LINE
  5
389
330
1F
100
AcDbEntity
  8
0
  6
Continuous
 62
     8
370
    25
100
AcDbLine
 10
947.8650861539
 20
1511.4173472402
 30
0.0
 11
947.8650861539
 21
1511.2673472402
 31
0.0
  0
ARC
  5
38A
330
1F
100
AcDbEntity
  8
0
  6
Continuous
 62
     8
370
    25
100
AcDbCircle
 10
952.5732924573
 20
1556.7278775289
 30
0.0
 40
19.94902044867324
100
AcDbArc
 50
341.5873681117
 51
359.4475843728
  0
LINE
  5
38B
330
1F
100
AcDbEntity
  8
0
  6
Continuous
 62
     8
370
    25
100
AcDbLine
 10
971.9399868164
 20
1556.535542596
 30
0.0
 11
972.5213857029
 21
1556.535542596
 31
0.0
  0
LINE
  5
38C
330
1F
100
AcDbEntity
  8
0
  6
Continuous
 62
     8
370
    25
100
AcDbLine
 10
991.8960183014
 20
1556.535542596
 30
0.0
 11
992.4861885779
 21
1556.535542596
 31
0.0
  0
LINE
  5
38D
330
1F
100
AcDbEntity
  8
0
  6
Continuous
 62
     8
370
    25
100
AcDbLine
 10
950.5663356308
 20
1476.0991518844
 30
0.0
 11
949.9849664725
 21
1476.0991518844
 31
0.0
  0
LINE
  5
38E
330
1F
100
AcDbEntity
  8
0
  6
Continuous
 62
     8
370
    25
100
AcDbLine
 10
970.531145398
 20
1476.0991518844
 30
0.0
 11
969.9409682293
 21
1476.0991518844
 31
0.0
  0
LWPOLYLINE
  5
38F
330
1F
100
AcDbEntity
  8
0
  6
Continuous
 62
     8
370
    25
100
AcDbPolyline
 90
        3
 70
   128
 43
0.0
 10
971.4962874485
 20
1482.2260703202
 10
972.1066826706
 20
1479.8949296202
 10
972.5213857029
 20
1476.0991518844
  0
LINE
  5
390
330
1F
100
AcDbEntity
  8
0
  6
Continuous
 62
     8
370
    25
100
AcDbLine
 10
972.5213857029
 20
1476.0991518844
 30
0.0
 11
971.9400165446
 21
1476.0991518844
 31
0.0
  0
LINE
  5
391
330
1F
100
AcDbEntity
  8
0
  6
Continuous
 62
     8
370
    25
100
AcDbLine
 10
992.4861954701
 20
1476.0991518844
 30
0.0
 11
991.8960183014
 21
1476.0991518844
 31
0.0
  0
LINE
  5
392
330
1F
100
AcDbEntity
  8
0
  6
Continuous
 62
     8
370
    25
100
AcDbLine
 10
955.9765963966
 20
1534.5768924507
 30
0.0
 11
955.9765963966
 21
1541.7673472402
 31
0.0
  0
LINE
  5
393
330
1F
100
AcDbEntity
  8
0
  6
Continuous
 62
     8
370
    25
100
AcDbLine
 10
958.8050099146
 20
1534.3685861767
 30
0.0
 11
958.8050099146
 21
1541.7333808312
 31
0.0
  0
LINE
  5
394
330
1F
100
AcDbEntity
  8
0
  6
Continuous
 62
     8
370
    25
100
AcDbLine
 10
947.7291487991
 20
1534.9599591693
 30
0.0
 11
947.7291487991
 21
1541.7673472402
 31
0.0
  0
LINE
  5
395
330
1F
100
AcDbEntity
  8
0
  6
Continuous
 62
     8
370
    25
100
AcDbLine
 10
949.9849367443
 20
1556.535542596
 30
0.0
 11
950.5663356308
 21
1556.535542596
 31
0.0
  0
LINE
  5
396
330
1F
100
AcDbEntity
  8
0
  6
Continuous
 62
     8
370
    25
100
AcDbLine
 10
969.9409682293
 20
1556.535542596
 30
0.0
 11
970.5311385058
 21
1556.535542596
 31
0.0
  0
LWPOLYLINE
  5
397
330
1F
100
AcDbEntity
  8
0
  6
Continuous
 62
     8
370
    25
100
AcDbPolyline
 90
        7
 70
   128
 43
0.0
 10
956.0702749142
 20
1533.796102515
 10
955.9558357082
 20
1533.9769500315
 10
955.8667648105
 20
1534.1485057884
 10
955.8076385923
 20
1534.3019554271
 10
955.7814948981
 20
1534.4294148626
 10
955.7896769639
 20
1534.5243353601
 10
955.8238904922
 20
1534.5761710672
  0
LINE
  5
398
330
1F
100
AcDbEntity
  8
0
  6
Continuous
 62
     8
370
    25
100
AcDbLine
 10
953.7447740412
 20
1531.4422063797
 30
0.0
 11
953.3179040289
 21
1531.4422063797
 31
0.0
  0
LINE
  5
399
330
1F
100
AcDbEntity
  8
0
  6
Continuous
 62
     8
370
    25
100
AcDbLine
 10
948.9104460792
 20
1532.9997169292
 30
0.0
 11
949.6566159924
 21
1532.9997169292
 31
0.0
  0
LINE
  5
39A
330
1F
100
AcDbEntity
  8
0
  6
Continuous
 62
     8
370
    25
100
AcDbLine
 10
948.2782659027
 20
1534.5748577897
 30
0.0
 11
947.9704129622
 21
1534.5748577897
 31
0.0
  0
LINE
  5
39B
330
1F
100
AcDbEntity
  8
0
  6
Continuous
 62
     8
370
    25
100
AcDbLine
 10
978.989450211
 20
1499.8673472402
 30
0.0
 11
978.989450211
 21
1500.7973667753
 31
0.0
  0
LINE
  5
39C
330
1F
100
AcDbEntity
  8
0
  6
Continuous
 62
     8
370
    25
100
AcDbLine
 10
978.989450211
 20
1511.2673472402
 30
0.0
 11
978.989450211
 21
1521.3673472402
 31
0.0
  0
LINE
  5
39D
330
1F
100
AcDbEntity
  8
0
  6
Continuous
 62
     8
370
    25
100
AcDbLine
 10
970.1212117429
 20
1670.535542596
 30
0.0
 11
971.0080385869
 21
1670.535542596
 31
0.0
  0
LINE
  5
39E
330
1F
100
AcDbEntity
  8
0
  6
Continuous
 62
     8
370
    25
100
AcDbLine
 10
949.5080385869
 20
1670.535542596
 30
0.0
 11
970.1212117429
 21
1670.535542596
 31
0.0
  0
LINE
  5
39F
330
1F
100
AcDbEntity
  8
0
  6
Continuous
 62
     8
370
    25
100
AcDbLine
 10
992.076261815
 20
1670.535542596
 30
0.0
 11
992.963088659
 21
1670.535542596
 31
0.0
  0
LINE
  5
3A0
330
1F
100
AcDbEntity
  8
0
  6
Continuous
 62
     8
370
    25
100
AcDbLine
 10
971.463088659
 20
1670.535542596
 30
0.0
 11
992.076261815
 21
1670.535542596
 31
0.0
  0
LINE
  5
3A1
330
1F
100
AcDbEntity
  8
0
  6
Continuous
 62
     8
370
    25
100
AcDbLine
 10
974.148274637
 20
1689.535542596
 30
0.0
 11
974.148274637
 21
1743.035542596
 31
0.0
  0
LINE
  5
3A2
330
1F
100
AcDbEntity
  8
0
  6
Continuous
 62
     8
370
    25
100
AcDbLine
 10
969.373819579
 20
1689.535542596
 30
0.0
 11
969.373819579
 21
1743.035542596
 31
0.0
  0
LINE
  5
3A3
330
1F
100
AcDbEntity
  8
0
  6
Continuous
 62
     8
370
    25
100
AcDbLine
 10
985.2362157944
 20
1689.535542596
 30
0.0
 11
985.2362157944
 21
1743.035542596
 31
0.0
  0
LINE
  5
3A4
330
1F
100
AcDbEntity
  8
0
  6
Continuous
 62
     8
370
    25
100
AcDbLine
 10
1007.0754399186
 20
1689.535542596
 30
0.0
 11
1007.0754399186
 21
1743.035542596
 31
0.0
  0
LINE
  5
3A5
330
1F
100
AcDbEntity
  8
0
  6
Continuous
 62
     8
370
    25
100
AcDbLine
 10
943.484288248
 20
1689.535542596
 30
0.0
 11
943.484288248
 21
1743.035542596
 31
0.0
  0
LINE
  5
3A6
330
1F
100
AcDbEntity
  8
0
  6
Continuous
 62
     8
370
    25
100
AcDbLine
 10
936.7588529171
 20
1689.535542596
 30
0.0
 11
936.7588529171
 21
1743.035542596
 31
0.0
  0
LINE
  5
3A7
330
1F
100
AcDbEntity
  8
0
  6
Continuous
 62
     8
370
    25
100
AcDbLine
 10
1013.567640358
 20
1689.535542596
 30
0.0
 11
1013.567640358
 21
1743.035542596
 31
0.0
  0
LINE
  5
3A8
330
1F
100
AcDbEntity
  8
0
  6
Continuous
 62
     8
370
    25
100
AcDbLine
 10
925.9667816915
 20
1689.535542596
 30
0.0
 11
925.9667816915
 21
1743.035542596
 31
0.0
  0
LINE
  5
3A9
330
1F
100
AcDbEntity
  8
0
  6
Continuous
 62
     8
370
    25
100
AcDbLine
 10
902.8964938925
 20
1713.5530228048
 30
0.0
 11
902.8964938925
 21
1719.5180623872
 31
0.0
  0
LINE
  5
3AA
330
1F
100
AcDbEntity
  8
THICK_LINE
 62
     7
100
AcDbLine
 10
379.4366367291
 20
746.035542596
 30
0.0
 11
379.4366367291
 21
731.035542596
 31
0.0
  0
LINE
  5
3AB
330
1F
100
AcDbEntity
  8
THICK_LINE
 62
     7
100
AcDbLine
 10
1479.4366367291
 20
746.0991518844
 30
0.0
 11
1479.4366367291
 21
731.0991518844
 31
0.0
  0
LINE
  5
3AC
330
1F
100
AcDbEntity
  8
THICK_LINE
 62
     7
100
AcDbLine
 10
379.4366367291
 20
1346.035542596
 30
0.0
 11
379.4366367291
 21
1075.9093724395
 31
0.0
  0
LINE
  5
3AD
330
1F
100
AcDbEntity
  8
THICK_LINE
 62
     7
100
AcDbLine
 10
379.4366367291
 20
1075.9093724395
 30
0.0
 11
405.0306689459
 21
1065.2557000932
 31
0.0
  0
LINE
  5
3AE
330
1F
100
AcDbEntity
  8
THICK_LINE
 62
     7
100
AcDbLine
 10
405.0306689459
 20
1065.2557000932
 30
0.0
 11
338.4452167814
 21
1029.2995559244
 31
0.0
  0
LINE
  5
3AF
330
1F
100
AcDbEntity
  8
THICK_LINE
 62
     7
100
AcDbLine
 10
952.414006748
 20
1466.0991518844
 30
0.0
 11
967.414006748
 21
1466.0991518844
 31
0.0
  0
LINE
  5
3B0
330
1F
100
AcDbEntity
  8
THICK_LINE
 62
     7
100
AcDbLine
 10
927.414006748
 20
731.035542596
 30
0.0
 11
379.4366367291
 21
731.035542596
 31
0.0
  0
LINE
  5
3B1
330
1F
100
AcDbEntity
  8
THICK_LINE
 62
     7
100
AcDbLine
 10
338.4452167814
 20
1029.2995559244
 30
0.0
 11
379.4366367291
 21
1012.2366268231
 31
0.0
  0
LINE
  5
3B2
330
1F
100
AcDbEntity
  8
THICK_LINE
 62
     7
100
AcDbLine
 10
952.414006748
 20
1466.0991518844
 30
0.0
 11
952.414006748
 21
786.035542596
 31
0.0
  0
LINE
  5
3B3
330
1F
100
AcDbEntity
  8
THICK_LINE
 62
     7
100
AcDbLine
 10
912.414006748
 20
746.035542596
 30
0.0
 11
379.4366367291
 21
746.035542596
 31
0.0
  0
LINE
  5
3B4
330
1F
100
AcDbEntity
  8
THICK_LINE
 62
     7
100
AcDbLine
 10
967.414006748
 20
1466.0991518844
 30
0.0
 11
967.414006748
 21
771.035542596
 31
0.0
  0
LINE
  5
3B5
330
1F
100
AcDbEntity
  8
THICK_LINE
 62
     7
100
AcDbLine
 10
379.4366367291
 20
1012.2366268231
 30
0.0
 11
379.4366367291
 21
554.6625842017
 31
0.0
  0
LINE
  5
3B6
330
1F
100
AcDbEntity
  8
THICK_LINE
 62
     7
100
AcDbLine
 10
1029.4556886296
 20
746.0991518844
 30
0.0
 11
1479.4366367291
 21
746.0991518844
 31
0.0
  0
LINE
  5
3B7
330
1F
100
AcDbEntity
  8
THICK_LINE
 62
     7
100
AcDbLine
 10
1014.4556886296
 20
731.0991518844
 30
0.0
 11
1479.4366367291
 21
731.0991518844
 31
0.0
  0
LINE
  5
3B8
330
1F
100
AcDbEntity
  8
THICK_LINE
 62
     7
100
AcDbLine
 10
974.4556886296
 20
1466.0991518844
 30
0.0
 11
989.4556886296
 21
1466.0991518844
 31
0.0
  0
LINE
  5
3B9
330
1F
100
AcDbEntity
  8
THICK_LINE
 62
     7
100
AcDbLine
 10
974.4556886296
 20
1466.0991518844
 30
0.0
 11
974.4556886296
 21
771.0991518844
 31
0.0
  0
LINE
  5
3BA
330
1F
100
AcDbEntity
  8
THICK_LINE
 62
     7
100
AcDbLine
 10
989.4556886296
 20
1466.0991518844
 30
0.0
 11
989.4556886296
 21
786.0991518844
 31
0.0
  0
LINE
  5
3BB
330
1F
100
AcDbEntity
  8
THICK_LINE
  6
Continuous
 62
     7
370
    25
100
AcDbLine
 10
379.4366367291
 20
554.6625842017
 30
0.0
 11
1479.4366367292
 21
554.6625842017
 31
0.0
  0
LINE
  5
3BC
330
1F
100
AcDbEntity
  8
THICK_LINE
  6
Continuous
 62
     7
370
    25
100
AcDbLine
 10
1479.4366367292
 20
1346.035542596
 30
0.0
 11
379.4366367291
 21
1346.035542596
 31
0.0
  0
LINE
  5
3BD
330
1F
100
AcDbEntity
  8
THICK_LINE
  6
Continuous
 62
     7
370
    25
100
AcDbLine
 10
1479.4366367292
 20
1012.2366268231
 30
0.0
 11
1479.4366367292
 21
554.6625842017
 31
0.0
  0
LINE
  5
3BE
330
1F
100
AcDbEntity
  8
THICK_LINE
  6
Continuous
 62
     7
370
    25
100
AcDbLine
 10
1520.4280566769
 20
1029.2995559244
 30
0.0
 11
1479.4366367292
 21
1012.2366268231
 31
0.0
  0
LINE
  5
3BF
330
1F
100
AcDbEntity
  8
THICK_LINE
  6
Continuous
 62
     7
370
    25
100
AcDbLine
 10
1453.8426045124
 20
1065.2557000932
 30
0.0
 11
1520.4280566769
 21
1029.2995559244
 31
0.0
  0
LINE
  5
3C0
330
1F
100
AcDbEntity
  8
THICK_LINE
  6
Continuous
 62
     7
370
    25
100
AcDbLine
 10
1479.4366367292
 20
1075.9093724395
 30
0.0
 11
1453.8426045124
 21
1065.2557000932
 31
0.0
  0
LINE
  5
3C1
330
1F
100
AcDbEntity
  8
THICK_LINE
  6
Continuous
 62
     7
370
    25
100
AcDbLine
 10
1479.4366367292
 20
1346.035542596
 30
0.0
 11
1479.4366367292
 21
1075.9093724395
 31
0.0
  0
ARC
  5
3C2
330
1F
100
AcDbEntity
  8
THICK_LINE
 62
     7
100
AcDbCircle
 10
912.414006748
 20
786.035542596
 30
0.0
 40
40.00000000000091
100
AcDbArc
 50
270.0
 51
0.0
  0
ARC
  5
3C3
330
1F
100
AcDbEntity
  8
THICK_LINE
 62
     7
100
AcDbCircle
 10
927.414006748
 20
771.035542596
 30
0.0
 40
40.0
100
AcDbArc
 50
270.0
 51
360.0
  0
ARC
  5
3C4
330
1F
100
AcDbEntity
  8
THICK_LINE
 62
     7
100
AcDbCircle
 10
1029.4556886296
 20
786.0991518844
 30
0.0
 40
40.00000000000011
100
AcDbArc
 50
180.0
 51
270.0
  0
ARC
  5
3C5
330
1F
100
AcDbEntity
  8
THICK_LINE
 62
     7
100
AcDbCircle
 10
1014.4556886296
 20
771.0991518844
 30
0.0
 40
40.0
100
AcDbArc
 50
180.0
 51
270.0
  0
HATCH
  5
3C6
330
1F
100
AcDbEntity
  8
THICK_LINE
 62
   250
420
  4276545
100
AcDbHatch
 10
0.0
 20
0.0
 30
0.0
210
0.0
220
0.0
230
1.0
  2
SOLID
 70
     1
 71
     0
 91
        1
 92
        0
 93
        8
 72
     1
 10
952.4140067480423
 20
1466.099151884371
 11
952.4140067480425
 21
786.0355425959941
 72
     2
 10
912.4140067480417
 20
786.035542595994
 40
40.00000000000076
 50
0.0000000000006616
 51
90.00000000004057
 73
     0
 72
     1
 10
912.414006748014
 20
746.0355425959931
 11
379.4366367291304
 21
746.0355425959931
 72
     1
 10
379.4366367291304
 20
746.0355425959931
 11
379.4366367291304
 21
731.0355425959929
 72
     1
 10
379.4366367291304
 20
731.0355425959929
 11
927.4140067480133
 21
731.0355425959931
 72
     2
 10
927.4140067480134
 20
771.0355425959931
 40
39.99999999999998
 50
270.0000000000007
 51
359.9999999999912
 73
     1
 72
     1
 10
967.4140067480133
 20
771.0355425959864
 11
967.4140067480134
 21
1466.099151884371
 72
     1
 10
967.4140067480134
 20
1466.099151884371
 11
952.4140067480423
 21
1466.099151884371
 97
        0
 75
     0
 76
     1
 98
        1
 10
0.0
 20
0.0
  0
HATCH
  5
3C7
330
1F
100
AcDbEntity
  8
THICK_LINE
 62
   250
420
  4276545
100
AcDbHatch
 10
0.0
 20
0.0
 30
0.0
210
0.0
220
0.0
230
1.0
  2
SOLID
 70
     1
 71
     0
 91
        1
 92
        0
 93
        8
 72
     1
 10
1029.455688629577
 20
746.0991518843708
 11
1479.436636729139
 21
746.0991518843708
 72
     1
 10
1479.436636729139
 20
746.0991518843708
 11
1479.436636729139
 21
731.0991518843708
 72
     1
 10
1479.436636729139
 20
731.0991518843708
 11
1014.455688629577
 21
731.0991518843708
 72
     2
 10
1014.455688629577
 20
771.0991518843708
 40
39.99999999999999
 50
89.99999999999969
 51
180.0000000000012
 73
     0
 72
     1
 10
974.4556886295771
 20
771.099151884371
 11
974.455688629577
 21
1466.099151884371
 72
     1
 10
974.455688629577
 20
1466.099151884371
 11
989.455688629577
 21
1466.099151884371
 72
     1
 10
989.455688629577
 20
1466.099151884371
 11
989.4556886295771
 21
786.099151884371
 72
     2
 10
1029.455688629577
 20
786.0991518843707
 40
39.99999999999999
 50
179.9999999999995
 51
270.0000000000011
 73
     1
 97
        0
 75
     0
 76
     1
 98
        1
 10
0.0
 20
0.0
  0
HATCH
  5
3C8
330
1F
100
AcDbEntity
  8
THICK_LINE
 62
     7
100
AcDbHatch
 10
0.0
 20
0.0
 30
0.0
210
0.0
220
0.0
230
1.0
  2
AR-SAND
 70
     0
 71
     0
 91
        1
 92
        0
 93
       12
 72
     1
 10
1479.436636729191
 20
1346.035542595993
 11
1479.436636729191
 21
1075.909372439546
 72
     1
 10
1479.436636729191
 20
1075.909372439546
 11
1453.842604512357
 21
1065.255700093227
 72
     1
 10
1453.842604512357
 20
1065.255700093227
 11
1520.428056676854
 21
1029.299555924398
 72
     1
 10
1520.428056676854
 20
1029.299555924398
 11
1479.43663672919
 21
1012.236626823076
 72
     1
 10
1479.43663672919
 20
1012.236626823076
 11
1479.43663672919
 21
554.6625842017485
 72
     1
 10
1479.43663672919
 20
554.6625842017485
 11
379.4366367291391
 21
554.6625842017485
 72
     1
 10
379.4366367291391
 20
554.6625842017485
 11
379.4366367291391
 21
1012.236626823076
 72
     1
 10
379.4366367291391
 20
1012.236626823076
 11
338.4452167814277
 21
1029.299555924408
 72
     1
 10
338.4452167814277
 20
1029.299555924408
 11
405.0306689459177
 21
1065.255700093232
 72
     1
 10
405.0306689459177
 20
1065.255700093232
 11
379.4366367290861
 21
1075.909372439544
 72
     1
 10
379.4366367290861
 20
1075.909372439544
 11
379.4366367290861
 21
1346.035542595993
 72
     1
 10
379.4366367290861
 20
1346.035542595993
 11
1479.436636729191
 21
1346.035542595993
 97
        0
 75
     0
 76
     1
 52
0.0
 41
4.0
 77
     0
 78
     4
 53
37.5
 43
0.0
 44
0.0
 45
-6.400125183936183
 46
195.7652949317369
 79
     6
 49
0.0
 49
-154.432
 49
0.0
 49
-172.72
 49
0.0
 49
-165.1
 53
7.5
 43
0.0
 44
0.0
 45
179.8093132552011
 46
286.7300402273417
 79
     6
 49
0.0
 49
-83.312
 49
0.0
 49
-139.192
 49
0.0
 49
-53.34
 53
-32.5
 43
-124.968
 44
0.0
 45
316.3969480965832
 46
0.5748738714183048
 79
     6
 49
0.0
 49
-50.8
 49
0.0
 49
-182.88
 49
0.0
 49
-238.76
 53
-42.50000000000001
 43
-124.968
 44
0.0
 45
305.4225809889189
 46
89.17172930288652
 79
     6
 49
0.0
 49
-25.4
 49
0.0
 49
-119.888
 49
0.0
 49
-137.16
 98
        1
 10
0.0
 20
0.0
  0
DIMENSION
  5
3C9
330
1F
100
AcDbEntity
  8
THICK_LINE
 62
     7
100
AcDbDimension
  2
_D
 10
336.5817613446
 20
746.035542596
 30
0.0
 11
336.5817613446
 21
1007.125457462
 31
0.0
 70
   160
  1
<>
 71
     2
 42
-1.0
 73
     0
 74
     0
 75
     0
  3
SLDDIMSTYLE0
100
AcDbAlignedDimension
 13
379.4366367291
 23
1346.035542596
 33
0.0
 14
379.4366367291
 24
746.035542596
 34
0.0
 50
90.0
100
AcDbRotatedDimension
  0
DIMENSION
  5
3D5
330
1F
100
AcDbEntity
  8
THICK_LINE
 62
     7
100
AcDbDimension
  2
_D_1
 10
249.5889044813
 20
1346.035542596
 30
0.0
 11
249.5889044813
 21
1007.125457462
 31
0.0
 70
   160
  1
<>
 71
     2
 42
-1.0
 73
     0
 74
     0
 75
     0
  3
SLDDIMSTYLE0
100
AcDbAlignedDimension
 13
904.4366367291
 23
646.035542596
 33
0.0
 14
379.4366367291
 24
1346.035542596
 34
0.0
 50
90.0
100
AcDbRotatedDimension
  0
DIMENSION
  5
3DF
330
1F
100
AcDbEntity
  8
THICK_LINE
 62
     7
100
AcDbDimension
  2
_D_2
 10
250.0004591707
 20
1346.035542596
 30
0.0
 11
250.0004591707
 21
1585.1833969453
 31
0.0
 70
   160
  1
<>
 71
     2
 42
-1.0
 73
     0
 74
     0
 75
     0
  3
SLDDIMSTYLE0
100
AcDbAlignedDimension
 13
930.7355636229
 23
1796.035542596
 33
0.0
 14
379.4366367291
 24
1346.035542596
 34
0.0
 50
90.0
100
AcDbRotatedDimension
  0
INSERT
  5
3EE
330
1F
100
AcDbEntity
  8
THICK_LINE
 62
     7
100
AcDbBlockReference
  2
SW_NOTE_5
 10
1229.1210191083
 20
2022.1279538725
 30
0.0
  0
LEADER
  5
3F5
330
1F
100
AcDbEntity
  8
THICK_LINE
 62
     7
100
AcDbLeader
  3
SLDDIMSTYLE1
 76
     2
 10
986.6511660596
 20
1780.4415802967
 30
0.0
 10
1229.1210191083
 20
2022.1279538725
 30
0.0
  0
INSERT
  5
3FC
330
1F
100
AcDbEntity
  8
THICK_LINE
 62
     7
100
AcDbBlockReference
  2
SW_NOTE_6
 10
627.1937961594
 20
1977.1646126282
 30
0.0
  0
LEADER
  5
3FE
330
1F
100
AcDbEntity
  8
THICK_LINE
 62
     7
100
AcDbLeader
  3
SLDDIMSTYLE2
 76
     2
 10
911.1110109396
 20
1719.9705191383
 30
0.0
 10
627.1937961594
 20
1977.1646126282
 30
0.0
  0
INSERT
  5
405
330
1F
100
AcDbEntity
  8
THICK_LINE
 62
     7
100
AcDbBlockReference
  2
SW_NOTE_7
 10
1133.1549893843
 20
1688.3699920891
 30
0.0
  0
LEADER
  5
406
330
1F
100
AcDbEntity
  8
THICK_LINE
 62
     7
100
AcDbLeader
  3
SLDDIMSTYLE2
 76
     2
 10
991.7976421646
 20
1499.8673472402
 30
0.0
 10
1133.1549893843
 20
1688.3699920891
 30
0.0
  0
LEADER
  5
407
330
1F
100
AcDbEntity
  8
THICK_LINE
 62
     7
100
AcDbLeader
  3
SLDDIMSTYLE2
 76
     2
 10
961.3866797585
 20
1532.7673472402
 30
0.0
 10
1133.1549893843
 20
1688.3699920891
 30
0.0
  0
INSERT
  5
40D
330
1F
100
AcDbEntity
  8
THICK_LINE
 62
     7
100
AcDbBlockReference
  2
SW_NOTE_8
 10
1481.3503184713
 20
1431.8944082249
 30
0.0
  0
LEADER
  5
40E
330
1F
100
AcDbEntity
  8
THICK_LINE
 62
     7
100
AcDbLeader
  3
SLDDIMSTYLE2
 76
     2
 10
1154.6727003422
 20
1275.9749331019
 30
0.0
 10
1481.3503184713
 20
1431.8944082249
 30
0.0
  0
INSERT
  5
414
330
1F
100
AcDbEntity
  8
THICK_LINE
 62
     7
100
AcDbBlockReference
  2
SW_NOTE_9
 10
522.1888497812
 20
1844.6332617281
 30
0.0
  0
LEADER
  5
415
330
1F
100
AcDbEntity
  8
THICK_LINE
 62
     7
100
AcDbLeader
  3
SLDDIMSTYLE1
 76
     2
 10
919.8339787119
 20
1579.7990419384
 30
0.0
 10
522.1888497812
 20
1844.6332617281
 30
0.0
  0
INSERT
  5
41C
330
1F
100
AcDbEntity
  8
THICK_LINE
 62
     7
100
AcDbBlockReference
  2
SW_NOTE_10
 10
754.0396129179
 20
1547.4406211208
 30
0.0
  0
LEADER
  5
41D
330
1F
100
AcDbEntity
  8
THICK_LINE
 62
     7
100
AcDbLeader
  3
SLDDIMSTYLE1
 76
     2
 10
927.806636271
 20
1106.9089090888
 30
0.0
 10
754.0396129179
 20
1547.4406211208
 30
0.0
  0
INSERT
  5
424
330
1F
100
AcDbEntity
  8
THICK_LINE
 62
     7
100
AcDbBlockReference
  2
SW_NOTE_11
 10
1328.4840764331
 20
1547.3933466538
 30
0.0
  0
LEADER
  5
425
330
1F
100
AcDbEntity
  8
THICK_LINE
 62
     7
100
AcDbLeader
  3
SLDDIMSTYLE2
 76
     2
 10
964.0757017456
 20
1396.0218157556
 30
0.0
 10
1328.4840764331
 20
1547.3933466538
 30
0.0
  0
LEADER
  5
426
330
1F
100
AcDbEntity
  8
THICK_LINE
 62
     7
100
AcDbLeader
  3
SLDDIMSTYLE2
 76
     2
 10
984.2942388306
 20
1362.5762767124
 30
0.0
 10
1328.4840764331
 20
1547.3933466538
 30
0.0
  0
ENDSEC
  0
SECTION
  2
OBJECTS
  0
DICTIONARY
  5
C
330
0
100
AcDbDictionary
281
     1
  3
ACAD_DETAILVIEWSTYLE
350
42F
  3
ACAD_GROUP
350
D
  3
ACAD_LAYOUT
350
1A
  3
ACAD_MATERIAL
350
43
  3
ACAD_MLEADERSTYLE
350
6B
  3
ACAD_MLINESTYLE
350
17
  3
ACAD_PLOTSETTINGS
350
19
  3
ACAD_PLOTSTYLENAME
350
E
  3
ACAD_SCALELIST
350
47
  3
ACAD_SECTIONVIEWSTYLE
350
430
  3
ACAD_TABLESTYLE
350
69
  3
ACAD_VISUALSTYLE
350
2A
  3
ACDB_RECOMPOSE_DATA
350
42C
  3
AcDbVariableDictionary
350
427
  0
SUN
  5
6D
330
29
100
AcDbSun
 90
        1
290
     0
 63
     7
421
 16777215
 40
1.0
291
     1
 91
  2455826
 92
 54000000
292
     0
 70
     2
 71
   256
280
     1
  0
DICTIONARY
  5
42F
102
{ACAD_REACTORS
330
C
102
}
330
C
100
AcDbDictionary
281
     1
  0
DICTIONARY
  5
D
102
{ACAD_REACTORS
330
C
102
}
330
C
100
AcDbDictionary
281
     1
  0
DICTIONARY
  5
1A
102
{ACAD_REACTORS
330
C
102
}
330
C
100
AcDbDictionary
281
     1
  3
Layout1
350
1E
  3
Layout2
350
26
  3
Model
350
22
  0
DICTIONARY
  5
43
102
{ACAD_REACTORS
330
C
102
}
330
C
100
AcDbDictionary
281
     1
  3
ByBlock
350
45
  3
ByLayer
350
44
  3
Global
350
46
  0
DICTIONARY
  5
6B
102
{ACAD_REACTORS
330
C
102
}
330
C
100
AcDbDictionary
281
     1
  3
Standard
350
6C
  0
DICTIONARY
  5
17
102
{ACAD_REACTORS
330
C
102
}
330
C
100
AcDbDictionary
281
     1
  3
Standard
350
18
  0
DICTIONARY
  5
19
102
{ACAD_REACTORS
330
C
102
}
330
C
100
AcDbDictionary
281
     1
  0
ACDBDICTIONARYWDFLT
  5
E
102
{ACAD_REACTORS
330
C
102
}
330
C
100
AcDbDictionary
281
     1
  3
Normal
350
F
100
AcDbDictionaryWithDefault
340
F
  0
DICTIONARY
  5
47
102
{ACAD_REACTORS
330
C
102
}
330
C
100
AcDbDictionary
281
     1
  3
A0
350
48
  3
A1
350
49
  3
A2
350
4A
  3
A3
350
4B
  3
A4
350
4C
  3
A5
350
4D
  3
A6
350
4E
  3
A7
350
4F
  3
A8
350
50
  3
A9
350
51
  3
B0
350
52
  3
B1
350
53
  3
B2
350
54
  3
B3
350
55
  3
B4
350
56
  3
B5
350
57
  3
B6
350
58
  3
B7
350
59
  3
B8
350
5A
  3
B9
350
5B
  3
C0
350
5C
  3
C1
350
5D
  3
C2
350
5E
  3
C3
350
5F
  3
C4
350
60
  3
C5
350
61
  3
C6
350
62
  3
C7
350
63
  3
C8
350
64
  3
C9
350
65
  3
D0
350
66
  3
D1
350
67
  3
D2
350
68
  0
DICTIONARY
  5
430
102
{ACAD_REACTORS
330
C
102
}
330
C
100
AcDbDictionary
281
     1
  0
DICTIONARY
  5
69
102
{ACAD_REACTORS
330
C
102
}
330
C
100
AcDbDictionary
281
     1
  3
Standard
350
6A
  0
DICTIONARY
  5
2A
102
{ACAD_REACTORS
330
C
102
}
330
C
100
AcDbDictionary
281
     1
  3
2dWireframe
350
2F
  3
Basic
350
32
  3
Brighten
350
36
  3
ColorChange
350
3A
  3
Conceptual
350
34
  3
Dim
350
35
  3
EdgeColorOff
350
3D
  3
Facepattern
350
39
  3
Flat
350
2B
  3
FlatWithEdges
350
2C
  3
Gouraud
350
2D
  3
GouraudWithEdges
350
2E
  3
Hidden
350
31
  3
JitterOff
350
3B
  3
Linepattern
350
38
  3
OverhangOff
350
3C
  3
Realistic
350
33
  3
Shaded
350
42
  3
Shaded with edges
350
41
  3
Shades of Gray
350
3E
  3
Sketchy
350
3F
  3
Thicken
350
37
  3
Wireframe
350
30
  3
X-Ray
350
40
  0
XRECORD
  5
42C
102
{ACAD_REACTORS
330
C
102
}
330
C
100
AcDbXrecord
280
     1
 90
        1
330
6A
  0
DICTIONARY
  5
427
102
{ACAD_REACTORS
330
C
102
}
330
C
100
AcDbDictionary
281
     1
  3
CANNOSCALE
350
428
  3
CMLEADERSTYLE
350
42E
  3
CTABLESTYLE
350
42D
  0
LAYOUT
  5
1E
102
{ACAD_REACTORS
330
1A
102
}
330
1A
100
AcDbPlotSettings
  1

  2
none_device
  4

  6

 40
0.0
 41
0.0
 42
0.0
 43
0.0
 44
0.0
 45
0.0
 46
0.0
 47
0.0
 48
0.0
 49
0.0
140
0.0
141
0.0
142
1.0
143
1.0
 70
   688
 72
     1
 73
     0
 74
     5
  7

 75
    16
 76
     0
 77
     2
 78
   300
147
1.0
148
0.0
149
0.0
100
AcDbLayout
  1
Layout1
 70
     1
 71
     1
 10
0.0
 20
0.0
 11
420.0
 21
297.0
 12
0.0
 22
0.0
 32
0.0
 14
1.0000000000E+20
 24
1.0000000000E+20
 34
1.0000000000E+20
 15
-1.0000000000E+20
 25
-1.0000000000E+20
 35
-1.0000000000E+20
146
0.0
 13
0.0
 23
0.0
 33
0.0
 16
1.0
 26
0.0
 36
0.0
 17
0.0
 27
1.0
 37
0.0
 76
     0
330
1B
  0
LAYOUT
  5
26
102
{ACAD_REACTORS
330
1A
102
}
330
1A
100
AcDbPlotSettings
  1

  2
none_device
  4

  6

 40
0.0
 41
0.0
 42
0.0
 43
0.0
 44
0.0
 45
0.0
 46
0.0
 47
0.0
 48
0.0
 49
0.0
140
0.0
141
0.0
142
1.0
143
1.0
 70
   688
 72
     1
 73
     0
 74
     5
  7

 75
    16
 76
     0
 77
     2
 78
   300
147
1.0
148
0.0
149
0.0
100
AcDbLayout
  1
Layout2
 70
     1
 71
     2
 10
0.0
 20
0.0
 11
0.0
 21
0.0
 12
0.0
 22
0.0
 32
0.0
 14
0.0
 24
0.0
 34
0.0
 15
0.0
 25
0.0
 35
0.0
146
0.0
 13
0.0
 23
0.0
 33
0.0
 16
1.0
 26
0.0
 36
0.0
 17
0.0
 27
1.0
 37
0.0
 76
     0
330
23
  0
LAYOUT
  5
22
102
{ACAD_REACTORS
330
1A
102
}
330
1A
100
AcDbPlotSettings
  1

  2
none_device
  4
Letter_(8.50_x_11.00_Inches)
  6

 40
6.35
 41
6.35
 42
6.35000508
 43
6.35000508
 44
215.9
 45
279.4
 46
0.0
 47
0.0
 48
0.0
 49
0.0
140
0.0
141
0.0
142
1.0
143
1.0
 70
  1712
 72
     1
 73
     0
 74
     0
  7

 75
     0
 76
     0
 77
     2
 78
   300
147
1.0
148
0.0
149
0.0
100
AcDbLayout
  1
Model
 70
     1
 71
     0
 10
0.0
 20
0.0
 11
1680.0
 21
2376.0
 12
0.0
 22
0.0
 32
0.0
 14
0.0
 24
0.0
 34
0.0
 15
1680.0
 25
2376.0
 35
0.0
146
0.0
 13
0.0
 23
0.0
 33
0.0
 16
1.0
 26
0.0
 36
0.0
 17
0.0
 27
1.0
 37
0.0
 76
     0
330
1F
331
29
  0
MATERIAL
  5
45
102
{ACAD_REACTORS
330
43
102
}
330
43
100
AcDbMaterial
  1
ByBlock
 72
     1
 94
      127
  0
MATERIAL
  5
44
102
{ACAD_REACTORS
330
43
102
}
330
43
100
AcDbMaterial
  1
ByLayer
 72
     1
 94
      127
  0
MATERIAL
  5
46
102
{ACAD_REACTORS
330
43
102
}
330
43
100
AcDbMaterial
  1
Global
 72
     1
 94
      127
  0
MLEADERSTYLE
  5
6C
102
{ACAD_REACTORS
330
6B
102
}
330
6B
100
AcDbMLeaderStyle
170
     2
171
     1
172
     0
 90
        2
 40
0.0
 41
0.0
173
     1
 91
-1056964608
340
14
 92
       -2
290
     1
 42
2.0
291
     1
 43
8.0
  3
Standard
341
0
 44
4.0
300

342
11
174
     1
178
     6
175
     1
176
     0
 93
-1056964608
 45
4.0
292
     0
297
     0
 46
4.0
343
0
 94
-1056964608
 47
1.0
 49
1.0
140
1.0
293
     1
141
0.0
294
     1
177
     0
142
1.0
295
     0
296
     0
143
3.75
1001
ACAD_MLEADERVER
1070
     2
  0
MLINESTYLE
  5
18
102
{ACAD_REACTORS
330
17
102
}
330
17
100
AcDbMlineStyle
  2
Standard
 70
     0
  3

 62
   256
 51
90.0
 52
90.0
 71
     2
 49
0.5
 62
   256
  6
BYLAYER
 49
-0.5
 62
   256
  6
BYLAYER
  0
ACDBPLACEHOLDER
  5
F
102
{ACAD_REACTORS
330
E
102
}
330
E
  0
SCALE
  5
48
102
{ACAD_REACTORS
330
47
102
}
330
47
100
AcDbScale
 70
     0
300
1:1
140
1.0
141
1.0
290
     1
  0
SCALE
  5
49
102
{ACAD_REACTORS
330
47
102
}
330
47
100
AcDbScale
 70
     0
300
1:2
140
1.0
141
2.0
290
     0
  0
SCALE
  5
4A
102
{ACAD_REACTORS
330
47
102
}
330
47
100
AcDbScale
 70
     0
300
1:4
140
1.0
141
4.0
290
     0
  0
SCALE
  5
4B
102
{ACAD_REACTORS
330
47
102
}
330
47
100
AcDbScale
 70
     0
300
1:5
140
1.0
141
5.0
290
     0
  0
SCALE
  5
4C
102
{ACAD_REACTORS
330
47
102
}
330
47
100
AcDbScale
 70
     0
300
1:8
140
1.0
141
8.0
290
     0
  0
SCALE
  5
4D
102
{ACAD_REACTORS
330
47
102
}
330
47
100
AcDbScale
 70
     0
300
1:10
140
1.0
141
10.0
290
     0
  0
SCALE
  5
4E
102
{ACAD_REACTORS
330
47
102
}
330
47
100
AcDbScale
 70
     0
300
1:16
140
1.0
141
16.0
290
     0
  0
SCALE
  5
4F
102
{ACAD_REACTORS
330
47
102
}
330
47
100
AcDbScale
 70
     0
300
1:20
140
1.0
141
20.0
290
     0
  0
SCALE
  5
50
102
{ACAD_REACTORS
330
47
102
}
330
47
100
AcDbScale
 70
     0
300
1:30
140
1.0
141
30.0
290
     0
  0
SCALE
  5
51
102
{ACAD_REACTORS
330
47
102
}
330
47
100
AcDbScale
 70
     0
300
1:40
140
1.0
141
40.0
290
     0
  0
SCALE
  5
52
102
{ACAD_REACTORS
330
47
102
}
330
47
100
AcDbScale
 70
     0
300
1:50
140
1.0
141
50.0
290
     0
  0
SCALE
  5
53
102
{ACAD_REACTORS
330
47
102
}
330
47
100
AcDbScale
 70
     0
300
1:100
140
1.0
141
100.0
290
     0
  0
SCALE
  5
54
102
{ACAD_REACTORS
330
47
102
}
330
47
100
AcDbScale
 70
     0
300
2:1
140
2.0
141
1.0
290
     0
  0
SCALE
  5
55
102
{ACAD_REACTORS
330
47
102
}
330
47
100
AcDbScale
 70
     0
300
4:1
140
4.0
141
1.0
290
     0
  0
SCALE
  5
56
102
{ACAD_REACTORS
330
47
102
}
330
47
100
AcDbScale
 70
     0
300
8:1
140
8.0
141
1.0
290
     0
  0
SCALE
  5
57
102
{ACAD_REACTORS
330
47
102
}
330
47
100
AcDbScale
 70
     0
300
10:1
140
10.0
141
1.0
290
     0
  0
SCALE
  5
58
102
{ACAD_REACTORS
330
47
102
}
330
47
100
AcDbScale
 70
     0
300
100:1
140
100.0
141
1.0
290
     0
  0
SCALE
  5
59
102
{ACAD_REACTORS
330
47
102
}
330
47
100
AcDbScale
 70
     0
300
1/128" = 1'-0"
140
0.0078125
141
12.0
290
     0
  0
SCALE
  5
5A
102
{ACAD_REACTORS
330
47
102
}
330
47
100
AcDbScale
 70
     0
300
1/64" = 1'-0"
140
0.015625
141
12.0
290
     0
  0
SCALE
  5
5B
102
{ACAD_REACTORS
330
47
102
}
330
47
100
AcDbScale
 70
     0
300
1/32" = 1'-0"
140
0.03125
141
12.0
290
     0
  0
SCALE
  5
5C
102
{ACAD_REACTORS
330
47
102
}
330
47
100
AcDbScale
 70
     0
300
1/16" = 1'-0"
140
0.0625
141
12.0
290
     0
  0
SCALE
  5
5D
102
{ACAD_REACTORS
330
47
102
}
330
47
100
AcDbScale
 70
     0
300
3/32" = 1'-0"
140
0.09375
141
12.0
290
     0
  0
SCALE
  5
5E
102
{ACAD_REACTORS
330
47
102
}
330
47
100
AcDbScale
 70
     0
300
1/8" = 1'-0"
140
0.125
141
12.0
290
     0
  0
SCALE
  5
5F
102
{ACAD_REACTORS
330
47
102
}
330
47
100
AcDbScale
 70
     0
300
3/16" = 1'-0"
140
0.1875
141
12.0
290
     0
  0
SCALE
  5
60
102
{ACAD_REACTORS
330
47
102
}
330
47
100
AcDbScale
 70
     0
300
1/4" = 1'-0"
140
0.25
141
12.0
290
     0
  0
SCALE
  5
61
102
{ACAD_REACTORS
330
47
102
}
330
47
100
AcDbScale
 70
     0
300
3/8" = 1'-0"
140
0.375
141
12.0
290
     0
  0
SCALE
  5
62
102
{ACAD_REACTORS
330
47
102
}
330
47
100
AcDbScale
 70
     0
300
1/2" = 1'-0"
140
0.5
141
12.0
290
     0
  0
SCALE
  5
63
102
{ACAD_REACTORS
330
47
102
}
330
47
100
AcDbScale
 70
     0
300
3/4" = 1'-0"
140
0.75
141
12.0
290
     0
  0
SCALE
  5
64
102
{ACAD_REACTORS
330
47
102
}
330
47
100
AcDbScale
 70
     0
300
1" = 1'-0"
140
1.0
141
12.0
290
     0
  0
SCALE
  5
65
102
{ACAD_REACTORS
330
47
102
}
330
47
100
AcDbScale
 70
     0
300
1-1/2" = 1'-0"
140
1.5
141
12.0
290
     0
  0
SCALE
  5
66
102
{ACAD_REACTORS
330
47
102
}
330
47
100
AcDbScale
 70
     0
300
3" = 1'-0"
140
3.0
141
12.0
290
     0
  0
SCALE
  5
67
102
{ACAD_REACTORS
330
47
102
}
330
47
100
AcDbScale
 70
     0
300
6" = 1'-0"
140
6.0
141
12.0
290
     0
  0
SCALE
  5
68
102
{ACAD_REACTORS
330
47
102
}
330
47
100
AcDbScale
 70
     0
300
1'-0" = 1'-0"
140
12.0
141
12.0
290
     0
  0
TABLESTYLE
  5
6A
102
{ACAD_REACTORS
330
69
102
}
102
{ACAD_XDICTIONARY
360
429
102
}
330
69
100
AcDbTableStyle
  3
Standard
 70
     0
 71
     0
 40
0.06
 41
0.06
280
     0
281
     0
  7
STANDARD
140
4.5
170
     2
 62
     0
 63
   257
283
     0
 90
        4
 91
        0
  1

274
    -2
284
     1
 64
     0
275
    -2
285
     1
 65
     0
276
    -2
286
     1
 66
     0
277
    -2
287
     1
 67
     0
278
    -2
288
     1
 68
     0
279
    -2
289
     1
 69
     0
  7
STANDARD
140
6.0
170
     5
 62
     0
 63
   257
283
     0
 90
        4
 91
        0
  1

274
    -2
284
     1
 64
     0
275
    -2
285
     1
 65
     0
276
    -2
286
     1
 66
     0
277
    -2
287
     1
 67
     0
278
    -2
288
     1
 68
     0
279
    -2
289
     1
 69
     0
  7
STANDARD
140
4.5
170
     5
 62
     0
 63
   257
283
     0
 90
        4
 91
        0
  1

274
    -2
284
     1
 64
     0
275
    -2
285
     1
 65
     0
276
    -2
286
     1
 66
     0
277
    -2
287
     1
 67
     0
278
    -2
288
     1
 68
     0
279
    -2
289
     1
 69
     0
  0
VISUALSTYLE
  5
2F
102
{ACAD_REACTORS
330
2A
102
}
330
2A
100
AcDbVisualStyle
  2
2dWireframe
 70
     4
 71
     0
 72
     2
 73
     0
 90
        0
 40
0.6
 41
30.0
 62
     5
 63
     7
421
 16777215
 74
     1
 91
        4
 64
     7
 65
   257
 75
     1
175
     1
 42
1.0
 92
        0
 66
   257
 43
1.0
 76
     1
 77
     6
 78
     2
 67
     7
 79
     5
170
     0
171
     0
290
     0
174
     0
 93
        1
 44
0.0
173
     0
291
     0
 45
0.0
  0
VISUALSTYLE
  5
32
102
{ACAD_REACTORS
330
2A
102
}
330
2A
100
AcDbVisualStyle
  2
Basic
 70
     7
 71
     1
 72
     0
 73
     1
 90
        0
 40
0.6
 41
30.0
 62
     5
 63
     7
421
 16777215
 74
     0
 91
        4
 64
     7
 65
   257
 75
     1
175
     1
 42
1.0
 92
        8
 66
     7
 43
1.0
 76
     1
 77
     6
 78
     2
 67
     7
 79
     5
170
     0
171
     0
290
     0
174
     0
 93
        1
 44
0.0
173
     0
291
     1
 45
0.0
  0
VISUALSTYLE
  5
36
102
{ACAD_REACTORS
330
2A
102
}
330
2A
100
AcDbVisualStyle
  2
Brighten
 70
    12
 71
     2
 72
     2
 73
     0
 90
        0
 40
0.6
 41
30.0
 62
     5
 63
     7
421
 16777215
 74
     1
 91
        4
 64
     7
 65
   257
 75
     1
175
     1
 42
1.0
 92
        8
 66
     7
 43
1.0
 76
     1
 77
     6
 78
     2
 67
     7
 79
     5
170
     0
171
     0
290
     0
174
     0
 93
        1
 44
50.0
173
     0
291
     1
 45
0.0
  0
VISUALSTYLE
  5
3A
102
{ACAD_REACTORS
330
2A
102
}
330
2A
100
AcDbVisualStyle
  2
ColorChange
 70
    16
 71
     2
 72
     2
 73
     3
 90
        0
 40
0.6
 41
30.0
 62
     5
 63
     8
421
  8421504
 74
     1
 91
        4
 64
     7
 65
   257
 75
     1
175
     1
 42
1.0
 92
        8
 66
     8
424
  8421504
 43
1.0
 76
     1
 77
     6
 78
     2
 67
     7
 79
     5
170
     0
171
     0
290
     0
174
     0
 93
        1
 44
0.0
173
     0
291
     1
 45
0.0
  0
VISUALSTYLE
  5
34
102
{ACAD_REACTORS
330
2A
102
}
330
2A
100
AcDbVisualStyle
  2
Conceptual
 70
     9
 71
     3
 72
     2
 73
     0
 90
        0
 40
0.6
 41
30.0
 62
     5
 63
     7
421
 16777215
 74
     2
 91
        2
 64
     7
 65
   257
 75
     1
175
     1
 42
179.0
 92
        8
 66
     7
 43
1.0
 76
     1
 77
     6
 78
     2
 67
     7
 79
     3
170
     0
171
     0
290
     0
174
     0
 93
        1
 44
0.0
173
     0
291
     0
 45
0.0
  0
VISUALSTYLE
  5
35
102
{ACAD_REACTORS
330
2A
102
}
330
2A
100
AcDbVisualStyle
  2
Dim
 70
    11
 71
     2
 72
     2
 73
     0
 90
        0
 40
0.6
 41
30.0
 62
     5
 63
     7
421
 16777215
 74
     1
 91
        4
 64
     7
 65
   257
 75
     1
175
     1
 42
1.0
 92
        8
 66
     7
 43
1.0
 76
     1
 77
     6
 78
     2
 67
     7
 79
     5
170
     0
171
     0
290
     0
174
     0
 93
        1
 44
-50.0
173
     0
291
     1
 45
0.0
  0
VISUALSTYLE
  5
3D
102
{ACAD_REACTORS
330
2A
102
}
330
2A
100
AcDbVisualStyle
  2
EdgeColorOff
 70
    22
 71
     2
 72
     2
 73
     0
 90
        0
 40
0.6
 41
30.0
 62
     5
 63
     7
421
 16777215
 74
     1
 91
        4
 64
     7
 65
   257
 75
     1
175
     1
 42
1.0
 92
        8
 66
     7
 43
1.0
 76
     1
 77
     6
 78
     2
 67
     7
 79
     5
170
     0
171
     0
290
     0
174
     0
 93
        1
 44
0.0
173
     0
291
     1
 45
0.0
  0
VISUALSTYLE
  5
39
102
{ACAD_REACTORS
330
2A
102
}
330
2A
100
AcDbVisualStyle
  2
Facepattern
 70
    15
 71
     2
 72
     2
 73
     0
 90
        0
 40
0.6
 41
30.0
 62
     5
 63
     7
421
 16777215
 74
     1
 91
        4
 64
     7
 65
   257
 75
     1
175
     1
 42
1.0
 92
        8
 66
     7
 43
1.0
 76
     1
 77
     6
 78
     2
 67
     7
 79
     5
170
     0
171
     0
290
     0
174
     0
 93
        1
 44
0.0
173
     0
291
     1
 45
0.0
  0
VISUALSTYLE
  5
2B
102
{ACAD_REACTORS
330
2A
102
}
330
2A
100
AcDbVisualStyle
  2
Flat
 70
     0
 71
     2
 72
     1
 73
     1
 90
        2
 40
0.6
 41
30.0
 62
     5
 63
     7
421
 16777215
 74
     0
 91
        0
 64
     7
 65
   257
 75
     1
175
     1
 42
1.0
 92
        8
 66
     7
 43
1.0
 76
     1
 77
     6
 78
     2
 67
     7
 79
     5
170
     0
171
     0
290
     0
174
     0
 93
       13
 44
0.0
173
     0
291
     1
 45
0.0
  0
VISUALSTYLE
  5
2C
102
{ACAD_REACTORS
330
2A
102
}
330
2A
100
AcDbVisualStyle
  2
FlatWithEdges
 70
     1
 71
     2
 72
     1
 73
     1
 90
        2
 40
0.6
 41
30.0
 62
     5
 63
     7
421
 16777215
 74
     1
 91
        0
 64
     7
 65
   257
 75
     1
175
     1
 42
1.0
 92
        0
 66
   257
 43
1.0
 76
     1
 77
     6
 78
     2
 67
     7
 79
     5
170
     0
171
     0
290
     0
174
     0
 93
       13
 44
0.0
173
     0
291
     1
 45
0.0
  0
VISUALSTYLE
  5
2D
102
{ACAD_REACTORS
330
2A
102
}
330
2A
100
AcDbVisualStyle
  2
Gouraud
 70
     2
 71
     2
 72
     2
 73
     1
 90
        2
 40
0.6
 41
30.0
 62
     5
 63
     7
421
 16777215
 74
     0
 91
        0
 64
     7
 65
   257
 75
     1
175
     1
 42
1.0
 92
        0
 66
     7
 43
1.0
 76
     1
 77
     6
 78
     2
 67
     7
 79
     5
170
     0
171
     0
290
     0
174
     0
 93
       13
 44
0.0
173
     0
291
     1
 45
0.0
  0
VISUALSTYLE
  5
2E
102
{ACAD_REACTORS
330
2A
102
}
330
2A
100
AcDbVisualStyle
  2
GouraudWithEdges
 70
     3
 71
     2
 72
     2
 73
     1
 90
        2
 40
0.6
 41
30.0
 62
     5
 63
     7
421
 16777215
 74
     1
 91
        0
 64
     7
 65
   257
 75
     1
175
     1
 42
1.0
 92
        0
 66
   257
 43
1.0
 76
     1
 77
     6
 78
     2
 67
     7
 79
     5
170
     0
171
     0
290
     0
174
     0
 93
       13
 44
0.0
173
     0
291
     1
 45
0.0
  0
VISUALSTYLE
  5
31
102
{ACAD_REACTORS
330
2A
102
}
330
2A
100
AcDbVisualStyle
  2
Hidden
 70
     6
 71
     1
 72
     2
 73
     2
 90
        0
 40
0.6
 41
30.0
 62
     5
 63
     7
421
 16777215
 74
     2
 91
        2
 64
     7
 65
   257
 75
     2
175
     1
 42
40.0
 92
        0
 66
   257
 43
1.0
 76
     1
 77
     6
 78
     2
 67
     7
 79
     3
170
     0
171
     0
290
     0
174
     0
 93
        1
 44
0.0
173
     0
291
     0
 45
0.0
  0
VISUALSTYLE
  5
3B
102
{ACAD_REACTORS
330
2A
102
}
330
2A
100
AcDbVisualStyle
  2
JitterOff
 70
    20
 71
     2
 72
     2
 73
     0
 90
        0
 40
0.6
 41
30.0
 62
     5
 63
     7
421
 16777215
 74
     1
 91
        4
 64
     7
 65
   257
 75
     1
175
     1
 42
1.0
 92
       10
 66
     7
 43
1.0
 76
     1
 77
     6
 78
     2
 67
     7
 79
     5
170
     0
171
     0
290
     0
174
     0
 93
        1
 44
0.0
173
     0
291
     1
 45
0.0
  0
VISUALSTYLE
  5
38
102
{ACAD_REACTORS
330
2A
102
}
330
2A
100
AcDbVisualStyle
  2
Linepattern
 70
    14
 71
     2
 72
     2
 73
     0
 90
        0
 40
0.6
 41
30.0
 62
     5
 63
     7
421
 16777215
 74
     1
 91
        4
 64
     7
 65
   257
 75
     7
175
     7
 42
1.0
 92
        8
 66
     7
 43
1.0
 76
     1
 77
     6
 78
     2
 67
     7
 79
     5
170
     0
171
     0
290
     0
174
     0
 93
        1
 44
0.0
173
     0
291
     1
 45
0.0
  0
VISUALSTYLE
  5
3C
102
{ACAD_REACTORS
330
2A
102
}
330
2A
100
AcDbVisualStyle
  2
OverhangOff
 70
    21
 71
     2
 72
     2
 73
     0
 90
        0
 40
0.6
 41
30.0
 62
     5
 63
     7
421
 16777215
 74
     1
 91
        4
 64
     7
 65
   257
 75
     1
175
     1
 42
1.0
 92
        9
 66
     7
 43
1.0
 76
     1
 77
     6
 78
     2
 67
     7
 79
     5
170
     0
171
     0
290
     0
174
     0
 93
        1
 44
0.0
173
     0
291
     1
 45
0.0
  0
VISUALSTYLE
  5
33
102
{ACAD_REACTORS
330
2A
102
}
330
2A
100
AcDbVisualStyle
  2
Realistic
 70
     8
 71
     2
 72
     3
 73
     0
 90
        2
 40
0.6
 41
30.0
 62
     5
 63
     7
421
 16777215
 74
     0
 91
        0
 64
     7
 65
   257
 75
     1
175
     1
 42
1.0
 92
        8
 66
   257
 43
1.0
 76
     1
 77
     6
 78
     2
 67
     7
 79
     3
170
     0
171
     0
290
     0
174
     0
 93
       13
 44
0.0
173
     0
291
     0
 45
0.0
  0
VISUALSTYLE
  5
42
102
{ACAD_REACTORS
330
2A
102
}
330
2A
100
AcDbVisualStyle
  2
Shaded
 70
    27
 71
     2
 72
     2
 73
     1
 90
        2
 40
0.6
 41
30.0
 62
     5
 63
     7
421
 16777215
 74
     0
 91
        4
 64
     7
 65
   257
 75
     1
175
     1
 42
1.0
 92
        8
 66
   257
 43
1.0
 76
     1
 77
     6
 78
     2
 67
     8
425
  7895160
 79
     3
170
     0
171
     0
290
     0
174
     0
 93
        5
 44
0.0
173
     0
291
     0
 45
0.0
  0
VISUALSTYLE
  5
41
102
{ACAD_REACTORS
330
2A
102
}
330
2A
100
AcDbVisualStyle
  2
Shaded with edges
 70
    26
 71
     2
 72
     2
 73
     1
 90
        2
 40
0.6
 41
30.0
 62
     5
 63
     7
421
 16777215
 74
     1
 91
       10
 64
     7
 65
   257
 75
     2
175
     1
 42
1.0
 92
        8
 66
   257
 43
1.0
 76
     1
 77
     6
 78
     2
 67
     7
 79
     3
170
     0
171
     0
290
     0
174
     0
 93
        5
 44
0.0
173
     0
291
     0
 45
0.0
  0
VISUALSTYLE
  5
3E
102
{ACAD_REACTORS
330
2A
102
}
330
2A
100
AcDbVisualStyle
  2
Shades of Gray
 70
    23
 71
     2
 72
     2
 73
     3
 90
        0
 40
0.6
 41
30.0
 62
     5
 63
     7
421
 16777215
 74
     2
 91
        2
 64
     7
 65
     7
 75
     1
175
     1
 42
40.0
 92
        8
 66
     7
 43
1.0
 76
     1
 77
     6
 78
     2
 67
     7
 79
     3
170
     0
171
     0
290
     0
174
     0
 93
        1
 44
0.0
173
     0
291
     0
 45
0.0
  0
VISUALSTYLE
  5
3F
102
{ACAD_REACTORS
330
2A
102
}
330
2A
100
AcDbVisualStyle
  2
Sketchy
 70
    24
 71
     1
 72
     2
 73
     2
 90
        0
 40
0.6
 41
30.0
 62
     5
 63
     7
421
 16777215
 74
     2
 91
        2
 64
     7
 65
     7
 75
     1
175
     1
 42
40.0
 92
       11
 66
     7
 43
1.0
 76
     1
 77
     6
 78
     2
 67
     7
 79
     6
170
     0
171
     0
290
     0
174
     0
 93
        1
 44
0.0
173
     0
291
     0
 45
0.0
  0
VISUALSTYLE
  5
37
102
{ACAD_REACTORS
330
2A
102
}
330
2A
100
AcDbVisualStyle
  2
Thicken
 70
    13
 71
     2
 72
     2
 73
     0
 90
        0
 40
0.6
 41
30.0
 62
     5
 63
     7
421
 16777215
 74
     1
 91
        4
 64
     7
 65
   257
 75
     1
175
     1
 42
1.0
 92
       12
 66
     7
 43
1.0
 76
     1
 77
     6
 78
     2
 67
     7
 79
     5
170
     0
171
     0
290
     0
174
     0
 93
        1
 44
0.0
173
     0
291
     1
 45
0.0
  0
VISUALSTYLE
  5
30
102
{ACAD_REACTORS
330
2A
102
}
330
2A
100
AcDbVisualStyle
  2
Wireframe
 70
     5
 71
     0
 72
     2
 73
     0
 90
        0
 40
0.6
 41
30.0
 62
     5
 63
     7
421
 16777215
 74
     1
 91
        4
 64
     7
 65
   257
 75
     1
175
     1
 42
1.0
 92
        0
 66
   257
 43
1.0
 76
     1
 77
     6
 78
     2
 67
     7
 79
     3
170
     0
171
     0
290
     0
174
     0
 93
        1
 44
0.0
173
     0
291
     0
 45
0.0
  0
VISUALSTYLE
  5
40
102
{ACAD_REACTORS
330
2A
102
}
330
2A
100
AcDbVisualStyle
  2
X-Ray
 70
    25
 71
     2
 72
     2
 73
     1
 90
        1
 40
0.5
 41
30.0
 62
     5
 63
     7
421
 16777215
 74
     1
 91
        0
 64
     7
 65
   257
 75
     1
175
     1
 42
1.0
 92
        8
 66
     7
 43
1.0
 76
     1
 77
     6
 78
     2
 67
     7
 79
     3
170
     0
171
     0
290
     0
174
     0
 93
       13
 44
0.0
173
     0
291
     0
 45
0.0
  0
DICTIONARYVAR
  5
428
102
{ACAD_REACTORS
330
427
102
}
330
427
100
DictionaryVariables
280
     0
  1
1:1
  0
DICTIONARYVAR
  5
42E
102
{ACAD_REACTORS
330
427
102
}
330
427
100
DictionaryVariables
280
     0
  1
Standard
  0
DICTIONARYVAR
  5
42D
102
{ACAD_REACTORS
330
427
102
}
330
427
100
DictionaryVariables
280
     0
  1
Standard
  0
DICTIONARY
  5
429
330
6A
100
AcDbDictionary
280
     1
281
     1
  3
ACAD_ROUNDTRIP_2008_TABLESTYLE_CELLSTYLEMAP
360
42A
  0
CELLSTYLEMAP
  5
42A
102
{ACAD_REACTORS
330
429
102
}
330
429
100
AcDbCellStyleMap
 90
        3
300
CELLSTYLE
  1
TABLEFORMAT_BEGIN
 90
        5
170
     1
 91
        0
 92
    32768
 62
   257
 93
        1
300
CONTENTFORMAT
  1
CONTENTFORMAT_BEGIN
 90
        0
 91
        0
 92
        4
 93
        0
300

 40
0.0
140
1.0
 94
        5
 62
     0
340
11
144
6.0
309
CONTENTFORMAT_END
171
     1
301
MARGIN
  1
CELLMARGIN_BEGIN
 40
1.5
 40
1.5
 40
1.5
 40
1.5
 40
1.5
 40
1.5
309
CELLMARGIN_END
 94
        6
 95
        1
302
GRIDFORMAT
  1
GRIDFORMAT_BEGIN
 90
        0
 91
        1
 62
     0
 92
       -2
340
14
 93
        0
 40
0.045
309
GRIDFORMAT_END
 95
        2
302
GRIDFORMAT
  1
GRIDFORMAT_BEGIN
 90
        0
 91
        1
 62
     0
 92
       -2
340
14
 93
        0
 40
0.045
309
GRIDFORMAT_END
 95
        4
302
GRIDFORMAT
  1
GRIDFORMAT_BEGIN
 90
        0
 91
        1
 62
     0
 92
       -2
340
14
 93
        0
 40
0.045
309
GRIDFORMAT_END
 95
        8
302
GRIDFORMAT
  1
GRIDFORMAT_BEGIN
 90
        0
 91
        1
 62
     0
 92
       -2
340
14
 93
        0
 40
0.045
309
GRIDFORMAT_END
 95
       16
302
GRIDFORMAT
  1
GRIDFORMAT_BEGIN
 90
        0
 91
        1
 62
     0
 92
       -2
340
14
 93
        0
 40
0.045
309
GRIDFORMAT_END
 95
       32
302
GRIDFORMAT
  1
GRIDFORMAT_BEGIN
 90
        0
 91
        1
 62
     0
 92
       -2
340
14
 93
        0
 40
0.045
309
GRIDFORMAT_END
309
TABLEFORMAT_END
  1
CELLSTYLE_BEGIN
 90
        1
 91
        1
300
_TITLE
309
CELLSTYLE_END
300
CELLSTYLE
  1
TABLEFORMAT_BEGIN
 90
        5
170
     1
 91
        0
 92
        0
 62
   257
 93
        1
300
CONTENTFORMAT
  1
CONTENTFORMAT_BEGIN
 90
        0
 91
        0
 92
        4
 93
        0
300

 40
0.0
140
1.0
 94
        5
 62
     0
340
11
144
4.5
309
CONTENTFORMAT_END
171
     1
301
MARGIN
  1
CELLMARGIN_BEGIN
 40
1.5
 40
1.5
 40
1.5
 40
1.5
 40
1.5
 40
1.5
309
CELLMARGIN_END
 94
        6
 95
        1
302
GRIDFORMAT
  1
GRIDFORMAT_BEGIN
 90
        0
 91
        1
 62
     0
 92
       -2
340
14
 93
        0
 40
0.045
309
GRIDFORMAT_END
 95
        2
302
GRIDFORMAT
  1
GRIDFORMAT_BEGIN
 90
        0
 91
        1
 62
     0
 92
       -2
340
14
 93
        0
 40
0.045
309
GRIDFORMAT_END
 95
        4
302
GRIDFORMAT
  1
GRIDFORMAT_BEGIN
 90
        0
 91
        1
 62
     0
 92
       -2
340
14
 93
        0
 40
0.045
309
GRIDFORMAT_END
 95
        8
302
GRIDFORMAT
  1
GRIDFORMAT_BEGIN
 90
        0
 91
        1
 62
     0
 92
       -2
340
14
 93
        0
 40
0.045
309
GRIDFORMAT_END
 95
       16
302
GRIDFORMAT
  1
GRIDFORMAT_BEGIN
 90
        0
 91
        1
 62
     0
 92
       -2
340
14
 93
        0
 40
0.045
309
GRIDFORMAT_END
 95
       32
302
GRIDFORMAT
  1
GRIDFORMAT_BEGIN
 90
        0
 91
        1
 62
     0
 92
       -2
340
14
 93
        0
 40
0.045
309
GRIDFORMAT_END
309
TABLEFORMAT_END
  1
CELLSTYLE_BEGIN
 90
        2
 91
        1
300
_HEADER
309
CELLSTYLE_END
300
CELLSTYLE
  1
TABLEFORMAT_BEGIN
 90
        5
170
     1
 91
        0
 92
        0
 62
   257
 93
        1
300
CONTENTFORMAT
  1
CONTENTFORMAT_BEGIN
 90
        0
 91
        0
 92
        4
 93
        0
300

 40
0.0
140
1.0
 94
        2
 62
     0
340
11
144
4.5
309
CONTENTFORMAT_END
171
     1
301
MARGIN
  1
CELLMARGIN_BEGIN
 40
1.5
 40
1.5
 40
1.5
 40
1.5
 40
1.5
 40
1.5
309
CELLMARGIN_END
 94
        6
 95
        1
302
GRIDFORMAT
  1
GRIDFORMAT_BEGIN
 90
        0
 91
        1
 62
     0
 92
       -2
340
14
 93
        0
 40
0.045
309
GRIDFORMAT_END
 95
        2
302
GRIDFORMAT
  1
GRIDFORMAT_BEGIN
 90
        0
 91
        1
 62
     0
 92
       -2
340
14
 93
        0
 40
0.045
309
GRIDFORMAT_END
 95
        4
302
GRIDFORMAT
  1
GRIDFORMAT_BEGIN
 90
        0
 91
        1
 62
     0
 92
       -2
340
14
 93
        0
 40
0.045
309
GRIDFORMAT_END
 95
        8
302
GRIDFORMAT
  1
GRIDFORMAT_BEGIN
 90
        0
 91
        1
 62
     0
 92
       -2
340
14
 93
        0
 40
0.045
309
GRIDFORMAT_END
 95
       16
302
GRIDFORMAT
  1
GRIDFORMAT_BEGIN
 90
        0
 91
        1
 62
     0
 92
       -2
340
14
 93
        0
 40
0.045
309
GRIDFORMAT_END
 95
       32
302
GRIDFORMAT
  1
GRIDFORMAT_BEGIN
 90
        0
 91
        1
 62
     0
 92
       -2
340
14
 93
        0
 40
0.045
309
GRIDFORMAT_END
309
TABLEFORMAT_END
  1
CELLSTYLE_BEGIN
 90
        3
 91
        2
300
_DATA
309
CELLSTYLE_END
  0
ENDSEC
  0
EOF
