  0
SECTION
  2
HEADER
  9
$ACADVER
  1
AC1021
  9
$ACADMAINTVER
 70
    25
  9
$DWGCODEPAGE
  3
ANSI_1251
  9
$INSBASE
 10
0.0
 20
0.0
 30
0.0
  9
$EXTMIN
 10
0.0
 20
0.0
 30
0.0
  9
$EXTMAX
 10
1680.0
 20
2376.0
 30
0.0
  9
$LIMMIN
 10
0.0
 20
0.0
  9
$LIMMAX
 10
1680.0
 20
2376.0
  9
$ORTHOMODE
 70
     0
  9
$REGENMODE
 70
     1
  9
$FILLMODE
 70
     1
  9
$QTEXTMODE
 70
     0
  9
$MIRRTEXT
 70
     1
  9
$LTSCALE
 40
8.0
  9
$ATTMODE
 70
     1
  9
$TEXTSIZE
 40
28.0
  9
$TRACEWID
 40
1.0
  9
$TEXTSTYLE
  7
STANDARD
  9
$CLAYER
  8
0
  9
$CELTYPE
  6
ByLayer
  9
$CECOLOR
 62
   256
  9
$CELTSCALE
 40
1.0
  9
$DISPSILH
 70
     0
  9
$DIMSCALE
 40
1.0
  9
$DIMASZ
 40
28.0
  9
$DIMEXO
 40
0.08
  9
$DIMDLI
 40
3.75
  9
$DIMRND
 40
0.0
  9
$DIMDLE
 40
0.0
  9
$DIMEXE
 40
8.0
  9
$DIMTP
 40
0.0
  9
$DIMTM
 40
0.0
  9
$DIMTXT
 40
28.0
  9
$DIMCEN
 40
2.5
  9
$DIMTSZ
 40
0.0
  9
$DIMTOL
 70
     0
  9
$DIMLIM
 70
     0
  9
$DIMTIH
 70
     1
  9
$DIMTOH
 70
     1
  9
$DIMSE1
 70
     0
  9
$DIMSE2
 70
     0
  9
$DIMTAD
 70
     1
  9
$DIMZIN
 70
     0
  9
$DIMBLK
  1

  9
$DIMASO
 70
     1
  9
$DIMSHO
 70
     1
  9
$DIMPOST
  1

  9
$DIMAPOST
  1

  9
$DIMALT
 70
     0
  9
$DIMALTD
 70
     3
  9
$DIMALTF
 40
0.0393700787
  9
$DIMLFAC
 40
1.0
  9
$DIMTOFL
 70
     1
  9
$DIMTVP
 40
0.0
  9
$DIMTIX
 70
     0
  9
$DIMSOXD
 70
     0
  9
$DIMSAH
 70
     0
  9
$DIMBLK1
  1

  9
$DIMBLK2
  1

  9
$DIMSTYLE
  2
ISO-25
  9
$DIMCLRD
 70
     0
  9
$DIMCLRE
 70
     0
  9
$DIMCLRT
 70
     0
  9
$DIMTFAC
 40
1.0
  9
$DIMGAP
 40
24.0
  9
$DIMJUST
 70
     0
  9
$DIMSD1
 70
     0
  9
$DIMSD2
 70
     0
  9
$DIMTOLJ
 70
     0
  9
$DIMTZIN
 70
     0
  9
$DIMALTZ
 70
     0
  9
$DIMALTTZ
 70
     0
  9
$DIMUPT
 70
     0
  9
$DIMDEC
 70
     2
  9
$DIMTDEC
 70
     3
  9
$DIMALTU
 70
     2
  9
$DIMALTTD
 70
     3
  9
$DIMTXSTY
  7
STANDARD
  9
$DIMAUNIT
 70
     0
  9
$DIMADEC
 70
     2
  9
$DIMALTRND
 40
0.0
  9
$DIMAZIN
 70
     0
  9
$DIMDSEP
 70
    44
  9
$DIMATFIT
 70
     3
  9
$DIMFRAC
 70
     0
  9
$DIMLDRBLK
  1

  9
$DIMLUNIT
 70
     2
  9
$DIMLWD
 70
    -2
  9
$DIMLWE
 70
    -2
  9
$DIMTMOVE
 70
     0
  9
$DIMFXL
 40
1.0
  9
$DIMFXLON
 70
     0
  9
$DIMJOGANG
 40
0.7853981634
  9
$DIMTFILL
 70
     0
  9
$DIMTFILLCLR
 70
     0
  9
$DIMARCSYM
 70
     0
  9
$DIMLTYPE
  6

  9
$DIMLTEX1
  6

  9
$DIMLTEX2
  6

  9
$LUNITS
 70
     2
  9
$LUPREC
 70
     2
  9
$SKETCHINC
 40
1.0
  9
$FILLETRAD
 40
10.0
  9
$AUNITS
 70
     0
  9
$AUPREC
 70
     2
  9
$MENU
  1
.
  9
$ELEVATION
 40
0.0
  9
$PELEVATION
 40
0.0
  9
$THICKNESS
 40
0.0
  9
$LIMCHECK
 70
     0
  9
$CHAMFERA
 40
0.0
  9
$CHAMFERB
 40
0.0
  9
$CHAMFERC
 40
0.0
  9
$CHAMFERD
 40
0.0
  9
$SKPOLY
 70
     0
  9
$TDCREATE
 40
2457904.469334722
  9
$TDUCREATE
 40
2457904.344334722
  9
$TDUPDATE
 40
2457904.46933875
  9
$TDUUPDATE
 40
2457904.34433875
  9
$TDINDWG
 40
0.0000000116
  9
$TDUSRTIMER
 40
0.0000000116
  9
$USRTIMER
 70
     1
  9
$ANGBASE
 50
0.0
  9
$ANGDIR
 70
     0
  9
$PDMODE
 70
     0
  9
$PDSIZE
 40
-1.0
  9
$PLINEWID
 40
0.0
  9
$SPLFRAME
 70
     0
  9
$SPLINETYPE
 70
     6
  9
$SPLINESEGS
 70
     8
  9
$HANDSEED
  5
435
  9
$SURFTAB1
 70
     6
  9
$SURFTAB2
 70
     6
  9
$SURFTYPE
 70
     6
  9
$SURFU
 70
     6
  9
$SURFV
 70
     6
  9
$UCSBASE
  2

  9
$UCSNAME
  2

  9
$UCSORG
 10
0.0
 20
0.0
 30
0.0
  9
$UCSXDIR
 10
1.0
 20
0.0
 30
0.0
  9
$UCSYDIR
 10
0.0
 20
1.0
 30
0.0
  9
$UCSORTHOREF
  2

  9
$UCSORTHOVIEW
 70
     0
  9
$UCSORGTOP
 10
0.0
 20
0.0
 30
0.0
  9
$UCSORGBOTTOM
 10
0.0
 20
0.0
 30
0.0
  9
$UCSORGLEFT
 10
0.0
 20
0.0
 30
0.0
  9
$UCSORGRIGHT
 10
0.0
 20
0.0
 30
0.0
  9
$UCSORGFRONT
 10
0.0
 20
0.0
 30
0.0
  9
$UCSORGBACK
 10
0.0
 20
0.0
 30
0.0
  9
$PUCSBASE
  2

  9
$PUCSNAME
  2

  9
$PUCSORG
 10
0.0
 20
0.0
 30
0.0
  9
$PUCSXDIR
 10
1.0
 20
0.0
 30
0.0
  9
$PUCSYDIR
 10
0.0
 20
1.0
 30
0.0
  9
$PUCSORTHOREF
  2

  9
$PUCSORTHOVIEW
 70
     0
  9
$PUCSORGTOP
 10
0.0
 20
0.0
 30
0.0
  9
$PUCSORGBOTTOM
 10
0.0
 20
0.0
 30
0.0
  9
$PUCSORGLEFT
 10
0.0
 20
0.0
 30
0.0
  9
$PUCSORGRIGHT
 10
0.0
 20
0.0
 30
0.0
  9
$PUCSORGFRONT
 10
0.0
 20
0.0
 30
0.0
  9
$PUCSORGBACK
 10
0.0
 20
0.0
 30
0.0
  9
$USERI1
 70
     0
  9
$USERI2
 70
     0
  9
$USERI3
 70
     0
  9
$USERI4
 70
     0
  9
$USERI5
 70
     0
  9
$USERR1
 40
0.0
  9
$USERR2
 40
0.0
  9
$USERR3
 40
0.0
  9
$USERR4
 40
0.0
  9
$USERR5
 40
0.0
  9
$WORLDVIEW
 70
     1
  9
$SHADEDGE
 70
     3
  9
$SHADEDIF
 70
    70
  9
$TILEMODE
 70
     1
  9
$MAXACTVP
 70
    64
  9
$PINSBASE
 10
0.0
 20
0.0
 30
0.0
  9
$PLIMCHECK
 70
     0
  9
$PEXTMIN
 10
1.0000000000E+20
 20
1.0000000000E+20
 30
1.0000000000E+20
  9
$PEXTMAX
 10
-1.0000000000E+20
 20
-1.0000000000E+20
 30
-1.0000000000E+20
  9
$PLIMMIN
 10
0.0
 20
0.0
  9
$PLIMMAX
 10
420.0
 20
297.0
  9
$UNITMODE
 70
     0
  9
$VISRETAIN
 70
     1
  9
$PLINEGEN
 70
     0
  9
$PSLTSCALE
 70
     1
  9
$TREEDEPTH
 70
  3020
  9
$CMLSTYLE
  2
Standard
  9
$CMLJUST
 70
     0
  9
$CMLSCALE
 40
20.0
  9
$PROXYGRAPHICS
 70
     1
  9
$MEASUREMENT
 70
     1
  9
$CELWEIGHT
370
    -1
  9
$ENDCAPS
280
     0
  9
$JOINSTYLE
280
     0
  9
$LWDISPLAY
290
     1
  9
$INSUNITS
 70
     4
  9
$HYPERLINKBASE
  1

  9
$STYLESHEET
  1

  9
$XEDIT
290
     1
  9
$CEPSNTYPE
380
     0
  9
$PSTYLEMODE
290
     1
  9
$FINGERPRINTGUID
  2
{FF46DFE5-4B7B-474E-A101-521A6E380355}
  9
$VERSIONGUID
  2
{FAEB1C32-E019-11D5-929B-00C0DF256EC4}
  9
$EXTNAMES
290
     1
  9
$PSVPSCALE
 40
0.0
  9
$OLESTARTUP
290
     0
  9
$SORTENTS
280
   127
  9
$INDEXCTL
280
     0
  9
$HIDETEXT
280
     1
  9
$XCLIPFRAME
290
     0
  9
$HALOGAP
280
     0
  9
$OBSCOLOR
 70
   257
  9
$OBSLTYPE
280
     0
  9
$INTERSECTIONDISPLAY
280
     0
  9
$INTERSECTIONCOLOR
 70
   257
  9
$DIMASSOC
280
     2
  9
$PROJECTNAME
  1

  9
$CAMERADISPLAY
290
     0
  9
$LENSLENGTH
 40
50.0
  9
$CAMERAHEIGHT
 40
0.0
  9
$STEPSPERSEC
 40
2.0
  9
$STEPSIZE
 40
6.0
  9
$3DDWFPREC
 40
2.0
  9
$PSOLWIDTH
 40
5.0
  9
$PSOLHEIGHT
 40
80.0
  9
$LOFTANG1
 40
1.5707963268
  9
$LOFTANG2
 40
1.5707963268
  9
$LOFTMAG1
 40
0.0
  9
$LOFTMAG2
 40
0.0
  9
$LOFTPARAM
 70
     7
  9
$LOFTNORMALS
280
     1
  9
$LATITUDE
 40
37.795
  9
$LONGITUDE
 40
-122.394
  9
$NORTHDIRECTION
 40
0.0
  9
$TIMEZONE
 70
 -8000
  9
$LIGHTGLYPHDISPLAY
280
     1
  9
$TILEMODELIGHTSYNCH
280
     1
  9
$CMATERIAL
347
44
  9
$SOLIDHIST
280
     0
  9
$SHOWHIST
280
     1
  9
$DWFFRAME
280
     2
  9
$DGNFRAME
280
     2
  9
$REALWORLDSCALE
290
     1
  9
$INTERFERECOLOR
 62
   256
  9
$CSHADOW
280
     0
  9
$SHADOWPLANELOCATION
 40
0.0
  0
ENDSEC
  0
SECTION
  2
CLASSES
  0
CLASS
  1
ACDBDICTIONARYWDFLT
  2
AcDbDictionaryWithDefault
  3
ObjectDBX Classes
 90
        0
 91
        4
280
     0
281
     0
  0
CLASS
  1
VISUALSTYLE
  2
AcDbVisualStyle
  3
ObjectDBX Classes
 90
     4095
 91
        4
280
     0
281
     0
  0
CLASS
  1
MATERIAL
  2
AcDbMaterial
  3
ObjectDBX Classes
 90
     1153
 91
        4
280
     0
281
     0
  0
CLASS
  1
SCALE
  2
AcDbScale
  3
ObjectDBX Classes
 90
     1153
 91
        4
280
     0
281
     0
  0
CLASS
  1
TABLESTYLE
  2
AcDbTableStyle
  3
ObjectDBX Classes
 90
     4095
 91
        4
280
     0
281
     0
  0
CLASS
  1
MLEADERSTYLE
  2
AcDbMLeaderStyle
  3
ACDB_MLEADERSTYLE_CLASS
 90
     4095
 91
        4
280
     0
281
     0
  0
CLASS
  1
SUN
  2
AcDbSun
  3
SCENEOE
 90
     1153
 91
        4
280
     0
281
     0
  0
CLASS
  1
DICTIONARYVAR
  2
AcDbDictionaryVar
  3
ObjectDBX Classes
 90
        0
 91
        4
280
     0
281
     0
  0
CLASS
  1
CELLSTYLEMAP
  2
AcDbCellStyleMap
  3
ObjectDBX Classes
 90
     1152
 91
        4
280
     0
281
     0
  0
ENDSEC
  0
SECTION
  2
TABLES
  0
TABLE
  2
VPORT
  5
8
330
0
100
AcDbSymbolTable
 70
     1
  0
VPORT
  5
29
330
8
100
AcDbSymbolTableRecord
100
AcDbViewportTableRecord
  2
*Active
 70
     0
 10
0.0
 20
0.0
 11
1.0
 21
1.0
 12
840.0
 22
1188.0
 13
0.0
 23
0.0
 14
10.0
 24
10.0
 15
10.0
 25
10.0
 16
0.0
 26
0.0
 36
1.0
 17
0.0
 27
0.0
 37
0.0
 40
2376.0
 41
0.7070707071
 42
50.0
 43
0.0
 44
0.0
 50
0.0
 51
0.0
 71
     0
 72
  2000
 73
     1
 74
     3
 75
     0
 76
     0
 77
     0
 78
     0
281
     0
 65
     1
110
0.0
120
0.0
130
0.0
111
1.0
121
0.0
131
0.0
112
0.0
122
1.0
132
0.0
 79
     0
146
0.0
348
2F
 60
     3
 61
     5
292
     1
282
     1
141
0.0
142
0.0
 63
   250
361
6D
  0
ENDTAB
  0
TABLE
  2
LTYPE
  5
5
330
0
100
AcDbSymbolTable
 70
     6
  0
LTYPE
  5
14
330
5
100
AcDbSymbolTableRecord
100
AcDbLinetypeTableRecord
  2
ByBlock
 70
     0
  3

 72
    65
 73
     0
 40
0.0
  0
LTYPE
  5
15
330
5
100
AcDbSymbolTableRecord
100
AcDbLinetypeTableRecord
  2
ByLayer
 70
     0
  3

 72
    65
 73
     0
 40
0.0
  0
LTYPE
  5
16
330
5
100
AcDbSymbolTableRecord
100
AcDbLinetypeTableRecord
  2
Continuous
 70
     0
  3
Solid line
 72
    65
 73
     0
 40
0.0
  0
LTYPE
  5
6E
330
5
100
AcDbSymbolTableRecord
100
AcDbLinetypeTableRecord
  2
HIDDEN
 70
     0
  3
Hidden __ __ __ __ __ __ __ __ __ __ __ __ __ __
 72
    65
 73
     2
 40
1.905
 49
1.27
 74
     0
 49
-0.635
 74
     0
  0
LTYPE
  5
6F
330
5
100
AcDbSymbolTableRecord
100
AcDbLinetypeTableRecord
  2
PHANTOM
 70
     0
  3
Phantom ______  __  __  ______  __  __  ______
 72
    65
 73
     6
 40
12.7
 49
6.35
 74
     0
 49
-1.27
 74
     0
 49
1.27
 74
     0
 49
-1.27
 74
     0
 49
1.27
 74
     0
 49
-1.27
 74
     0
  0
LTYPE
  5
70
330
5
100
AcDbSymbolTableRecord
100
AcDbLinetypeTableRecord
  2
CENTER
 70
     0
  3
Center ____ _ ____ _ ____ _ ____ _ ____ _ ____
 72
    65
 73
     4
 40
10.16
 49
6.35
 74
     0
 49
-1.27
 74
     0
 49
1.27
 74
     0
 49
-1.27
 74
     0
  0
LTYPE
  5
71
330
5
100
AcDbSymbolTableRecord
100
AcDbLinetypeTableRecord
  2
CENTERX2
 70
     0
  3
Center (2x) ________  __  ________  __  _____
 72
    65
 73
     4
 40
20.32
 49
12.7
 74
     0
 49
-2.54
 74
     0
 49
2.54
 74
     0
 49
-2.54
 74
     0
  0
LTYPE
  5
72
330
5
100
AcDbSymbolTableRecord
100
AcDbLinetypeTableRecord
  2
DOT2
 70
     0
  3
Dot (.5x) ........................................
 72
    65
 73
     2
 40
0.635
 49
0.0
 74
     0
 49
-0.635
 74
     0
  0
ENDTAB
  0
TABLE
  2
LAYER
  5
2
330
0
100
AcDbSymbolTable
 70
     7
  0
LAYER
  5
10
330
2
100
AcDbSymbolTableRecord
100
AcDbLayerTableRecord
  2
0
 70
     0
 62
     7
  6
Continuous
370
    -3
390
F
347
46
  0
LAYER
  5
73
330
2
100
AcDbSymbolTableRecord
100
AcDbLayerTableRecord
  2
THIN_LINE
 70
     0
 62
     7
  6
Continuous
370
    -3
390
F
347
46
  0
LAYER
  5
74
330
2
100
AcDbSymbolTableRecord
100
AcDbLayerTableRecord
  2
THICK_LINE
 70
     0
 62
     7
  6
Continuous
370
    25
390
F
347
46
  0
LAYER
  5
75
330
2
100
AcDbSymbolTableRecord
100
AcDbLayerTableRecord
  2
ПОДЧЕРКТИПОРАЗМЕР
 70
     0
 62
    -7
  6
Continuous
290
     0
370
    -3
390
F
347
46
  0
LAYER
  5
76
330
2
100
AcDbSymbolTableRecord
100
AcDbLayerTableRecord
  2
THIN_LIONE
 70
     0
 62
     7
  6
Continuous
370
    -3
390
F
347
46
  0
LAYER
  5
77
330
2
100
AcDbSymbolTableRecord
100
AcDbLayerTableRecord
  2
THICK_LIONE
 70
     0
 62
     7
  6
Continuous
370
    25
390
F
347
46
  0
LAYER
  5
78
330
2
100
AcDbSymbolTableRecord
100
AcDbLayerTableRecord
  2
ПОДЧЕРКТИПАРАЗМЕР
 70
     0
 62
    -7
  6
Continuous
290
     0
370
    -3
390
F
347
46
  0
ENDTAB
  0
TABLE
  2
STYLE
  5
3
330
0
100
AcDbSymbolTable
 70
     6
  0
STYLE
  5
11
330
3
100
AcDbSymbolTableRecord
100
AcDbTextStyleTableRecord
  2
STANDARD
 70
     0
 40
0.0
 41
1.0
 50
0.0
 71
     0
 42
28.0
  3
ARIAL.TTF
  4

1001
ACAD
1000
ARIAL
1071
       34
  0
STYLE
  5
A1
330
3
100
AcDbSymbolTableRecord
100
AcDbTextStyleTableRecord
  2
SLDTEXTSTYLE0
 70
     0
 40
0.0
 41
1.0
 50
0.0
 71
     0
 42
28.0
  3
GOSTA.TTF
  4
bigfont
1001
ACAD
1000
GOST 2.304 A
1071
 16777474
  0
STYLE
  5
AE
330
3
100
AcDbSymbolTableRecord
100
AcDbTextStyleTableRecord
  2
SLDTEXTSTYLE1
 70
     0
 40
0.0
 41
1.0
 50
0.0
 71
     0
 42
28.0
  3
GOSTA.TTF
  4

1001
ACAD
1000
GOST 2.304 A
1071
 16777474
  0
STYLE
  5
B5
330
3
100
AcDbSymbolTableRecord
100
AcDbTextStyleTableRecord
  2
SLDTEXTSTYLE2
 70
     0
 40
0.0
 41
0.6
 50
0.0
 71
     0
 42
28.0
  3
GOSTA.TTF
  4
bigfont
1001
ACAD
1000
GOST 2.304 A
1071
 16777474
  0
STYLE
  5
D1
330
3
100
AcDbSymbolTableRecord
100
AcDbTextStyleTableRecord
  2
SLDTEXTSTYLE3
 70
     0
 40
0.0
 41
1.0
 50
0.0
 71
     0
 42
28.0
  3
ARIBLK.TTF
  4

1001
ACAD
1000
Arial Black
1071
      290
  0
STYLE
  5
3CD
330
3
100
AcDbSymbolTableRecord
100
AcDbTextStyleTableRecord
  2
SLDTEXTSTYLE4
 70
     0
 40
0.0
 41
0.948
 50
0.0
 71
     0
 42
28.0
  3
ARIAL.TTF
  4

1001
ACAD
1000
Arial
1071
      290
  0
ENDTAB
  0
TABLE
  2
VIEW
  5
6
330
0
100
AcDbSymbolTable
 70
     0
  0
ENDTAB
  0
TABLE
  2
UCS
  5
7
330
0
100
AcDbSymbolTable
 70
     0
  0
ENDTAB
  0
TABLE
  2
APPID
  5
9
330
0
100
AcDbSymbolTable
 70
     2
  0
APPID
  5
12
330
9
100
AcDbSymbolTableRecord
100
AcDbRegAppTableRecord
  2
ACAD
 70
     0
  0
APPID
  5
42F
330
9
100
AcDbSymbolTableRecord
100
AcDbRegAppTableRecord
  2
ACAD_MLEADERVER
 70
     0
  0
ENDTAB
  0
TABLE
  2
DIMSTYLE
  5
A
330
0
100
AcDbSymbolTable
 70
     4
100
AcDbDimStyleTable
  0
DIMSTYLE
105
27
330
A
100
AcDbSymbolTableRecord
100
AcDbDimStyleTableRecord
  2
ISO-25
 70
     0
 41
2.5
 42
0.625
 43
3.75
 44
1.25
 73
     0
 74
     0
 77
     1
 78
     8
140
2.5
141
2.5
143
0.0393700787
147
0.625
171
     3
172
     1
178
     0
271
     2
272
     2
274
     3
278
    44
283
     0
284
     8
340
11
  0
DIMSTYLE
105
3CE
102
{ACAD_REACTORS
330
3CC
330
3D8
330
3E2
102
}
330
A
100
AcDbSymbolTableRecord
100
AcDbDimStyleTableRecord
  2
SLDDIMSTYLE0
 70
     0
 41
28.0
 44
0.0
 45
0.000000001
 73
     0
 74
     0
 77
     2
 78
    12
 79
     3
140
28.0
147
7.0
173
     1
178
     0
271
     2
272
     3
276
     2
284
    12
340
3CD
  0
DIMSTYLE
105
3F2
330
A
100
AcDbSymbolTableRecord
100
AcDbDimStyleTableRecord
  2
SLDDIMSTYLE1
 70
     0
 41
28.0
 44
0.0
 45
0.000000001
146
28.0
147
0.0
173
     1
178
     0
271
     0
272
     0
276
     2
340
11
  0
DIMSTYLE
105
40D
330
A
100
AcDbSymbolTableRecord
100
AcDbDimStyleTableRecord
  2
SLDDIMSTYLE2
 70
     0
 41
8.6153846154
 44
0.0
 45
0.000000001
146
8.6153846154
147
0.0
173
     1
178
     0
271
     0
272
     0
276
     2
340
11
341
40E
343
40E
344
40E
  0
ENDTAB
  0
TABLE
  2
BLOCK_RECORD
  5
1
330
0
100
AcDbSymbolTable
 70
    18
  0
BLOCK_RECORD
  5
1F
330
1
100
AcDbSymbolTableRecord
100
AcDbBlockTableRecord
  2
*Model_Space
340
22
 70
     0
280
     1
281
     0
  0
BLOCK_RECORD
  5
1B
330
1
100
AcDbSymbolTableRecord
100
AcDbBlockTableRecord
  2
*Paper_Space
340
1E
 70
     0
280
     1
281
     0
  0
BLOCK_RECORD
  5
23
330
1
100
AcDbSymbolTableRecord
100
AcDbBlockTableRecord
  2
*Paper_Space0
340
26
 70
     0
280
     1
281
     0
  0
BLOCK_RECORD
  5
9E
330
1
100
AcDbSymbolTableRecord
100
AcDbBlockTableRecord
  2
SW_NOTE_0
340
0
102
{BLKREFS
331
A4
102
}
 70
     0
280
     1
281
     0
  0
BLOCK_RECORD
  5
A7
330
1
100
AcDbSymbolTableRecord
100
AcDbBlockTableRecord
  2
SW_NOTE_1
340
0
102
{BLKREFS
331
B2
102
}
 70
     0
280
     1
281
     0
  0
BLOCK_RECORD
  5
AA
330
1
100
AcDbSymbolTableRecord
100
AcDbBlockTableRecord
  2
SW_SYMBOL_GWLD_NUM
340
0
102
{BLKREFS
331
B0
331
BB
331
C3
331
C9
102
}
 70
     0
280
     1
281
     0
  0
BLOCK_RECORD
  5
B7
330
1
100
AcDbSymbolTableRecord
100
AcDbBlockTableRecord
  2
SW_NOTE_2
340
0
102
{BLKREFS
331
BD
102
}
 70
     0
280
     1
281
     0
  0
BLOCK_RECORD
  5
BF
330
1
100
AcDbSymbolTableRecord
100
AcDbBlockTableRecord
  2
SW_NOTE_3
340
0
102
{BLKREFS
331
C4
102
}
 70
     0
280
     1
281
     0
  0
BLOCK_RECORD
  5
C5
330
1
100
AcDbSymbolTableRecord
100
AcDbBlockTableRecord
  2
SW_NOTE_4
340
0
102
{BLKREFS
331
CB
102
}
 70
     0
280
     1
281
     0
  0
BLOCK_RECORD
  5
3CF
330
1
100
AcDbSymbolTableRecord
100
AcDbBlockTableRecord
  2
_D
340
0
 70
     0
280
     1
281
     0
  0
BLOCK_RECORD
  5
3D9
330
1
100
AcDbSymbolTableRecord
100
AcDbBlockTableRecord
  2
_D_1
340
0
 70
     0
280
     1
281
     0
  0
BLOCK_RECORD
  5
3E3
330
1
100
AcDbSymbolTableRecord
100
AcDbBlockTableRecord
  2
_D_2
340
0
 70
     0
280
     1
281
     0
  0
BLOCK_RECORD
  5
3EC
330
1
100
AcDbSymbolTableRecord
100
AcDbBlockTableRecord
  2
SW_NOTE_5
340
0
102
{BLKREFS
331
3F1
102
}
 70
     0
280
     1
281
     0
  0
BLOCK_RECORD
  5
3F4
330
1
100
AcDbSymbolTableRecord
100
AcDbBlockTableRecord
  2
SW_NOTE_6
340
0
102
{BLKREFS
331
3FA
102
}
 70
     0
280
     1
281
     0
  0
BLOCK_RECORD
  5
3FD
330
1
100
AcDbSymbolTableRecord
100
AcDbBlockTableRecord
  2
SW_NOTE_7
340
0
102
{BLKREFS
331
403
102
}
 70
     0
280
     1
281
     0
  0
BLOCK_RECORD
  5
406
330
1
100
AcDbSymbolTableRecord
100
AcDbBlockTableRecord
  2
SW_NOTE_8
340
0
102
{BLKREFS
331
40C
102
}
 70
     0
280
     1
281
     0
  0
BLOCK_RECORD
  5
40E
330
1
100
AcDbSymbolTableRecord
100
AcDbBlockTableRecord
  2
_Dot
340
0
 70
     0
280
     1
281
     0
  0
BLOCK_RECORD
  5
414
330
1
100
AcDbSymbolTableRecord
100
AcDbBlockTableRecord
  2
SW_NOTE_9
340
0
102
{BLKREFS
331
41A
102
}
 70
     0
280
     1
281
     0
  0
BLOCK_RECORD
  5
41C
330
1
100
AcDbSymbolTableRecord
100
AcDbBlockTableRecord
  2
SW_NOTE_10
340
0
102
{BLKREFS
331
421
102
}
 70
     0
280
     1
281
     0
  0
BLOCK_RECORD
  5
423
330
1
100
AcDbSymbolTableRecord
100
AcDbBlockTableRecord
  2
SW_NOTE_11
340
0
102
{BLKREFS
331
429
102
}
 70
     0
280
     1
281
     0
  0
ENDTAB
  0
ENDSEC
  0
SECTION
  2
BLOCKS
  0
BLOCK
  5
20
330
1F
100
AcDbEntity
  8
0
100
AcDbBlockBegin
  2
*Model_Space
 70
     0
 10
0.0
 20
0.0
 30
0.0
  3
*Model_Space
  1

  0
ENDBLK
  5
21
330
1F
100
AcDbEntity
  8
0
100
AcDbBlockEnd
  0
BLOCK
  5
1C
330
1B
100
AcDbEntity
 67
     1
  8
0
100
AcDbBlockBegin
  2
*Paper_Space
 70
     0
 10
0.0
 20
0.0
 30
0.0
  3
*Paper_Space
  1

  0
ENDBLK
  5
1D
330
1B
100
AcDbEntity
 67
     1
  8
0
100
AcDbBlockEnd
  0
BLOCK
  5
24
330
23
100
AcDbEntity
  8
0
100
AcDbBlockBegin
  2
*Paper_Space0
 70
     0
 10
0.0
 20
0.0
 30
0.0
  3
*Paper_Space0
  1

  0
ENDBLK
  5
25
330
23
100
AcDbEntity
  8
0
100
AcDbBlockEnd
  0
BLOCK
  5
9F
330
9E
100
AcDbEntity
  8
0
100
AcDbBlockBegin
  2
SW_NOTE_0
 70
     0
 10
0.0
 20
0.0
 30
0.0
  3
SW_NOTE_0
  1

  0
MTEXT
  5
A2
330
9E
100
AcDbEntity
  8
THICK_LINE
 62
     0
100
AcDbMText
 10
0.0
 20
37.3777449047
 30
0.0
 40
29.6333333333
 41
0.0
 46
0.0
 71
     1
 72
     1
  1
Примечание: Кабели питания закрепляются к ломкой стойке с помощью пластиковой 
  7
SLDTEXTSTYLE0
 73
     1
 44
1.0
  0
MTEXT
  5
A3
330
9E
100
AcDbEntity
  8
THICK_LINE
 62
     0
100
AcDbMText
 10
0.0
 20
-10.1333670402
 30
0.0
 40
29.6333333333
 41
0.0
 46
0.0
 71
     1
 72
     1
  1
              стяжки ниже соединительных коннекторов.
  7
SLDTEXTSTYLE0
 73
     1
 44
1.0
  0
ENDBLK
  5
A0
330
9E
100
AcDbEntity
  8
0
100
AcDbBlockEnd
  0
BLOCK
  5
A8
330
A7
100
AcDbEntity
  8
0
100
AcDbBlockBegin
  2
SW_NOTE_1
 70
     0
 10
0.0
 20
0.0
 30
0.0
  3
SW_NOTE_1
  1

  0
INSERT
  5
B0
330
A7
100
AcDbEntity
  8
0
  6
Continuous
 62
     0
370
     0
100
AcDbBlockReference
  2
SW_SYMBOL_GWLD_NUM
 10
0.0
 20
3.6587771203
 30
0.0
 41
0.0044146943
 42
0.0044146943
 43
0.0044146943
  0
MTEXT
  5
B1
330
A7
100
AcDbEntity
  8
0
  6
Continuous
 62
     0
370
     0
100
AcDbMText
 10
45.0216680765
 20
35.3175542406
 30
0.0
 40
28.0
 41
0.0
 46
0.0
 71
     1
 72
     1
  1
 докум
  7
SLDTEXTSTYLE0
 73
     1
 44
1.0
  0
ENDBLK
  5
A9
330
A7
100
AcDbEntity
  8
0
100
AcDbBlockEnd
  0
BLOCK
  5
AB
330
AA
100
AcDbEntity
  8
0
100
AcDbBlockBegin
  2
SW_SYMBOL_GWLD_NUM
 70
     0
 10
0.0
 20
0.0
 30
0.0
  3
SW_SYMBOL_GWLD_NUM
  1

  0
CIRCLE
  5
AD
330
AA
100
AcDbEntity
  8
0
  6
Continuous
 62
     0
370
     0
100
AcDbCircle
 10
8400.0
 20
6600.0
 30
0.0
 40
1000.0
  0
MTEXT
  5
AF
330
AA
100
AcDbEntity
  8
0
  6
Continuous
 62
     0
370
     0
100
AcDbMText
 10
3200.0
 20
4000.0
 30
0.0
 40
6342.4550430023
 41
0.0
 46
0.0
 71
     5
 72
     1
  1
N
  7
SLDTEXTSTYLE1
 73
     1
 44
1.0
  0
ENDBLK
  5
AC
330
AA
100
AcDbEntity
  8
0
100
AcDbBlockEnd
  0
BLOCK
  5
B8
330
B7
100
AcDbEntity
  8
0
100
AcDbBlockBegin
  2
SW_NOTE_2
 70
     0
 10
0.0
 20
0.0
 30
0.0
  3
SW_NOTE_2
  1

  0
MTEXT
  5
BA
330
B7
100
AcDbEntity
  8
0
  6
Continuous
 62
     0
370
     0
100
AcDbMText
 10
-25.2268244576
 20
0.0
 30
0.0
 40
20.0
 41
0.0
 46
0.0
 71
     1
 72
     1
  1
Инв.
  7
SLDTEXTSTYLE2
 11
-3.491481338843133E-15
 21
1.0
 31
0.0
 73
     1
 44
1.0
  0
INSERT
  5
BB
330
B7
100
AcDbEntity
  8
0
  6
Continuous
 62
     0
370
     0
100
AcDbBlockReference
  2
SW_SYMBOL_GWLD_NUM
 10
-2.6134122288
 20
53.6111071706
 30
0.0
 41
0.0031533531
 42
0.0031533531
 43
0.0031533531
 50
90.0
  0
MTEXT
  5
BC
330
B7
100
AcDbEntity
  8
0
  6
Continuous
 62
     0
370
     0
100
AcDbMText
 10
-25.2268244576
 20
85.7694447041
 30
0.0
 40
20.0
 41
0.0
 46
0.0
 71
     1
 72
     1
  1
подл.
  7
SLDTEXTSTYLE2
 11
-3.491481338843133E-15
 21
1.0
 31
0.0
 73
     1
 44
1.0
  0
ENDBLK
  5
B9
330
B7
100
AcDbEntity
  8
0
100
AcDbBlockEnd
  0
BLOCK
  5
C0
330
BF
100
AcDbEntity
  8
0
100
AcDbBlockBegin
  2
SW_NOTE_3
 70
     0
 10
0.0
 20
0.0
 30
0.0
  3
SW_NOTE_3
  1

  0
MTEXT
  5
C2
330
BF
100
AcDbEntity
  8
0
  6
Continuous
 62
     0
370
     0
100
AcDbMText
 10
-25.2268244576
 20
0.0
 30
0.0
 40
20.0
 41
0.0
 46
0.0
 71
     1
 72
     1
  1
Взам. инв. 
  7
SLDTEXTSTYLE2
 11
-3.491481338843133E-15
 21
1.0
 31
0.0
 73
     1
 44
1.0
  0
INSERT
  5
C3
330
BF
100
AcDbEntity
  8
0
  6
Continuous
 62
     0
370
     0
100
AcDbBlockReference
  2
SW_SYMBOL_GWLD_NUM
 10
-2.6134122288
 20
143.7722146511
 30
0.0
 41
0.0031533531
 42
0.0031533531
 43
0.0031533531
 50
90.0
  0
ENDBLK
  5
C1
330
BF
100
AcDbEntity
  8
0
100
AcDbBlockEnd
  0
BLOCK
  5
C6
330
C5
100
AcDbEntity
  8
0
100
AcDbBlockBegin
  2
SW_NOTE_4
 70
     0
 10
0.0
 20
0.0
 30
0.0
  3
SW_NOTE_4
  1

  0
MTEXT
  5
C8
330
C5
100
AcDbEntity
  8
0
  6
Continuous
 62
     0
370
     0
100
AcDbMText
 10
-25.2268244576
 20
0.0
 30
0.0
 40
20.0
 41
0.0
 46
0.0
 71
     1
 72
     1
  1
Инв. 
  7
SLDTEXTSTYLE2
 11
-3.491481338843133E-15
 21
1.0
 31
0.0
 73
     1
 44
1.0
  0
INSERT
  5
C9
330
C5
100
AcDbEntity
  8
0
  6
Continuous
 62
     0
370
     0
100
AcDbBlockReference
  2
SW_SYMBOL_GWLD_NUM
 10
-2.6134122288
 20
65.722219646
 30
0.0
 41
0.0031533531
 42
0.0031533531
 43
0.0031533531
 50
90.0
  0
MTEXT
  5
CA
330
C5
100
AcDbEntity
  8
0
  6
Continuous
 62
     0
370
     0
100
AcDbMText
 10
-25.2268244576
 20
97.8805571795
 30
0.0
 40
20.0
 41
0.0
 46
0.0
 71
     1
 72
     1
  1
 дубл.
  7
SLDTEXTSTYLE2
 11
-3.491481338843133E-15
 21
1.0
 31
0.0
 73
     1
 44
1.0
  0
ENDBLK
  5
C7
330
C5
100
AcDbEntity
  8
0
100
AcDbBlockEnd
  0
BLOCK
  5
3D0
330
3CF
100
AcDbEntity
  8
0
100
AcDbBlockBegin
  2
_D
 70
     0
 10
0.0
 20
0.0
 30
0.0
  3
_D
  1

  0
SOLID
  5
3D2
330
3CF
100
AcDbEntity
  8
THICK_LINE
 62
     7
100
AcDbTrace
 10
257.9204001631
 20
1848.4194291413
 30
0.0
 11
253.6127078554
 21
1820.4194291413
 31
0.0
 12
262.2280924708
 22
1820.4194291413
 32
0.0
 13
262.2280924708
 23
1820.4194291413
 33
0.0
  0
SOLID
  5
3D3
330
3CF
100
AcDbEntity
  8
THICK_LINE
 62
     7
100
AcDbTrace
 10
257.9204001631
 20
1398.4194291413
 30
0.0
 11
262.2280924708
 21
1426.4194291413
 31
0.0
 12
253.6127078554
 22
1426.4194291413
 32
0.0
 13
253.6127078554
 23
1426.4194291413
 33
0.0
  0
LINE
  5
3D4
330
3CF
100
AcDbEntity
  8
THICK_LINE
 62
     7
100
AcDbLine
 10
884.0443818446
 20
1848.4194291413
 30
0.0
 11
249.9204001631
 21
1848.4194291413
 31
0.0
  0
LINE
  5
3D5
330
3CF
100
AcDbEntity
  8
THICK_LINE
 62
     7
100
AcDbLine
 10
385.1564141403
 20
1398.4194291413
 30
0.0
 11
249.9204001631
 21
1398.4194291413
 31
0.0
  0
LINE
  5
3D6
330
3CF
100
AcDbEntity
  8
THICK_LINE
 62
     7
100
AcDbLine
 10
257.9204001631
 20
1848.4194291413
 30
0.0
 11
257.9204001631
 21
1398.4194291413
 31
0.0
  0
MTEXT
  5
3D7
330
3CF
100
AcDbEntity
  8
THICK_LINE
 62
     7
100
AcDbMText
 10
221.8265015868
 20
1605.0660651808
 30
0.0
 40
28.0
 41
0.0
 46
0.0
 71
     1
 72
     1
  1
450
  7
SLDTEXTSTYLE4
 11
-7.044195017643634E-15
 21
1.0
 31
0.0
 73
     1
 44
1.0
  0
ENDBLK
  5
3D1
330
3CF
100
AcDbEntity
  8
0
100
AcDbBlockEnd
  0
BLOCK
  5
3DA
330
3D9
100
AcDbEntity
  8
0
100
AcDbBlockBegin
  2
_D_1
 70
     0
 10
0.0
 20
0.0
 30
0.0
  3
_D_1
  1

  0
SOLID
  5
3DC
330
3D9
100
AcDbEntity
  8
THICK_LINE
 62
     7
100
AcDbTrace
 10
327.0633169848
 20
1398.4194291413
 30
0.0
 11
322.7556246771
 21
1370.4194291413
 31
0.0
 12
331.3710092925
 22
1370.4194291413
 32
0.0
 13
331.3710092925
 23
1370.4194291413
 33
0.0
  0
SOLID
  5
3DD
330
3D9
100
AcDbEntity
  8
THICK_LINE
 62
     7
100
AcDbTrace
 10
327.0633169848
 20
798.4194291413
 30
0.0
 11
331.3710092925
 21
826.4194291413
 31
0.0
 12
322.7556246771
 22
826.4194291413
 32
0.0
 13
322.7556246771
 23
826.4194291413
 33
0.0
  0
LINE
  5
3DE
330
3D9
100
AcDbEntity
  8
THICK_LINE
 62
     7
100
AcDbLine
 10
385.1564141403
 20
1398.4194291413
 30
0.0
 11
319.0633169848
 21
1398.4194291413
 31
0.0
  0
LINE
  5
3DF
330
3D9
100
AcDbEntity
  8
THICK_LINE
 62
     7
100
AcDbLine
 10
385.1564141403
 20
798.4194291413
 30
0.0
 11
319.0633169848
 21
798.4194291413
 31
0.0
  0
LINE
  5
3E0
330
3D9
100
AcDbEntity
  8
THICK_LINE
 62
     7
100
AcDbLine
 10
327.0633169848
 20
1398.4194291413
 30
0.0
 11
327.0633169848
 21
798.4194291413
 31
0.0
  0
MTEXT
  5
3E1
330
3D9
100
AcDbEntity
  8
THICK_LINE
 62
     7
100
AcDbMText
 10
290.9694184085
 20
1045.5225507292
 30
0.0
 40
28.0
 41
0.0
 46
0.0
 71
     1
 72
     1
  1
600
  7
SLDTEXTSTYLE4
 11
-7.044195017643634E-15
 21
1.0
 31
0.0
 73
     1
 44
1.0
  0
ENDBLK
  5
3DB
330
3D9
100
AcDbEntity
  8
0
100
AcDbBlockEnd
  0
BLOCK
  5
3E4
330
3E3
100
AcDbEntity
  8
0
100
AcDbBlockBegin
  2
_D_2
 70
     0
 10
0.0
 20
0.0
 30
0.0
  3
_D_2
  1

  0
SOLID
  5
3E6
330
3E3
100
AcDbEntity
  8
THICK_LINE
 62
     7
100
AcDbTrace
 10
257.9204001631
 20
698.4194291413
 30
0.0
 11
262.2280924708
 21
726.4194291413
 31
0.0
 12
253.6127078554
 22
726.4194291413
 32
0.0
 13
253.6127078554
 23
726.4194291413
 33
0.0
  0
SOLID
  5
3E7
330
3E3
100
AcDbEntity
  8
THICK_LINE
 62
     7
100
AcDbTrace
 10
257.9204001631
 20
1398.4194291413
 30
0.0
 11
253.6127078554
 21
1370.4194291413
 31
0.0
 12
262.2280924708
 22
1370.4194291413
 32
0.0
 13
262.2280924708
 23
1370.4194291413
 33
0.0
  0
LINE
  5
3E8
330
3E3
100
AcDbEntity
  8
THICK_LINE
 62
     7
100
AcDbLine
 10
855.1564141403
 20
698.4194291413
 30
0.0
 11
249.9204001631
 21
698.4194291413
 31
0.0
  0
LINE
  5
3E9
330
3E3
100
AcDbEntity
  8
THICK_LINE
 62
     7
100
AcDbLine
 10
385.1564141403
 20
1398.4194291413
 30
0.0
 11
249.9204001631
 21
1398.4194291413
 31
0.0
  0
LINE
  5
3EA
330
3E3
100
AcDbEntity
  8
THICK_LINE
 62
     7
100
AcDbLine
 10
257.9204001631
 20
698.4194291413
 30
0.0
 11
257.9204001631
 21
1398.4194291413
 31
0.0
  0
MTEXT
  5
3EB
330
3E3
100
AcDbEntity
  8
THICK_LINE
 62
     7
100
AcDbMText
 10
221.8265015868
 20
1045.5225507292
 30
0.0
 40
28.0
 41
0.0
 46
0.0
 71
     1
 72
     1
  1
700
  7
SLDTEXTSTYLE4
 11
6.123233995736766E-17
 21
1.0
 31
0.0
 73
     1
 44
1.0
  0
ENDBLK
  5
3E5
330
3E3
100
AcDbEntity
  8
0
100
AcDbBlockEnd
  0
BLOCK
  5
3ED
330
3EC
100
AcDbEntity
  8
0
100
AcDbBlockBegin
  2
SW_NOTE_5
 70
     0
 10
0.0
 20
0.0
 30
0.0
  3
SW_NOTE_5
  1

  0
LINE
  5
3EF
330
3EC
100
AcDbEntity
  8
THICK_LINE
 62
     0
100
AcDbLine
 10
90.5201857415
 20
0.0
 30
0.0
 11
0.0
 21
0.0
 31
0.0
  0
MTEXT
  5
3F0
330
3EC
100
AcDbEntity
  8
THICK_LINE
 62
     0
100
AcDbMText
 10
3.7350305117
 20
37.6575287488
 30
0.0
 40
29.6333333333
 41
0.0
 46
0.0
 71
     1
 72
     1
  1
Грунт
  7
SLDTEXTSTYLE0
 73
     1
 44
1.0
  0
ENDBLK
  5
3EE
330
3EC
100
AcDbEntity
  8
0
100
AcDbBlockEnd
  0
BLOCK
  5
3F5
330
3F4
100
AcDbEntity
  8
0
100
AcDbBlockBegin
  2
SW_NOTE_6
 70
     0
 10
0.0
 20
0.0
 30
0.0
  3
SW_NOTE_6
  1

  0
LINE
  5
3F7
330
3F4
100
AcDbEntity
  8
THICK_LINE
 62
     0
100
AcDbLine
 10
243.0769999949
 20
0.0
 30
0.0
 11
0.0
 21
0.0
 31
0.0
  0
LINE
  5
3F8
330
3F4
100
AcDbEntity
  8
THICK_LINE
 62
     0
100
AcDbLine
 10
243.0769999949
 20
0.0
 30
0.0
 11
0.0
 21
0.0
 31
0.0
  0
MTEXT
  5
3F9
330
3F4
100
AcDbEntity
  8
THICK_LINE
 62
     0
100
AcDbMText
 10
3.5866602037
 20
37.8610264772
 30
0.0
 40
29.6333333333
 41
0.0
 46
0.0
 71
     1
 72
     1
  1
Кабель питания
  7
SLDTEXTSTYLE0
 73
     1
 44
1.0
  0
ENDBLK
  5
3F6
330
3F4
100
AcDbEntity
  8
0
100
AcDbBlockEnd
  0
BLOCK
  5
3FE
330
3FD
100
AcDbEntity
  8
0
100
AcDbBlockBegin
  2
SW_NOTE_7
 70
     0
 10
0.0
 20
0.0
 30
0.0
  3
SW_NOTE_7
  1

  0
LINE
  5
400
330
3FD
100
AcDbEntity
  8
THICK_LINE
 62
     0
100
AcDbLine
 10
438.6021395651
 20
0.0
 30
0.0
 11
0.0
 21
0.0
 31
0.0
  0
LINE
  5
401
330
3FD
100
AcDbEntity
  8
THICK_LINE
 62
     0
100
AcDbLine
 10
438.6021395651
 20
0.0
 30
0.0
 11
0.0
 21
0.0
 31
0.0
  0
MTEXT
  5
402
330
3FD
100
AcDbEntity
  8
THICK_LINE
 62
     0
100
AcDbMText
 10
3.3906076823
 20
37.5899147004
 30
0.0
 40
29.6333333333
 41
0.0
 46
0.0
 71
     1
 72
     1
  1
Соединительные коннекторы
  7
SLDTEXTSTYLE0
 73
     1
 44
1.0
  0
ENDBLK
  5
3FF
330
3FD
100
AcDbEntity
  8
0
100
AcDbBlockEnd
  0
BLOCK
  5
407
330
406
100
AcDbEntity
  8
0
100
AcDbBlockBegin
  2
SW_NOTE_8
 70
     0
 10
0.0
 20
0.0
 30
0.0
  3
SW_NOTE_8
  1

  0
LINE
  5
409
330
406
100
AcDbEntity
  8
THICK_LINE
 62
     0
100
AcDbLine
 10
331.2636216608
 20
0.0
 30
0.0
 11
0.0
 21
0.0
 31
0.0
  0
MTEXT
  5
40A
330
406
100
AcDbEntity
  8
THICK_LINE
 62
     0
100
AcDbMText
 10
3.3708599223
 20
84.9573862772
 30
0.0
 40
29.6333333333
 41
0.0
 46
0.0
 71
     1
 72
     1
  1
Огонь подхода и
  7
SLDTEXTSTYLE0
 73
     1
 44
1.0
  0
MTEXT
  5
40B
330
406
100
AcDbEntity
  8
THICK_LINE
 62
     0
100
AcDbMText
 10
3.3708599223
 20
37.4462743323
 30
0.0
 40
29.6333333333
 41
0.0
 46
0.0
 71
     1
 72
     1
  1
светового горизонта
  7
SLDTEXTSTYLE0
 73
     1
 44
1.0
  0
ENDBLK
  5
408
330
406
100
AcDbEntity
  8
0
100
AcDbBlockEnd
  0
BLOCK
  5
40F
330
40E
100
AcDbEntity
  8
0
100
AcDbBlockBegin
  2
_Dot
 70
     0
 10
0.0
 20
0.0
 30
0.0
  3
_Dot
  1

  0
LWPOLYLINE
  5
411
330
40E
100
AcDbEntity
  8
0
  6
ByBlock
 62
     0
100
AcDbPolyline
 90
        2
 70
     1
 43
0.5
 10
-0.25
 20
0.0
 42
1.0
 10
0.25
 20
0.0
 42
1.0
  0
LINE
  5
412
330
40E
100
AcDbEntity
  8
0
  6
ByBlock
 62
     0
370
    -2
100
AcDbLine
 10
-0.5
 20
0.0
 30
0.0
 11
-1.0
 21
0.0
 31
0.0
  0
ENDBLK
  5
410
330
40E
100
AcDbEntity
  8
0
100
AcDbBlockEnd
  0
BLOCK
  5
415
330
414
100
AcDbEntity
  8
0
100
AcDbBlockBegin
  2
SW_NOTE_9
 70
     0
 10
0.0
 20
0.0
 30
0.0
  3
SW_NOTE_9
  1

  0
LINE
  5
417
330
414
100
AcDbEntity
  8
THICK_LINE
 62
     0
100
AcDbLine
 10
-336.1449638876
 20
0.0
 30
0.0
 11
0.0
 21
0.0
 31
0.0
  0
MTEXT
  5
418
330
414
100
AcDbEntity
  8
THICK_LINE
 62
     0
100
AcDbMText
 10
-340.070887127
 20
85.5370142136
 30
0.0
 40
29.6333333333
 41
0.0
 46
0.0
 71
     1
 72
     1
  1
Кронштейн крепления
  7
SLDTEXTSTYLE0
 73
     1
 44
1.0
  0
MTEXT
  5
419
330
414
100
AcDbEntity
  8
THICK_LINE
 62
     0
100
AcDbMText
 10
-340.070887127
 20
38.0259022687
 30
0.0
 40
29.6333333333
 41
0.0
 46
0.0
 71
     1
 72
     1
  1
на трубу D=40мм.
  7
SLDTEXTSTYLE0
 73
     1
 44
1.0
  0
ENDBLK
  5
416
330
414
100
AcDbEntity
  8
0
100
AcDbBlockEnd
  0
BLOCK
  5
41D
330
41C
100
AcDbEntity
  8
0
100
AcDbBlockBegin
  2
SW_NOTE_10
 70
     0
 10
0.0
 20
0.0
 30
0.0
  3
SW_NOTE_10
  1

  0
LINE
  5
41F
330
41C
100
AcDbEntity
  8
THICK_LINE
 62
     0
100
AcDbLine
 10
-231.9892744097
 20
0.0
 30
0.0
 11
0.0
 21
0.0
 31
0.0
  0
MTEXT
  5
420
330
41C
100
AcDbEntity
  8
THICK_LINE
 62
     0
100
AcDbMText
 10
-235.2669755853
 20
38.2152564592
 30
0.0
 40
29.6333333333
 41
0.0
 46
0.0
 71
     1
 72
     1
  1
Ломкая стойка
  7
SLDTEXTSTYLE0
 73
     1
 44
1.0
  0
ENDBLK
  5
41E
330
41C
100
AcDbEntity
  8
0
100
AcDbBlockEnd
  0
BLOCK
  5
424
330
423
100
AcDbEntity
  8
0
100
AcDbBlockBegin
  2
SW_NOTE_11
 70
     0
 10
0.0
 20
0.0
 30
0.0
  3
SW_NOTE_11
  1

  0
LINE
  5
426
330
423
100
AcDbEntity
  8
THICK_LINE
 62
     0
100
AcDbLine
 10
-462.1415237459
 20
0.0
 30
0.0
 11
0.0
 21
0.0
 31
0.0
  0
MTEXT
  5
427
330
423
100
AcDbEntity
  8
THICK_LINE
 62
     0
100
AcDbMText
 10
-465.9291643526
 20
85.4673318853
 30
0.0
 40
29.6333333333
 41
0.0
 46
0.0
 71
     1
 72
     1
  1
Фундаментная забивная игла.
  7
SLDTEXTSTYLE0
 73
     1
 44
1.0
  0
MTEXT
  5
428
330
423
100
AcDbEntity
  8
THICK_LINE
 62
     0
100
AcDbMText
 10
-465.9291643526
 20
37.9562199404
 30
0.0
 40
29.6333333333
 41
0.0
 46
0.0
 71
     1
 72
     1
  1
(Стальной уголок 50х50мм.)
  7
SLDTEXTSTYLE0
 73
     1
 44
1.0
  0
ENDBLK
  5
425
330
423
100
AcDbEntity
  8
0
100
AcDbBlockEnd
  0
ENDSEC
  0
SECTION
  2
ENTITIES
  0
LINE
  5
79
330
1F
100
AcDbEntity
  8
THICK_LINE
100
AcDbLine
 10
160.0
 20
2336.0
 30
0.0
 11
720.0
 21
2336.0
 31
0.0
  0
LINE
  5
7A
330
1F
100
AcDbEntity
  8
THICK_LINE
100
AcDbLine
 10
160.0
 20
2336.0
 30
0.0
 11
160.0
 21
2224.0
 31
0.0
  0
LINE
  5
7B
330
1F
100
AcDbEntity
  8
THICK_LINE
100
AcDbLine
 10
160.0
 20
2224.0
 30
0.0
 11
720.0
 21
2224.0
 31
0.0
  0
LINE
  5
7C
330
1F
100
AcDbEntity
  8
THICK_LINE
100
AcDbLine
 10
720.0
 20
2336.0
 30
0.0
 11
720.0
 21
2224.0
 31
0.0
  0
LINE
  5
7D
330
1F
100
AcDbEntity
  8
THICK_LINE
100
AcDbLine
 10
217.1932620256
 20
160.6777803472
 30
0.0
 11
217.1932620256
 21
40.6777803472
 31
0.0
  0
LINE
  5
7E
330
1F
100
AcDbEntity
  8
THICK_LINE
100
AcDbLine
 10
1561.1932620256
 20
160.6777803472
 30
0.0
 11
1561.1932620256
 21
40.6777803472
 31
0.0
  0
LINE
  5
7F
330
1F
100
AcDbEntity
  8
THICK_LINE
100
AcDbLine
 10
1561.1932620256
 20
160.6777803472
 30
0.0
 11
1561.1932620256
 21
40.6777803472
 31
0.0
  0
LINE
  5
80
330
1F
100
AcDbEntity
  8
THICK_LINE
100
AcDbLine
 10
64.0204468216
 20
39.9744633888
 30
0.0
 11
64.0204468216
 21
1199.9744633888
 31
0.0
  0
LINE
  5
81
330
1F
100
AcDbEntity
  8
THICK_LINE
100
AcDbLine
 10
64.0204468216
 20
39.9744633888
 30
0.0
 11
160.0204468216
 21
39.9744633888
 31
0.0
  0
LINE
  5
82
330
1F
100
AcDbEntity
  8
THIN_LINE
100
AcDbLine
 10
104.0204468216
 20
39.9744633888
 30
0.0
 11
104.0204468216
 21
1199.9744633888
 31
0.0
  0
LINE
  5
83
330
1F
100
AcDbEntity
  8
THICK_LINE
100
AcDbLine
 10
160.0204468216
 20
39.9744633888
 30
0.0
 11
160.0204468216
 21
1199.9744633888
 31
0.0
  0
LINE
  5
84
330
1F
100
AcDbEntity
  8
THICK_LINE
100
AcDbLine
 10
64.0204468216
 20
239.9744633888
 30
0.0
 11
160.0204468216
 21
239.9744633888
 31
0.0
  0
LINE
  5
85
330
1F
100
AcDbEntity
  8
THICK_LINE
100
AcDbLine
 10
64.0204468216
 20
519.9744633888
 30
0.0
 11
160.0204468216
 21
519.9744633888
 31
0.0
  0
LINE
  5
86
330
1F
100
AcDbEntity
  8
THICK_LINE
100
AcDbLine
 10
64.0204468216
 20
719.9744633888
 30
0.0
 11
160.0204468216
 21
719.9744633888
 31
0.0
  0
LINE
  5
87
330
1F
100
AcDbEntity
  8
THICK_LINE
100
AcDbLine
 10
64.0204468216
 20
919.9744633888
 30
0.0
 11
160.0204468216
 21
919.9744633888
 31
0.0
  0
LINE
  5
88
330
1F
100
AcDbEntity
  8
THICK_LINE
100
AcDbLine
 10
64.0
 20
40.0
 30
0.0
 11
1640.0
 21
40.0
 31
0.0
  0
LINE
  5
89
330
1F
100
AcDbEntity
  8
THIN_LINE
100
AcDbLine
 10
160.0
 20
80.4833941736
 30
0.0
 11
680.0
 21
80.4833941736
 31
0.0
  0
LINE
  5
8A
330
1F
100
AcDbEntity
  8
THICK_LINE
100
AcDbLine
 10
1561.2062895552
 20
104.8320298152
 30
0.0
 11
1639.9812872176
 21
104.8320298152
 31
0.0
  0
LINE
  5
8B
330
1F
100
AcDbEntity
  8
THIN_LINE
100
AcDbLine
 10
160.0
 20
120.5870293472
 30
0.0
 11
680.0
 21
120.5870293472
 31
0.0
  0
LINE
  5
8C
330
1F
100
AcDbEntity
  8
THICK_LINE
100
AcDbLine
 10
160.0
 20
160.6906645208
 30
0.0
 11
1639.9812872176
 21
160.6906645208
 31
0.0
  0
LINE
  5
8D
330
1F
100
AcDbEntity
  8
THICK_LINE
100
AcDbLine
 10
160.0
 20
240.0
 30
0.0
 11
64.0
 21
240.0
 31
0.0
  0
LINE
  5
8E
330
1F
100
AcDbEntity
  8
THICK_LINE
100
AcDbLine
 10
64.0
 20
40.0
 30
0.0
 11
64.0
 21
1200.0
 31
0.0
  0
LINE
  5
8F
330
1F
100
AcDbEntity
  8
THIN_LINE
100
AcDbLine
 10
104.0
 20
40.0
 30
0.0
 11
104.0
 21
1200.0
 31
0.0
  0
LINE
  5
90
330
1F
100
AcDbEntity
  8
THICK_LINE
100
AcDbLine
 10
160.0
 20
40.0
 30
0.0
 11
160.0
 21
2336.0
 31
0.0
  0
LINE
  5
91
330
1F
100
AcDbEntity
  8
THICK_LINE
100
AcDbLine
 10
160.0
 20
520.0
 30
0.0
 11
64.0
 21
520.0
 31
0.0
  0
LINE
  5
92
330
1F
100
AcDbEntity
  8
THICK_LINE
100
AcDbLine
 10
296.0
 20
160.6906645208
 30
0.0
 11
296.0
 21
40.0
 31
0.0
  0
LINE
  5
93
330
1F
100
AcDbEntity
  8
THICK_LINE
100
AcDbLine
 10
160.0
 20
720.0
 30
0.0
 11
64.0
 21
720.0
 31
0.0
  0
LINE
  5
94
330
1F
100
AcDbEntity
  8
THICK_LINE
100
AcDbLine
 10
480.0
 20
40.0
 30
0.0
 11
480.0
 21
160.6906645208
 31
0.0
  0
LINE
  5
95
330
1F
100
AcDbEntity
  8
THICK_LINE
100
AcDbLine
 10
600.0
 20
160.6906645208
 30
0.0
 11
600.0
 21
40.0
 31
0.0
  0
LINE
  5
96
330
1F
100
AcDbEntity
  8
THICK_LINE
100
AcDbLine
 10
160.0
 20
920.0
 30
0.0
 11
64.0
 21
920.0
 31
0.0
  0
LINE
  5
97
330
1F
100
AcDbEntity
  8
THICK_LINE
100
AcDbLine
 10
680.0
 20
160.6906645208
 30
0.0
 11
680.0
 21
40.0
 31
0.0
  0
LINE
  5
98
330
1F
100
AcDbEntity
  8
THICK_LINE
100
AcDbLine
 10
720.0
 20
2336.0
 30
0.0
 11
720.0
 21
2224.0
 31
0.0
  0
LINE
  5
99
330
1F
100
AcDbEntity
  8
THICK_LINE
100
AcDbLine
 10
64.0
 20
1200.0
 30
0.0
 11
160.0
 21
1200.0
 31
0.0
  0
LINE
  5
9A
330
1F
100
AcDbEntity
  8
THICK_LINE
100
AcDbLine
 10
1561.2062895552
 20
160.6906645208
 30
0.0
 11
1561.2062895552
 21
40.379759
 31
0.0
  0
LINE
  5
9B
330
1F
100
AcDbEntity
  8
THICK_LINE
100
AcDbLine
 10
1640.0
 20
2336.0
 30
0.0
 11
1640.0
 21
40.0
 31
0.0
  0
LINE
  5
9C
330
1F
100
AcDbEntity
  8
THICK_LINE
100
AcDbLine
 10
160.0
 20
2224.0
 30
0.0
 11
720.0
 21
2224.0
 31
0.0
  0
LINE
  5
9D
330
1F
100
AcDbEntity
  8
THICK_LINE
100
AcDbLine
 10
160.0
 20
2336.0
 30
0.0
 11
1640.0
 21
2336.0
 31
0.0
  0
INSERT
  5
A4
330
1F
100
AcDbEntity
  8
THICK_LINE
 62
     7
100
AcDbBlockReference
  2
SW_NOTE_0
 10
208.0374124169
 20
289.6243928712
 30
0.0
  0
MTEXT
  5
A5
330
1F
100
AcDbEntity
  8
0
  6
Continuous
 62
     7
370
     0
100
AcDbMText
 10
163.6135560209
 20
78.6483028739
 30
0.0
 40
28.0
 41
0.0
 46
0.0
 71
     1
 72
     1
  1
Изм.
  7
SLDTEXTSTYLE0
 73
     1
 44
1.0
  0
MTEXT
  5
A6
330
1F
100
AcDbEntity
  8
0
  6
Continuous
 62
     7
370
     0
100
AcDbMText
 10
224.5997590327
 20
79.755201368
 30
0.0
 40
28.0
 41
0.0
 46
0.0
 71
     1
 72
     1
  1
Лист
  7
SLDTEXTSTYLE0
 73
     1
 44
1.0
  0
INSERT
  5
B2
330
1F
100
AcDbEntity
  8
0
  6
Continuous
 62
     7
370
     0
100
AcDbBlockReference
  2
SW_NOTE_1
 10
327.2514695738
 20
44.4376471274
 30
0.0
  0
MTEXT
  5
B3
330
1F
100
AcDbEntity
  8
0
  6
Continuous
 62
     7
370
     0
100
AcDbMText
 10
494.7583680679
 20
79.755201368
 30
0.0
 40
28.0
 41
0.0
 46
0.0
 71
     1
 72
     1
  1
Подп.
  7
SLDTEXTSTYLE0
 73
     1
 44
1.0
  0
MTEXT
  5
B4
330
1F
100
AcDbEntity
  8
0
  6
Continuous
 62
     7
370
     0
100
AcDbMText
 10
605.2790635503
 20
78.6483028739
 30
0.0
 40
28.0
 41
0.0
 46
0.0
 71
     1
 72
     1
  1
Дата
  7
SLDTEXTSTYLE0
 73
     1
 44
1.0
  0
MTEXT
  5
B6
330
1F
100
AcDbEntity
  8
0
  6
Continuous
 62
     7
370
     0
100
AcDbMText
 10
1563.8530875112
 20
141.2407253515
 30
0.0
 40
20.0
 41
0.0
 46
0.0
 71
     1
 72
     1
  1
Лист
  7
SLDTEXTSTYLE2
 73
     1
 44
1.0
  0
INSERT
  5
BD
330
1F
100
AcDbEntity
  8
0
  6
Continuous
 62
     7
370
     0
100
AcDbBlockReference
  2
SW_NOTE_2
 10
101.9664649237
 20
41.1371399794
 30
0.0
  0
MTEXT
  5
BE
330
1F
100
AcDbEntity
  8
0
  6
Continuous
 62
     7
370
     0
100
AcDbMText
 10
77.2264788026
 20
269.6249031384
 30
0.0
 40
20.0
 41
0.0
 46
0.0
 71
     1
 72
     1
  1
Подп. и дата
  7
SLDTEXTSTYLE2
 11
-3.491481338843133E-15
 21
1.0
 31
0.0
 73
     1
 44
1.0
  0
INSERT
  5
C4
330
1F
100
AcDbEntity
  8
0
  6
Continuous
 62
     7
370
     0
100
AcDbBlockReference
  2
SW_NOTE_3
 10
104.6671002485
 20
523.4559745267
 30
0.0
  0
INSERT
  5
CB
330
1F
100
AcDbEntity
  8
0
  6
Continuous
 62
     7
370
     0
100
AcDbBlockReference
  2
SW_NOTE_4
 10
101.3464047661
 20
724.014583562
 30
0.0
  0
MTEXT
  5
CC
330
1F
100
AcDbEntity
  8
0
  6
Continuous
 62
     7
370
     0
100
AcDbMText
 10
77.2264788026
 20
959.5869895855
 30
0.0
 40
20.0
 41
0.0
 46
0.0
 71
     1
 72
     1
  1
Подп. и дата
  7
SLDTEXTSTYLE2
 11
-3.491481338843133E-15
 21
1.0
 31
0.0
 73
     1
 44
1.0
  0
MTEXT
  5
CD
330
1F
100
AcDbEntity
  8
0
  6
Continuous
 62
     7
370
     0
100
AcDbMText
 10
1236.5255635638
 20
36.0347816939
 30
0.0
 40
28.0
 41
0.0
 46
0.0
 71
     1
 72
     1
  1
Формат А4
  7
SLDTEXTSTYLE0
 73
     1
 44
1.0
  0
MTEXT
  5
CE
330
1F
100
AcDbEntity
  8
0
  6
Continuous
 62
     7
370
     0
100
AcDbMText
 10
829.042648067
 20
37.7595224035
 30
0.0
 40
28.0
 41
0.0
 46
0.0
 71
     1
 72
     1
  1
Копировал
  7
SLDTEXTSTYLE0
 73
     1
 44
1.0
  0
MTEXT
  5
CF
330
1F
100
AcDbEntity
  8
0
  6
Continuous
 62
     7
370
     0
100
AcDbMText
 10
1585.9759735627
 20
95.9366085923
 30
0.0
 40
40.0
 41
0.0
 46
0.0
 71
     1
 72
     1
  1
1
  7
SLDTEXTSTYLE1
 73
     1
 44
1.0
  0
MTEXT
  5
D0
330
1F
100
AcDbEntity
  8
0
  6
Continuous
 62
     7
370
     0
100
AcDbMText
 10
406.655808585
 20
2301.2553227824
 30
0.0
 40
42.3333333333
 41
0.0
 46
0.0
 71
     2
 72
     1
  1
WELTPLAST
  7
SLDTEXTSTYLE1
 73
     1
 44
1.0
  0
MTEXT
  5
D2
330
1F
100
AcDbEntity
  8
THICK_LINE
100
AcDbMText
 10
1611.3141450306
 20
11.0524996546
 30
0.0
 40
8.0
 41
0.0
 46
0.0
 71
     1
 72
     1
  1
TESIS
  7
SLDTEXTSTYLE3
 73
     1
 44
1.0
  0
MTEXT
  5
D3
330
1F
100
AcDbEntity
  8
THICK_LINE
100
AcDbMText
 10
733.6167391913
 20
123.6824336572
 30
0.0
 40
38.1
 41
0.0
 46
0.0
 71
     1
 72
     1
  1
Огонь подхода и светового горизонта
  7
SLDTEXTSTYLE0
 73
     1
 44
1.0
  0
LINE
  5
D4
330
1F
100
AcDbEntity
  8
0
  6
Continuous
 62
     7
370
    25
100
AcDbLine
 10
945.9598345644
 20
1648.9194291413
 30
0.0
 11
945.9598345644
 21
1652.4194291413
 31
0.0
  0
LINE
  5
D5
330
1F
100
AcDbEntity
  8
0
  6
Continuous
 62
     7
370
    25
100
AcDbLine
 10
945.9598345644
 20
1642.9194291413
 30
0.0
 11
945.9598345644
 21
1645.9194291413
 31
0.0
  0
ARC
  5
D6
330
1F
100
AcDbEntity
  8
0
  6
Continuous
 62
     7
370
    25
100
AcDbCircle
 10
941.9598345644
 20
1642.9194291413
 30
0.0
 40
4.0
100
AcDbArc
 50
270.0
 51
0.0
  0
ARC
  5
D7
330
1F
100
AcDbEntity
  8
0
  6
Continuous
 62
     7
370
    25
100
AcDbCircle
 10
928.4598345644
 20
1642.9194291413
 30
0.0
 40
4.000000000000047
100
AcDbArc
 50
196.4912333534
 51
270.0
  0
LINE
  5
D8
330
1F
100
AcDbEntity
  8
0
  6
Continuous
 62
     7
370
    25
100
AcDbLine
 10
945.0598345644
 20
1652.4194291413
 30
0.0
 11
945.0598345644
 21
1655.9194291413
 31
0.0
  0
LINE
  5
D9
330
1F
100
AcDbEntity
  8
0
  6
Continuous
 62
     7
370
    25
100
AcDbLine
 10
925.3598345644
 20
1655.9194291413
 30
0.0
 11
925.3598345644
 21
1652.4194291413
 31
0.0
  0
LINE
  5
DA
330
1F
100
AcDbEntity
  8
0
  6
Continuous
 62
     7
370
    25
100
AcDbLine
 10
924.7889291249
 20
1648.9194291413
 30
0.0
 11
924.7889291249
 21
1652.4194291413
 31
0.0
  0
LINE
  5
DB
330
1F
100
AcDbEntity
  8
0
  6
Continuous
 62
     7
370
    25
100
AcDbLine
 10
903.2889291249
 20
1652.4194291413
 30
0.0
 11
903.2889291249
 21
1648.9194291413
 31
0.0
  0
LINE
  5
DC
330
1F
100
AcDbEntity
  8
0
  6
Continuous
 62
     7
370
    25
100
AcDbLine
 10
924.7889291249
 20
1642.9194291413
 30
0.0
 11
924.7889291249
 21
1645.9194291413
 31
0.0
  0
LINE
  5
DD
330
1F
100
AcDbEntity
  8
0
  6
Continuous
 62
     7
370
    25
100
AcDbLine
 10
903.2889291249
 20
1645.9194291413
 30
0.0
 11
903.2889291249
 21
1642.9194291413
 31
0.0
  0
ARC
  5
DE
330
1F
100
AcDbEntity
  8
0
  6
Continuous
 62
     7
370
    25
100
AcDbCircle
 10
920.7889291249
 20
1642.9194291413
 30
0.0
 40
4.0
100
AcDbArc
 50
270.0
 51
0.0
  0
ARC
  5
DF
330
1F
100
AcDbEntity
  8
0
  6
Continuous
 62
     7
370
    25
100
AcDbCircle
 10
907.2889291249
 20
1642.9194291413
 30
0.0
 40
4.0
100
AcDbArc
 50
180.0
 51
270.0
  0
LINE
  5
E0
330
1F
100
AcDbEntity
  8
0
  6
Continuous
 62
     7
370
    25
100
AcDbLine
 10
923.8889291249
 20
1652.4194291413
 30
0.0
 11
923.8889291249
 21
1655.9194291413
 31
0.0
  0
LINE
  5
E1
330
1F
100
AcDbEntity
  8
0
  6
Continuous
 62
     7
370
    25
100
AcDbLine
 10
904.1889291249
 20
1655.9194291413
 30
0.0
 11
904.1889291249
 21
1652.4194291413
 31
0.0
  0
ARC
  5
E2
330
1F
100
AcDbEntity
  8
0
  6
Continuous
 62
     7
370
    25
100
AcDbCircle
 10
969.5035088059
 20
1806.7341544161
 30
0.0
 40
4.324969328314275
100
AcDbArc
 50
116.059831153
 51
151.4762140417
  0
ARC
  5
E3
330
1F
100
AcDbEntity
  8
0
  6
Continuous
 62
     7
370
    25
100
AcDbCircle
 10
969.5035088059
 20
1806.7341544161
 30
0.0
 40
4.324969328314311
100
AcDbArc
 50
28.5237859583
 51
63.940168847
  0
LINE
  5
E4
330
1F
100
AcDbEntity
  8
0
  6
Continuous
 62
     7
370
    25
100
AcDbLine
 10
965.7035088059
 20
1808.7994291413
 30
0.0
 11
965.7035088059
 21
1808.4194291413
 31
0.0
  0
LINE
  5
E5
330
1F
100
AcDbEntity
  8
0
  6
Continuous
 62
     7
370
    25
100
AcDbLine
 10
973.3035088059
 20
1808.4194291413
 30
0.0
 11
973.3035088059
 21
1808.7994291413
 31
0.0
  0
LINE
  5
E6
330
1F
100
AcDbEntity
  8
0
  6
Continuous
 62
     7
370
    25
100
AcDbLine
 10
937.3885799354
 20
1658.5394291413
 30
0.0
 11
937.3885799354
 21
1658.9194291413
 31
0.0
  0
LINE
  5
E7
330
1F
100
AcDbEntity
  8
0
  6
Continuous
 62
     7
370
    25
100
AcDbLine
 10
929.7885799354
 20
1658.9194291413
 30
0.0
 11
929.7885799354
 21
1658.5394291413
 31
0.0
  0
ARC
  5
E8
330
1F
100
AcDbEntity
  8
0
  6
Continuous
 62
     7
370
    25
100
AcDbCircle
 10
933.5885799354
 20
1660.6047038666
 30
0.0
 40
4.324969328314259
100
AcDbArc
 50
296.059831153
 51
331.4762140418
  0
ARC
  5
E9
330
1F
100
AcDbEntity
  8
0
  6
Continuous
 62
     7
370
    25
100
AcDbCircle
 10
933.5885799354
 20
1660.6047038666
 30
0.0
 40
4.324969328314338
100
AcDbArc
 50
208.5237859583
 51
243.940168847
  0
LINE
  5
EA
330
1F
100
AcDbEntity
  8
0
  6
Continuous
 62
     7
370
    25
100
AcDbLine
 10
964.3393107152
 20
1658.5394291413
 30
0.0
 11
964.3393107152
 21
1658.9194291413
 31
0.0
  0
LINE
  5
EB
330
1F
100
AcDbEntity
  8
0
  6
Continuous
 62
     7
370
    25
100
AcDbLine
 10
956.7393107152
 20
1658.9194291413
 30
0.0
 11
956.7393107152
 21
1658.5394291413
 31
0.0
  0
ARC
  5
EC
330
1F
100
AcDbEntity
  8
0
  6
Continuous
 62
     7
370
    25
100
AcDbCircle
 10
960.5393107152
 20
1660.6047038666
 30
0.0
 40
4.324969328314268
100
AcDbArc
 50
296.059831153
 51
331.4762140417
  0
ARC
  5
ED
330
1F
100
AcDbEntity
  8
0
  6
Continuous
 62
     7
370
    25
100
AcDbCircle
 10
960.5393107152
 20
1660.6047038666
 30
0.0
 40
4.324969328314543
100
AcDbArc
 50
208.5237859583
 51
243.940168847
  0
LINE
  5
EE
330
1F
100
AcDbEntity
  8
0
  6
Continuous
 62
     7
370
    25
100
AcDbLine
 10
883.5452548833
 20
1658.5394291413
 30
0.0
 11
883.5452548833
 21
1658.9194291413
 31
0.0
  0
LINE
  5
EF
330
1F
100
AcDbEntity
  8
0
  6
Continuous
 62
     7
370
    25
100
AcDbLine
 10
875.9452548833
 20
1658.9194291413
 30
0.0
 11
875.9452548833
 21
1658.5394291413
 31
0.0
  0
ARC
  5
F0
330
1F
100
AcDbEntity
  8
0
  6
Continuous
 62
     7
370
    25
100
AcDbCircle
 10
879.7452548833
 20
1660.6047038666
 30
0.0
 40
4.324969328314275
100
AcDbArc
 50
296.059831153
 51
331.4762140418
  0
ARC
  5
F1
330
1F
100
AcDbEntity
  8
0
  6
Continuous
 62
     7
370
    25
100
AcDbCircle
 10
879.7452548833
 20
1660.6047038666
 30
0.0
 40
4.324969328314338
100
AcDbArc
 50
208.5237859583
 51
243.940168847
  0
ARC
  5
F2
330
1F
100
AcDbEntity
  8
0
  6
Continuous
 62
     7
370
    25
100
AcDbCircle
 10
933.5885799353
 20
1806.7341544161
 30
0.0
 40
4.324969328314275
100
AcDbArc
 50
116.059831153
 51
151.4762140417
  0
ARC
  5
F3
330
1F
100
AcDbEntity
  8
0
  6
Continuous
 62
     7
370
    25
100
AcDbCircle
 10
933.5885799353
 20
1806.7341544161
 30
0.0
 40
4.324969328314543
100
AcDbArc
 50
28.5237859583
 51
63.940168847
  0
LINE
  5
F4
330
1F
100
AcDbEntity
  8
0
  6
Continuous
 62
     7
370
    25
100
AcDbLine
 10
929.7885799353
 20
1808.7994291413
 30
0.0
 11
929.7885799353
 21
1808.4194291413
 31
0.0
  0
LINE
  5
F5
330
1F
100
AcDbEntity
  8
0
  6
Continuous
 62
     7
370
    25
100
AcDbLine
 10
937.3885799353
 20
1808.4194291413
 30
0.0
 11
937.3885799353
 21
1808.7994291413
 31
0.0
  0
LINE
  5
F6
330
1F
100
AcDbEntity
  8
0
  6
Continuous
 62
     7
370
    25
100
AcDbLine
 10
973.303508806
 20
1658.5394291413
 30
0.0
 11
973.303508806
 21
1658.9194291413
 31
0.0
  0
LINE
  5
F7
330
1F
100
AcDbEntity
  8
0
  6
Continuous
 62
     7
370
    25
100
AcDbLine
 10
965.703508806
 20
1658.9194291413
 30
0.0
 11
965.703508806
 21
1658.5394291413
 31
0.0
  0
ARC
  5
F8
330
1F
100
AcDbEntity
  8
0
  6
Continuous
 62
     7
370
    25
100
AcDbCircle
 10
969.503508806
 20
1660.6047038666
 30
0.0
 40
4.324969328314259
100
AcDbArc
 50
296.059831153
 51
331.4762140418
  0
ARC
  5
F9
330
1F
100
AcDbEntity
  8
0
  6
Continuous
 62
     7
370
    25
100
AcDbCircle
 10
969.503508806
 20
1660.6047038666
 30
0.0
 40
4.324969328314203
100
AcDbArc
 50
208.5237859583
 51
243.940168847
  0
LINE
  5
FA
330
1F
100
AcDbEntity
  8
0
  6
Continuous
 62
     7
370
    25
100
AcDbLine
 10
892.509452974
 20
1658.5394291413
 30
0.0
 11
892.509452974
 21
1658.9194291413
 31
0.0
  0
LINE
  5
FB
330
1F
100
AcDbEntity
  8
0
  6
Continuous
 62
     7
370
    25
100
AcDbLine
 10
884.909452974
 20
1658.9194291413
 30
0.0
 11
884.909452974
 21
1658.5394291413
 31
0.0
  0
ARC
  5
FC
330
1F
100
AcDbEntity
  8
0
  6
Continuous
 62
     7
370
    25
100
AcDbCircle
 10
888.709452974
 20
1660.6047038666
 30
0.0
 40
4.324969328314268
100
AcDbArc
 50
296.059831153
 51
331.4762140417
  0
ARC
  5
FD
330
1F
100
AcDbEntity
  8
0
  6
Continuous
 62
     7
370
    25
100
AcDbCircle
 10
888.709452974
 20
1660.6047038666
 30
0.0
 40
4.324969328314593
100
AcDbArc
 50
208.5237859583
 51
243.940168847
  0
ARC
  5
FE
330
1F
100
AcDbEntity
  8
0
  6
Continuous
 62
     7
370
    25
100
AcDbCircle
 10
879.7452548832
 20
1806.7341544161
 30
0.0
 40
4.324969328314268
100
AcDbArc
 50
116.059831153
 51
151.4762140417
  0
LWPOLYLINE
  5
FF
330
1F
100
AcDbEntity
  8
0
  6
Continuous
 62
     7
370
    25
100
AcDbPolyline
 90
        3
 70
   128
 43
0.0
 10
882.1243818446
 20
1810.3459565414
 10
881.939489289
 20
1810.4611766944
 10
881.6452548832
 20
1810.6194291413
  0
LINE
  5
100
330
1F
100
AcDbEntity
  8
0
  6
Continuous
 62
     7
370
    25
100
AcDbLine
 10
875.9452548832
 20
1808.7994291413
 30
0.0
 11
875.9452548832
 21
1808.4194291413
 31
0.0
  0
ARC
  5
101
330
1F
100
AcDbEntity
  8
0
  6
Continuous
 62
     7
370
    25
100
AcDbCircle
 10
888.709452974
 20
1806.734154416
 30
0.0
 40
4.324969328314225
100
AcDbArc
 50
116.059831153
 51
151.4762140417
  0
ARC
  5
102
330
1F
100
AcDbEntity
  8
0
  6
Continuous
 62
     7
370
    25
100
AcDbCircle
 10
888.709452974
 20
1806.734154416
 30
0.0
 40
4.324969328314133
100
AcDbArc
 50
28.5237859583
 51
63.940168847
  0
LINE
  5
103
330
1F
100
AcDbEntity
  8
0
  6
Continuous
 62
     7
370
    25
100
AcDbLine
 10
884.909452974
 20
1808.7994291413
 30
0.0
 11
884.909452974
 21
1808.4194291413
 31
0.0
  0
LINE
  5
104
330
1F
100
AcDbEntity
  8
0
  6
Continuous
 62
     7
370
    25
100
AcDbLine
 10
892.509452974
 20
1808.4194291413
 30
0.0
 11
892.509452974
 21
1808.7994291413
 31
0.0
  0
ARC
  5
105
330
1F
100
AcDbEntity
  8
0
  6
Continuous
 62
     7
370
    25
100
AcDbCircle
 10
940.0885799354
 20
1807.4194291413
 30
0.0
 40
1.0
100
AcDbArc
 50
0.0
 51
90.0
  0
LINE
  5
106
330
1F
100
AcDbEntity
  8
0
  6
Continuous
 62
     7
370
    25
100
AcDbLine
 10
941.0885799354
 20
1795.4194291413
 30
0.0
 11
941.0885799354
 21
1807.4194291413
 31
0.0
  0
ARC
  5
107
330
1F
100
AcDbEntity
  8
0
  6
Continuous
 62
     7
370
    25
100
AcDbCircle
 10
881.1243818446
 20
1809.4194291413
 30
0.0
 40
1.0
100
AcDbArc
 50
270.0
 51
0.0
  0
ARC
  5
108
330
1F
100
AcDbEntity
  8
0
  6
Continuous
 62
     7
370
    25
100
AcDbCircle
 10
884.1243818446
 20
1846.4194291413
 30
0.0
 40
2.0
100
AcDbArc
 50
90.0
 51
180.0
  0
ARC
  5
109
330
1F
100
AcDbEntity
  8
0
  6
Continuous
 62
     7
370
    25
100
AcDbCircle
 10
965.1243818446
 20
1846.4194291413
 30
0.0
 40
2.0
100
AcDbArc
 50
0.0
 51
90.0
  0
LINE
  5
10A
330
1F
100
AcDbEntity
  8
0
  6
Continuous
 62
     7
370
    25
100
AcDbLine
 10
967.1243818446
 20
1810.3459565414
 30
0.0
 11
967.1243818446
 21
1846.4194291413
 31
0.0
  0
LINE
  5
10B
330
1F
100
AcDbEntity
  8
0
  6
Continuous
 62
     7
370
    25
100
AcDbLine
 10
882.1243818446
 20
1846.4194291413
 30
0.0
 11
882.1243818446
 21
1809.4194291413
 31
0.0
  0
ARC
  5
10C
330
1F
100
AcDbEntity
  8
0
  6
Continuous
 62
     7
370
    25
100
AcDbCircle
 10
882.209452974
 20
1807.4194291413
 30
0.0
 40
1.000000000000227
100
AcDbArc
 50
90.0
 51
180.0
  0
LINE
  5
10D
330
1F
100
AcDbEntity
  8
0
  6
Continuous
 62
     7
370
    25
100
AcDbLine
 10
881.209452974
 20
1807.4194291413
 30
0.0
 11
881.209452974
 21
1795.4194291413
 31
0.0
  0
ARC
  5
10E
330
1F
100
AcDbEntity
  8
0
  6
Continuous
 62
     7
370
    25
100
AcDbCircle
 10
976.003508806
 20
1807.4194291413
 30
0.0
 40
1.0
100
AcDbArc
 50
0.0
 51
90.0
  0
LINE
  5
10F
330
1F
100
AcDbEntity
  8
0
  6
Continuous
 62
     7
370
    25
100
AcDbLine
 10
977.003508806
 20
1795.4194291413
 30
0.0
 11
977.003508806
 21
1807.4194291413
 31
0.0
  0
ARC
  5
110
330
1F
100
AcDbEntity
  8
0
  6
Continuous
 62
     7
370
    25
100
AcDbCircle
 10
879.6243818446
 20
1807.4194291413
 30
0.0
 40
1.000000000000227
100
AcDbArc
 50
90.0
 51
180.0
  0
LINE
  5
111
330
1F
100
AcDbEntity
  8
0
  6
Continuous
 62
     7
370
    25
100
AcDbLine
 10
878.6243818446
 20
1807.4194291413
 30
0.0
 11
878.6243818446
 21
1795.4194291413
 31
0.0
  0
ARC
  5
112
330
1F
100
AcDbEntity
  8
0
  6
Continuous
 62
     7
370
    25
100
AcDbCircle
 10
873.2452548832
 20
1807.4194291413
 30
0.0
 40
1.0
100
AcDbArc
 50
90.0
 51
180.0
  0
LINE
  5
113
330
1F
100
AcDbEntity
  8
0
  6
Continuous
 62
     7
370
    25
100
AcDbLine
 10
872.2452548832
 20
1807.4194291413
 30
0.0
 11
872.2452548832
 21
1795.4194291413
 31
0.0
  0
LINE
  5
114
330
1F
100
AcDbEntity
  8
0
  6
Continuous
 62
     7
370
    25
100
AcDbLine
 10
937.5885799354
 20
1660.4194291413
 30
0.0
 11
937.5885799354
 21
1661.9194291413
 31
0.0
  0
LINE
  5
115
330
1F
100
AcDbEntity
  8
0
  6
Continuous
 62
     7
370
    25
100
AcDbLine
 10
884.709452974
 20
1661.9194291413
 30
0.0
 11
884.709452974
 21
1660.4194291413
 31
0.0
  0
LINE
  5
116
330
1F
100
AcDbEntity
  8
0
  6
Continuous
 62
     7
370
    25
100
AcDbLine
 10
882.1243818446
 20
1661.9194291413
 30
0.0
 11
882.1243818446
 21
1660.4194291413
 31
0.0
  0
LINE
  5
117
330
1F
100
AcDbEntity
  8
0
  6
Continuous
 62
     7
370
    25
100
AcDbLine
 10
973.503508806
 20
1660.4194291413
 30
0.0
 11
973.503508806
 21
1661.9194291413
 31
0.0
  0
LINE
  5
118
330
1F
100
AcDbEntity
  8
0
  6
Continuous
 62
     7
370
    25
100
AcDbLine
 10
875.7452548832
 20
1661.9194291413
 30
0.0
 11
875.7452548832
 21
1660.4194291413
 31
0.0
  0
LINE
  5
119
330
1F
100
AcDbEntity
  8
0
  6
Continuous
 62
     7
370
    25
100
AcDbLine
 10
937.5885799355
 20
1658.9194291413
 30
0.0
 11
937.5885799355
 21
1660.4194291413
 31
0.0
  0
LINE
  5
11A
330
1F
100
AcDbEntity
  8
0
  6
Continuous
 62
     7
370
    25
100
AcDbLine
 10
884.7094529741
 20
1660.4194291413
 30
0.0
 11
884.7094529741
 21
1658.9194291413
 31
0.0
  0
LINE
  5
11B
330
1F
100
AcDbEntity
  8
0
  6
Continuous
 62
     7
370
    25
100
AcDbLine
 10
882.1243818447
 20
1660.4194291413
 30
0.0
 11
882.1243818447
 21
1658.9194291413
 31
0.0
  0
LINE
  5
11C
330
1F
100
AcDbEntity
  8
0
  6
Continuous
 62
     7
370
    25
100
AcDbLine
 10
973.5035088061
 20
1658.9194291413
 30
0.0
 11
973.5035088061
 21
1660.4194291413
 31
0.0
  0
LINE
  5
11D
330
1F
100
AcDbEntity
  8
0
  6
Continuous
 62
     7
370
    25
100
AcDbLine
 10
875.7452548833
 20
1660.4194291413
 30
0.0
 11
875.7452548833
 21
1658.9194291413
 31
0.0
  0
LINE
  5
11E
330
1F
100
AcDbEntity
  8
0
  6
Continuous
 62
     7
370
    25
100
AcDbLine
 10
937.5885799354
 20
1661.9194291413
 30
0.0
 11
937.5885799354
 21
1795.4194291413
 31
0.0
  0
LINE
  5
11F
330
1F
100
AcDbEntity
  8
0
  6
Continuous
 62
     7
370
    25
100
AcDbLine
 10
884.709452974
 20
1795.4194291413
 30
0.0
 11
884.709452974
 21
1661.9194291413
 31
0.0
  0
LINE
  5
120
330
1F
100
AcDbEntity
  8
0
  6
Continuous
 62
     7
370
    25
100
AcDbLine
 10
882.1243818446
 20
1795.4194291413
 30
0.0
 11
882.1243818447
 21
1661.9194291413
 31
0.0
  0
LINE
  5
121
330
1F
100
AcDbEntity
  8
0
  6
Continuous
 62
     7
370
    25
100
AcDbLine
 10
973.503508806
 20
1661.9194291413
 30
0.0
 11
973.503508806
 21
1795.4194291413
 31
0.0
  0
LINE
  5
122
330
1F
100
AcDbEntity
  8
0
  6
Continuous
 62
     7
370
    25
100
AcDbLine
 10
875.7452548833
 20
1795.4194291413
 30
0.0
 11
875.7452548833
 21
1661.9194291413
 31
0.0
  0
LINE
  5
123
330
1F
100
AcDbEntity
  8
0
  6
Continuous
 62
     7
370
    25
100
AcDbLine
 10
900.045066116
 20
1553.8012337855
 30
0.0
 11
900.045066116
 21
1553.6512337855
 31
0.0
  0
LINE
  5
124
330
1F
100
AcDbEntity
  8
0
  6
Continuous
 62
     7
370
    25
100
AcDbLine
 10
934.4680844314
 20
1546.7512337855
 30
0.0
 11
934.4680844314
 21
1548.1512337855
 31
0.0
  0
LINE
  5
125
330
1F
100
AcDbEntity
  8
0
  6
Continuous
 62
     7
370
    25
100
AcDbLine
 10
893.6097738184
 20
1548.1512337855
 30
0.0
 11
893.6097738184
 21
1546.7512337855
 31
0.0
  0
LINE
  5
126
330
1F
100
AcDbEntity
  8
0
  6
Continuous
 62
     7
370
    25
100
AcDbLine
 10
932.8680844314
 20
1548.1512337855
 30
0.0
 11
932.8680844314
 21
1553.6512337855
 31
0.0
  0
LINE
  5
127
330
1F
100
AcDbEntity
  8
0
  6
Continuous
 62
     7
370
    25
100
AcDbLine
 10
895.2097738184
 20
1553.6512337855
 30
0.0
 11
895.2097738184
 21
1548.1512337855
 31
0.0
  0
LINE
  5
128
330
1F
100
AcDbEntity
  8
0
  6
Continuous
 62
     7
370
    25
100
AcDbLine
 10
955.6389898709
 20
1569.2512337855
 30
0.0
 11
955.6389898709
 21
1570.6512337855
 31
0.0
  0
LINE
  5
129
330
1F
100
AcDbEntity
  8
0
  6
Continuous
 62
     7
370
    25
100
AcDbLine
 10
954.0389898709
 20
1563.7512337855
 30
0.0
 11
954.0389898709
 21
1569.2512337855
 31
0.0
  0
LWPOLYLINE
  5
12A
330
1F
100
AcDbEntity
  8
0
  6
Continuous
 62
     7
370
    25
100
AcDbPolyline
 90
        9
 70
   128
 43
0.0
 10
900.7855790668
 20
1533.2600859857
 10
900.8734161635
 20
1531.9019635603
 10
901.2078612355
 20
1529.9589218477
 10
901.6958807897
 20
1528.103148929
 10
902.4128758048
 20
1525.764344832
 10
903.1365437408
 20
1523.2347204636
 10
903.5579945679
 20
1521.2151675947
 10
903.7625507581
 20
1519.3489368582
 10
903.7725345507
 20
1518.4824852242
  0
LINE
  5
12B
330
1F
100
AcDbEntity
  8
0
  6
Continuous
 62
     7
370
    25
100
AcDbLine
 10
900.7627642845
 20
1542.2512337855
 30
0.0
 11
900.7627642845
 21
1533.2593361371
 31
0.0
  0
LWPOLYLINE
  5
12C
330
1F
100
AcDbEntity
  8
0
  6
Continuous
 62
     7
370
    25
100
AcDbPolyline
 90
        9
 70
   128
 43
0.0
 10
924.2950905615
 20
1518.4829529744
 10
924.2960533232
 20
1518.8837608408
 10
924.4522817242
 20
1520.7596199764
 10
924.8120090301
 20
1522.7001126396
 10
925.3983116842
 20
1524.8849785174
 10
926.278379784
 20
1527.7530319487
 10
926.8616449327
 20
1529.9223313866
 10
927.2054128829
 20
1531.9107146103
 10
927.2949941076
 20
1533.2599269813
  0
LINE
  5
12D
330
1F
100
AcDbEntity
  8
0
  6
Continuous
 62
     7
370
    25
100
AcDbLine
 10
924.2906789026
 20
1508.4830384297
 30
0.0
 11
924.2906789026
 21
1518.4830384297
 31
0.0
  0
LINE
  5
12E
330
1F
100
AcDbEntity
  8
0
  6
Continuous
 62
     7
370
    25
100
AcDbLine
 10
903.7871793473
 20
1518.4830384297
 30
0.0
 11
903.7871793473
 21
1508.4830384297
 31
0.0
  0
LINE
  5
12F
330
1F
100
AcDbEntity
  8
0
  6
Continuous
 62
     7
370
    25
100
AcDbLine
 10
927.3150939653
 20
1533.2593361371
 30
0.0
 11
927.3150939653
 21
1542.2512337855
 31
0.0
  0
ARC
  5
130
330
1F
100
AcDbEntity
  8
0
  6
Continuous
 62
     7
370
    25
100
AcDbCircle
 10
911.7016718509
 20
1518.807561851
 30
0.0
 40
13.24575774609903
100
AcDbArc
 50
358.5937090717
 51
12.6256744762
  0
LWPOLYLINE
  5
131
330
1F
100
AcDbEntity
  8
0
  6
Continuous
 62
     7
370
    25
100
AcDbPolyline
 90
        9
 70
   128
 43
0.0
 10
945.465996001
 20
1518.4829529744
 10
945.4669587627
 20
1518.8837608408
 10
945.6231871637
 20
1520.7596199764
 10
945.9829144696
 20
1522.7001126396
 10
946.5692171237
 20
1524.8849785174
 10
947.4492852236
 20
1527.7530319487
 10
948.0325503722
 20
1529.9223313866
 10
948.3763183224
 20
1531.9107146103
 10
948.4658995472
 20
1533.2599269813
  0
LINE
  5
132
330
1F
100
AcDbEntity
  8
0
  6
Continuous
 62
     7
370
    25
100
AcDbLine
 10
945.4615843421
 20
1508.4830384297
 30
0.0
 11
945.4615843421
 21
1518.4830384297
 31
0.0
  0
LINE
  5
133
330
1F
100
AcDbEntity
  8
0
  6
Continuous
 62
     7
370
    25
100
AcDbLine
 10
924.9580847868
 20
1518.4830384297
 30
0.0
 11
924.9580847868
 21
1508.4830384297
 31
0.0
  0
LINE
  5
134
330
1F
100
AcDbEntity
  8
0
  6
Continuous
 62
     7
370
    25
100
AcDbLine
 10
948.4859994049
 20
1533.2593361371
 30
0.0
 11
948.4859994049
 21
1542.2512337855
 31
0.0
  0
ARC
  5
135
330
1F
100
AcDbEntity
  8
0
  6
Continuous
 62
     7
370
    25
100
AcDbCircle
 10
910.7805249563
 20
1598.7540299691
 30
0.0
 40
14.17411395351537
100
AcDbArc
 50
347.5556857854
 51
0.6688709872
  0
LWPOLYLINE
  5
136
330
1F
100
AcDbEntity
  8
0
  6
Continuous
 62
     7
370
    25
100
AcDbPolyline
 90
        9
 70
   128
 43
0.0
 10
948.4631846225
 20
1584.1423815854
 10
948.3753475259
 20
1585.5005040108
 10
948.0409024538
 20
1587.4435457233
 10
947.5528828996
 20
1589.2993186421
 10
946.8358878845
 20
1591.638122739
 10
946.1122199486
 20
1594.1677471074
 10
945.6907691214
 20
1596.1872999763
 10
945.4862129312
 20
1598.0535307129
 10
945.4762301498
 20
1598.9198945883
  0
LINE
  5
137
330
1F
100
AcDbEntity
  8
0
  6
Continuous
 62
     7
370
    25
100
AcDbLine
 10
945.4615843421
 20
1598.9194291413
 30
0.0
 11
945.4615843421
 21
1608.9194291413
 31
0.0
  0
LINE
  5
138
330
1F
100
AcDbEntity
  8
0
  6
Continuous
 62
     7
370
    25
100
AcDbLine
 10
924.9580847868
 20
1608.9194291413
 30
0.0
 11
924.9580847868
 21
1598.9194291413
 31
0.0
  0
LINE
  5
139
330
1F
100
AcDbEntity
  8
0
  6
Continuous
 62
     7
370
    25
100
AcDbLine
 10
948.4859994048
 20
1575.1512337855
 30
0.0
 11
948.4859994048
 21
1584.143131434
 31
0.0
  0
LWPOLYLINE
  5
13A
330
1F
100
AcDbEntity
  8
0
  6
Continuous
 62
     7
370
    25
100
AcDbPolyline
 90
        9
 70
   128
 43
0.0
 10
903.7827676408
 20
1598.9194948312
 10
903.7818049266
 20
1598.5187067303
 10
903.6255765256
 20
1596.6428475946
 10
903.2658492197
 20
1594.7023549314
 10
902.6795465656
 20
1592.5174890536
 10
901.7994784658
 20
1589.6494356224
 10
901.2162133172
 20
1587.4801361844
 10
900.8724453669
 20
1585.4917529608
 10
900.7828641422
 20
1584.1425405897
  0
LINE
  5
13B
330
1F
100
AcDbEntity
  8
0
  6
Continuous
 62
     7
370
    25
100
AcDbLine
 10
900.7627642845
 20
1584.143131434
 30
0.0
 11
900.7627642845
 21
1577.4012337855
 31
0.0
  0
LWPOLYLINE
  5
13C
330
1F
100
AcDbEntity
  8
0
  6
Continuous
 62
     7
370
    25
100
AcDbPolyline
 90
        9
 70
   128
 43
0.0
 10
927.292279183
 20
1584.1423815854
 10
927.2044420864
 20
1585.5005040108
 10
926.8699970143
 20
1587.4435457233
 10
926.3819774601
 20
1589.2993186421
 10
925.664982445
 20
1591.638122739
 10
924.941314509
 20
1594.1677471074
 10
924.5198636819
 20
1596.1872999763
 10
924.3153074917
 20
1598.0535307129
 10
924.3053247103
 20
1598.9198945883
  0
LINE
  5
13D
330
1F
100
AcDbEntity
  8
0
  6
Continuous
 62
     7
370
    25
100
AcDbLine
 10
924.2906789025
 20
1598.9194291413
 30
0.0
 11
924.2906789025
 21
1608.9194291413
 31
0.0
  0
LINE
  5
13E
330
1F
100
AcDbEntity
  8
0
  6
Continuous
 62
     7
370
    25
100
AcDbLine
 10
903.7871793473
 20
1608.9194291413
 30
0.0
 11
903.7871793473
 21
1598.9194291413
 31
0.0
  0
LINE
  5
13F
330
1F
100
AcDbEntity
  8
0
  6
Continuous
 62
     7
370
    25
100
AcDbLine
 10
927.3150939653
 20
1575.1512337855
 30
0.0
 11
927.3150939653
 21
1584.143131434
 31
0.0
  0
ARC
  5
140
330
1F
100
AcDbEntity
  8
0
  6
Continuous
 62
     7
370
    25
100
AcDbCircle
 10
909.7875034228
 20
1575.7260736897
 30
0.0
 40
1.653919803628877
100
AcDbArc
 50
85.324729682
 51
132.4952611987
  0
LWPOLYLINE
  5
141
330
1F
100
AcDbEntity
  8
0
  6
Continuous
 62
     7
370
    25
100
AcDbPolyline
 90
        3
 70
   128
 43
0.0
 10
908.6669554857
 20
1576.9504676136
 10
908.1957721258
 20
1576.5522041775
 10
906.8557360943
 20
1575.3172642962
  0
ARC
  5
142
330
1F
100
AcDbEntity
  8
0
  6
Continuous
 62
     7
370
    25
100
AcDbCircle
 10
908.1027958765
 20
1573.9545349532
 30
0.0
 40
1.829318338309458
100
AcDbArc
 50
132.4621535115
 51
184.0358387981
  0
LINE
  5
143
330
1F
100
AcDbEntity
  8
0
  6
Continuous
 62
     7
370
    25
100
AcDbLine
 10
906.2578016525
 20
1573.826092925
 30
0.0
 11
906.2578016525
 21
1571.4012337855
 31
0.0
  0
LINE
  5
144
330
1F
100
AcDbEntity
  8
0
  6
Continuous
 62
     7
370
    25
100
AcDbLine
 10
899.9221422085
 20
1553.8012337855
 30
0.0
 11
899.9221422085
 21
1553.6512337855
 31
0.0
  0
LINE
  5
145
330
1F
100
AcDbEntity
  8
0
  6
Continuous
 62
     7
370
    25
100
AcDbLine
 10
928.1557160414
 20
1553.6512337855
 30
0.0
 11
928.1557160414
 21
1569.2512337855
 31
0.0
  0
LINE
  5
146
330
1F
100
AcDbEntity
  8
0
  6
Continuous
 62
     7
370
    25
100
AcDbLine
 10
928.1557160414
 20
1570.6512337855
 30
0.0
 11
928.1557160414
 21
1575.1512337855
 31
0.0
  0
LINE
  5
147
330
1F
100
AcDbEntity
  8
0
  6
Continuous
 62
     7
370
    25
100
AcDbLine
 10
949.3266214809
 20
1542.2512337855
 30
0.0
 11
949.3266214809
 21
1563.7512337855
 31
0.0
  0
LINE
  5
148
330
1F
100
AcDbEntity
  8
0
  6
Continuous
 62
     7
370
    25
100
AcDbLine
 10
921.5389291249
 20
1608.9194291413
 30
0.0
 11
921.5389291249
 21
1638.9194291413
 31
0.0
  0
LINE
  5
149
330
1F
100
AcDbEntity
  8
0
  6
Continuous
 62
     7
370
    25
100
AcDbLine
 10
906.5389291249
 20
1638.9194291413
 30
0.0
 11
906.5389291249
 21
1608.9194291413
 31
0.0
  0
LINE
  5
14A
330
1F
100
AcDbEntity
  8
0
  6
Continuous
 62
     7
370
    25
100
AcDbLine
 10
942.7098345645
 20
1608.9194291413
 30
0.0
 11
942.7098345645
 21
1638.9194291413
 31
0.0
  0
LINE
  5
14B
330
1F
100
AcDbEntity
  8
0
  6
Continuous
 62
     7
370
    25
100
AcDbLine
 10
927.7098345645
 20
1638.9194291413
 30
0.0
 11
927.7098345645
 21
1608.9194291413
 31
0.0
  0
LINE
  5
14C
330
1F
100
AcDbEntity
  8
0
  6
Continuous
 62
     7
370
    25
100
AcDbLine
 10
854.9898910054
 20
1684.0611357249
 30
0.0
 11
854.9898910054
 21
1689.7777225577
 31
0.0
  0
LINE
  5
14D
330
1F
100
AcDbEntity
  8
0
  6
Continuous
 62
     7
370
    25
100
AcDbLine
 10
894.6364141403
 20
1588.4194291413
 30
0.0
 11
894.6364141403
 21
1643.4194291413
 31
0.0
  0
LINE
  5
14E
330
1F
100
AcDbEntity
  8
0
  6
Continuous
 62
     7
370
    25
100
AcDbLine
 10
854.4364141403
 20
1643.4194291413
 30
0.0
 11
854.4364141403
 21
1588.4194291413
 31
0.0
  0
LINE
  5
14F
330
1F
100
AcDbEntity
  8
0
  6
Continuous
 62
     7
370
    25
100
AcDbLine
 10
894.6364141403
 20
1478.4194291413
 30
0.0
 11
894.6364141403
 21
1533.4194291413
 31
0.0
  0
LINE
  5
150
330
1F
100
AcDbEntity
  8
0
  6
Continuous
 62
     7
370
    25
100
AcDbLine
 10
854.4364141403
 20
1533.4194291413
 30
0.0
 11
854.4364141403
 21
1478.4194291413
 31
0.0
  0
LINE
  5
151
330
1F
100
AcDbEntity
  8
0
  6
Continuous
 62
     7
370
    25
100
AcDbLine
 10
894.5364141403
 20
1643.4194291413
 30
0.0
 11
894.5364141403
 21
1658.9194291413
 31
0.0
  0
LINE
  5
152
330
1F
100
AcDbEntity
  8
0
  6
Continuous
 62
     7
370
    25
100
AcDbLine
 10
854.5364141403
 20
1726.4194291413
 30
0.0
 11
854.5364141403
 21
1711.9194291413
 31
0.0
  0
LINE
  5
153
330
1F
100
AcDbEntity
  8
0
  6
Continuous
 62
     7
370
    25
100
AcDbLine
 10
854.5364141403
 20
1661.9194291413
 30
0.0
 11
854.5364141403
 21
1643.4194291413
 31
0.0
  0
LINE
  5
154
330
1F
100
AcDbEntity
  8
0
  6
Continuous
 62
     7
370
    25
100
AcDbLine
 10
894.5364141403
 20
1408.4194291413
 30
0.0
 11
894.5364141403
 21
1478.4194291413
 31
0.0
  0
LINE
  5
155
330
1F
100
AcDbEntity
  8
0
  6
Continuous
 62
     7
370
    25
100
AcDbLine
 10
854.5364141403
 20
1478.4194291413
 30
0.0
 11
854.5364141403
 21
1408.4194291413
 31
0.0
  0
LINE
  5
156
330
1F
100
AcDbEntity
  8
0
  6
Continuous
 62
     7
370
    25
100
AcDbLine
 10
894.5364141403
 20
1533.4194291413
 30
0.0
 11
894.5364141403
 21
1544.3313549418
 31
0.0
  0
LINE
  5
157
330
1F
100
AcDbEntity
  8
0
  6
Continuous
 62
     7
370
    25
100
AcDbLine
 10
894.5364141403
 20
1548.1512337855
 30
0.0
 11
894.5364141403
 21
1588.4194291413
 31
0.0
  0
LINE
  5
158
330
1F
100
AcDbEntity
  8
0
  6
Continuous
 62
     7
370
    25
100
AcDbLine
 10
854.5364141403
 20
1588.4194291413
 30
0.0
 11
854.5364141403
 21
1533.4194291413
 31
0.0
  0
LINE
  5
159
330
1F
100
AcDbEntity
  8
0
  6
Continuous
 62
     7
370
    25
100
AcDbLine
 10
859.2364141403
 20
1408.4194291413
 30
0.0
 11
859.2364141403
 21
1398.4194291413
 31
0.0
  0
LINE
  5
15A
330
1F
100
AcDbEntity
  8
0
  6
Continuous
 62
     7
370
    25
100
AcDbLine
 10
889.8364141403
 20
1398.4194291413
 30
0.0
 11
889.8364141403
 21
1408.4194291413
 31
0.0
  0
LINE
  5
15B
330
1F
100
AcDbEntity
  8
0
  6
Continuous
 62
     7
370
    25
100
AcDbLine
 10
929.7779581599
 20
1658.9194291413
 30
0.0
 11
929.7779581599
 21
1655.9194291413
 31
0.0
  0
LINE
  5
15C
330
1F
100
AcDbEntity
  8
0
  6
Continuous
 62
     7
370
    25
100
AcDbLine
 10
942.4372880896
 20
1658.9194291413
 30
0.0
 11
942.4372880896
 21
1655.9194291413
 31
0.0
  0
LINE
  5
15D
330
1F
100
AcDbEntity
  8
0
  6
Continuous
 62
     7
370
    25
100
AcDbLine
 10
942.4372880896
 20
1655.9194291413
 30
0.0
 11
929.7779581599
 21
1655.9194291413
 31
0.0
  0
LINE
  5
15E
330
1F
100
AcDbEntity
  8
0
  6
Continuous
 62
     7
370
    25
100
AcDbLine
 10
929.7779581599
 20
1648.9194291413
 30
0.0
 11
929.7779581599
 21
1645.9194291413
 31
0.0
  0
LINE
  5
15F
330
1F
100
AcDbEntity
  8
0
  6
Continuous
 62
     7
370
    25
100
AcDbLine
 10
942.4372880896
 20
1648.9194291413
 30
0.0
 11
942.4372880896
 21
1645.9194291413
 31
0.0
  0
LINE
  5
160
330
1F
100
AcDbEntity
  8
0
  6
Continuous
 62
     7
370
    25
100
AcDbLine
 10
942.4372880896
 20
1645.9194291413
 30
0.0
 11
929.7779581599
 21
1645.9194291413
 31
0.0
  0
LINE
  5
161
330
1F
100
AcDbEntity
  8
0
  6
Continuous
 62
     7
370
    25
100
AcDbLine
 10
942.4372880896
 20
1648.9194291413
 30
0.0
 11
929.7779581599
 21
1648.9194291413
 31
0.0
  0
LINE
  5
162
330
1F
100
AcDbEntity
  8
0
  6
Continuous
 62
     7
370
    25
100
AcDbLine
 10
945.2512182144
 20
1652.4194291413
 30
0.0
 11
924.7889291249
 21
1652.4194291413
 31
0.0
  0
LINE
  5
163
330
1F
100
AcDbEntity
  8
0
  6
Continuous
 62
     7
370
    25
100
AcDbLine
 10
945.9598345644
 20
1652.4194291413
 30
0.0
 11
945.2512182144
 21
1652.4194291413
 31
0.0
  0
LINE
  5
164
330
1F
100
AcDbEntity
  8
0
  6
Continuous
 62
     7
370
    25
100
AcDbLine
 10
929.7779581599
 20
1655.9194291413
 30
0.0
 11
926.6982590546
 21
1655.9194291413
 31
0.0
  0
LINE
  5
165
330
1F
100
AcDbEntity
  8
0
  6
Continuous
 62
     7
370
    25
100
AcDbLine
 10
929.7779581599
 20
1645.9194291413
 30
0.0
 11
926.6982590546
 21
1645.9194291413
 31
0.0
  0
LINE
  5
166
330
1F
100
AcDbEntity
  8
0
  6
Continuous
 62
     7
370
    25
100
AcDbLine
 10
929.7779581599
 20
1648.9194291413
 30
0.0
 11
926.6982590546
 21
1648.9194291413
 31
0.0
  0
LINE
  5
167
330
1F
100
AcDbEntity
  8
0
  6
Continuous
 62
     7
370
    25
100
AcDbLine
 10
947.8691644941
 20
1658.9194291413
 30
0.0
 11
947.8691644941
 21
1655.9194291413
 31
0.0
  0
LINE
  5
168
330
1F
100
AcDbEntity
  8
0
  6
Continuous
 62
     7
370
    25
100
AcDbLine
 10
947.8691644941
 20
1655.9194291413
 30
0.0
 11
942.4372880896
 21
1655.9194291413
 31
0.0
  0
LINE
  5
169
330
1F
100
AcDbEntity
  8
0
  6
Continuous
 62
     7
370
    25
100
AcDbLine
 10
947.8691644941
 20
1648.9194291413
 30
0.0
 11
947.8691644941
 21
1645.9194291413
 31
0.0
  0
LINE
  5
16A
330
1F
100
AcDbEntity
  8
0
  6
Continuous
 62
     7
370
    25
100
AcDbLine
 10
947.8691644941
 20
1645.9194291413
 30
0.0
 11
942.4372880896
 21
1645.9194291413
 31
0.0
  0
LINE
  5
16B
330
1F
100
AcDbEntity
  8
0
  6
Continuous
 62
     7
370
    25
100
AcDbLine
 10
947.8691644941
 20
1648.9194291413
 30
0.0
 11
942.4372880896
 21
1648.9194291413
 31
0.0
  0
LINE
  5
16C
330
1F
100
AcDbEntity
  8
0
  6
Continuous
 62
     7
370
    25
100
AcDbLine
 10
908.6070527204
 20
1658.9194291413
 30
0.0
 11
908.6070527204
 21
1655.9194291413
 31
0.0
  0
LINE
  5
16D
330
1F
100
AcDbEntity
  8
0
  6
Continuous
 62
     7
370
    25
100
AcDbLine
 10
921.2663826501
 20
1658.9194291413
 30
0.0
 11
921.2663826501
 21
1655.9194291413
 31
0.0
  0
LINE
  5
16E
330
1F
100
AcDbEntity
  8
0
  6
Continuous
 62
     7
370
    25
100
AcDbLine
 10
921.2663826501
 20
1655.9194291413
 30
0.0
 11
908.6070527204
 21
1655.9194291413
 31
0.0
  0
LINE
  5
16F
330
1F
100
AcDbEntity
  8
0
  6
Continuous
 62
     7
370
    25
100
AcDbLine
 10
908.6070527204
 20
1648.9194291413
 30
0.0
 11
908.6070527204
 21
1645.9194291413
 31
0.0
  0
LINE
  5
170
330
1F
100
AcDbEntity
  8
0
  6
Continuous
 62
     7
370
    25
100
AcDbLine
 10
921.2663826501
 20
1648.9194291413
 30
0.0
 11
921.2663826501
 21
1645.9194291413
 31
0.0
  0
LINE
  5
171
330
1F
100
AcDbEntity
  8
0
  6
Continuous
 62
     7
370
    25
100
AcDbLine
 10
921.2663826501
 20
1645.9194291413
 30
0.0
 11
908.6070527204
 21
1645.9194291413
 31
0.0
  0
LINE
  5
172
330
1F
100
AcDbEntity
  8
0
  6
Continuous
 62
     7
370
    25
100
AcDbLine
 10
921.2663826501
 20
1648.9194291413
 30
0.0
 11
908.6070527204
 21
1648.9194291413
 31
0.0
  0
LINE
  5
173
330
1F
100
AcDbEntity
  8
0
  6
Continuous
 62
     7
370
    25
100
AcDbLine
 10
924.0803127749
 20
1652.4194291413
 30
0.0
 11
903.2889291249
 21
1652.4194291413
 31
0.0
  0
LINE
  5
174
330
1F
100
AcDbEntity
  8
0
  6
Continuous
 62
     7
370
    25
100
AcDbLine
 10
924.7889291249
 20
1652.4194291413
 30
0.0
 11
924.0803127749
 21
1652.4194291413
 31
0.0
  0
LINE
  5
175
330
1F
100
AcDbEntity
  8
0
  6
Continuous
 62
     7
370
    25
100
AcDbLine
 10
901.3795991952
 20
1658.9194291413
 30
0.0
 11
901.3795991952
 21
1655.9194291413
 31
0.0
  0
LINE
  5
176
330
1F
100
AcDbEntity
  8
0
  6
Continuous
 62
     7
370
    25
100
AcDbLine
 10
908.6070527204
 20
1655.9194291413
 30
0.0
 11
901.3795991952
 21
1655.9194291413
 31
0.0
  0
LINE
  5
177
330
1F
100
AcDbEntity
  8
0
  6
Continuous
 62
     7
370
    25
100
AcDbLine
 10
901.3795991952
 20
1648.9194291413
 30
0.0
 11
901.3795991952
 21
1645.9194291413
 31
0.0
  0
LINE
  5
178
330
1F
100
AcDbEntity
  8
0
  6
Continuous
 62
     7
370
    25
100
AcDbLine
 10
908.6070527204
 20
1645.9194291413
 30
0.0
 11
901.3795991952
 21
1645.9194291413
 31
0.0
  0
LINE
  5
179
330
1F
100
AcDbEntity
  8
0
  6
Continuous
 62
     7
370
    25
100
AcDbLine
 10
908.6070527204
 20
1648.9194291413
 30
0.0
 11
901.3795991952
 21
1648.9194291413
 31
0.0
  0
LINE
  5
17A
330
1F
100
AcDbEntity
  8
0
  6
Continuous
 62
     7
370
    25
100
AcDbLine
 10
926.6982590545
 20
1658.9194291413
 30
0.0
 11
926.6982590546
 21
1655.9194291413
 31
0.0
  0
LINE
  5
17B
330
1F
100
AcDbEntity
  8
0
  6
Continuous
 62
     7
370
    25
100
AcDbLine
 10
926.6982590546
 20
1655.9194291413
 30
0.0
 11
921.2663826501
 21
1655.9194291413
 31
0.0
  0
LINE
  5
17C
330
1F
100
AcDbEntity
  8
0
  6
Continuous
 62
     7
370
    25
100
AcDbLine
 10
926.6982590546
 20
1648.9194291413
 30
0.0
 11
926.6982590546
 21
1645.9194291413
 31
0.0
  0
LINE
  5
17D
330
1F
100
AcDbEntity
  8
0
  6
Continuous
 62
     7
370
    25
100
AcDbLine
 10
926.6982590546
 20
1645.9194291413
 30
0.0
 11
921.2663826501
 21
1645.9194291413
 31
0.0
  0
LINE
  5
17E
330
1F
100
AcDbEntity
  8
0
  6
Continuous
 62
     7
370
    25
100
AcDbLine
 10
926.6982590546
 20
1648.9194291413
 30
0.0
 11
921.2663826501
 21
1648.9194291413
 31
0.0
  0
LINE
  5
17F
330
1F
100
AcDbEntity
  8
0
  6
Continuous
 62
     7
370
    25
100
AcDbLine
 10
967.6035088059
 20
1810.6194291413
 30
0.0
 11
971.4035088059
 21
1810.6194291413
 31
0.0
  0
LINE
  5
180
330
1F
100
AcDbEntity
  8
0
  6
Continuous
 62
     7
370
    25
100
AcDbLine
 10
965.7035088059
 20
1808.7994291413
 30
0.0
 11
973.3035088059
 21
1808.7994291413
 31
0.0
  0
LINE
  5
181
330
1F
100
AcDbEntity
  8
0
  6
Continuous
 62
     7
370
    25
100
AcDbLine
 10
932.2317593849
 20
1658.5394291413
 30
0.0
 11
929.7885799354
 21
1658.5394291413
 31
0.0
  0
LINE
  5
182
330
1F
100
AcDbEntity
  8
0
  6
Continuous
 62
     7
370
    25
100
AcDbLine
 10
937.3885799354
 20
1658.5394291413
 30
0.0
 11
932.2317593849
 21
1658.5394291413
 31
0.0
  0
LINE
  5
183
330
1F
100
AcDbEntity
  8
0
  6
Continuous
 62
     7
370
    25
100
AcDbLine
 10
932.9101696601
 20
1656.7194291413
 30
0.0
 11
931.6885799354
 21
1656.7194291413
 31
0.0
  0
LINE
  5
184
330
1F
100
AcDbEntity
  8
0
  6
Continuous
 62
     7
370
    25
100
AcDbLine
 10
935.4885799354
 20
1656.7194291413
 30
0.0
 11
932.9101696601
 21
1656.7194291413
 31
0.0
  0
LINE
  5
185
330
1F
100
AcDbEntity
  8
0
  6
Continuous
 62
     7
370
    25
100
AcDbLine
 10
959.1824901648
 20
1658.5394291413
 30
0.0
 11
956.7393107152
 21
1658.5394291413
 31
0.0
  0
LINE
  5
186
330
1F
100
AcDbEntity
  8
0
  6
Continuous
 62
     7
370
    25
100
AcDbLine
 10
964.3393107152
 20
1658.5394291413
 30
0.0
 11
959.1824901648
 21
1658.5394291413
 31
0.0
  0
LINE
  5
187
330
1F
100
AcDbEntity
  8
0
  6
Continuous
 62
     7
370
    25
100
AcDbLine
 10
959.86090044
 20
1656.7194291413
 30
0.0
 11
958.6393107152
 21
1656.7194291413
 31
0.0
  0
LINE
  5
188
330
1F
100
AcDbEntity
  8
0
  6
Continuous
 62
     7
370
    25
100
AcDbLine
 10
962.4393107152
 20
1656.7194291413
 30
0.0
 11
959.86090044
 21
1656.7194291413
 31
0.0
  0
LINE
  5
189
330
1F
100
AcDbEntity
  8
0
  6
Continuous
 62
     7
370
    25
100
AcDbLine
 10
878.3884343328
 20
1658.5394291413
 30
0.0
 11
875.9452548833
 21
1658.5394291413
 31
0.0
  0
LINE
  5
18A
330
1F
100
AcDbEntity
  8
0
  6
Continuous
 62
     7
370
    25
100
AcDbLine
 10
883.5452548833
 20
1658.5394291413
 30
0.0
 11
878.3884343328
 21
1658.5394291413
 31
0.0
  0
LINE
  5
18B
330
1F
100
AcDbEntity
  8
0
  6
Continuous
 62
     7
370
    25
100
AcDbLine
 10
879.0668446081
 20
1656.7194291413
 30
0.0
 11
877.8452548833
 21
1656.7194291413
 31
0.0
  0
LINE
  5
18C
330
1F
100
AcDbEntity
  8
0
  6
Continuous
 62
     7
370
    25
100
AcDbLine
 10
881.6452548833
 20
1656.7194291413
 30
0.0
 11
879.0668446081
 21
1656.7194291413
 31
0.0
  0
LINE
  5
18D
330
1F
100
AcDbEntity
  8
0
  6
Continuous
 62
     7
370
    25
100
AcDbLine
 10
931.6885799353
 20
1810.6194291413
 30
0.0
 11
935.4885799353
 21
1810.6194291413
 31
0.0
  0
LINE
  5
18E
330
1F
100
AcDbEntity
  8
0
  6
Continuous
 62
     7
370
    25
100
AcDbLine
 10
929.7885799353
 20
1808.7994291413
 30
0.0
 11
937.3885799353
 21
1808.7994291413
 31
0.0
  0
LINE
  5
18F
330
1F
100
AcDbEntity
  8
0
  6
Continuous
 62
     7
370
    25
100
AcDbLine
 10
968.1466882555
 20
1658.5394291413
 30
0.0
 11
965.703508806
 21
1658.5394291413
 31
0.0
  0
LINE
  5
190
330
1F
100
AcDbEntity
  8
0
  6
Continuous
 62
     7
370
    25
100
AcDbLine
 10
973.303508806
 20
1658.5394291413
 30
0.0
 11
968.1466882555
 21
1658.5394291413
 31
0.0
  0
LINE
  5
191
330
1F
100
AcDbEntity
  8
0
  6
Continuous
 62
     7
370
    25
100
AcDbLine
 10
968.8250985307
 20
1656.7194291413
 30
0.0
 11
967.603508806
 21
1656.7194291413
 31
0.0
  0
LINE
  5
192
330
1F
100
AcDbEntity
  8
0
  6
Continuous
 62
     7
370
    25
100
AcDbLine
 10
971.403508806
 20
1656.7194291413
 30
0.0
 11
968.8250985307
 21
1656.7194291413
 31
0.0
  0
LINE
  5
193
330
1F
100
AcDbEntity
  8
0
  6
Continuous
 62
     7
370
    25
100
AcDbLine
 10
887.3526324236
 20
1658.5394291413
 30
0.0
 11
884.909452974
 21
1658.5394291413
 31
0.0
  0
LINE
  5
194
330
1F
100
AcDbEntity
  8
0
  6
Continuous
 62
     7
370
    25
100
AcDbLine
 10
892.509452974
 20
1658.5394291413
 30
0.0
 11
887.3526324236
 21
1658.5394291413
 31
0.0
  0
LINE
  5
195
330
1F
100
AcDbEntity
  8
0
  6
Continuous
 62
     7
370
    25
100
AcDbLine
 10
888.0310426988
 20
1656.7194291413
 30
0.0
 11
886.809452974
 21
1656.7194291413
 31
0.0
  0
LINE
  5
196
330
1F
100
AcDbEntity
  8
0
  6
Continuous
 62
     7
370
    25
100
AcDbLine
 10
890.609452974
 20
1656.7194291413
 30
0.0
 11
888.0310426988
 21
1656.7194291413
 31
0.0
  0
LINE
  5
197
330
1F
100
AcDbEntity
  8
0
  6
Continuous
 62
     7
370
    25
100
AcDbLine
 10
877.8452548832
 20
1810.6194291413
 30
0.0
 11
881.6452548832
 21
1810.6194291413
 31
0.0
  0
LINE
  5
198
330
1F
100
AcDbEntity
  8
0
  6
Continuous
 62
     7
370
    25
100
AcDbLine
 10
875.9452548832
 20
1808.7994291413
 30
0.0
 11
881.9089836544
 21
1808.7994291413
 31
0.0
  0
LINE
  5
199
330
1F
100
AcDbEntity
  8
0
  6
Continuous
 62
     7
370
    25
100
AcDbLine
 10
886.809452974
 20
1810.6194291413
 30
0.0
 11
890.609452974
 21
1810.6194291413
 31
0.0
  0
LINE
  5
19A
330
1F
100
AcDbEntity
  8
0
  6
Continuous
 62
     7
370
    25
100
AcDbLine
 10
884.909452974
 20
1808.7994291413
 30
0.0
 11
892.509452974
 21
1808.7994291413
 31
0.0
  0
ARC
  5
19B
330
1F
100
AcDbEntity
  8
0
  6
Continuous
 62
     7
370
    25
100
AcDbCircle
 10
927.1201351051
 20
1807.421677639
 30
0.0
 40
0.99775405886612
100
AcDbArc
 50
90.1297041292
 51
180.1291195319
  0
LINE
  5
19C
330
1F
100
AcDbEntity
  8
0
  6
Continuous
 62
     7
370
    25
100
AcDbLine
 10
927.1178764272
 20
1808.4194291413
 30
0.0
 11
940.0885799354
 21
1808.4194291413
 31
0.0
  0
LINE
  5
19D
330
1F
100
AcDbEntity
  8
0
  6
Continuous
 62
     7
370
    25
100
AcDbLine
 10
926.1223835798
 20
1795.4194291413
 30
0.0
 11
926.1223835798
 21
1807.4194291413
 31
0.0
  0
LINE
  5
19E
330
1F
100
AcDbEntity
  8
0
  6
Continuous
 62
     7
370
    25
100
AcDbLine
 10
941.0885799354
 20
1795.4194291413
 30
0.0
 11
926.1223835798
 21
1795.4194291413
 31
0.0
  0
LINE
  5
19F
330
1F
100
AcDbEntity
  8
0
  6
Continuous
 62
     7
370
    25
100
AcDbLine
 10
884.1243818446
 20
1848.4194291413
 30
0.0
 11
965.1243818446
 21
1848.4194291413
 31
0.0
  0
LINE
  5
1A0
330
1F
100
AcDbEntity
  8
0
  6
Continuous
 62
     7
370
    25
100
AcDbLine
 10
924.6289939151
 20
1807.4194291413
 30
0.0
 11
896.1463371324
 21
1807.4194291413
 31
0.0
  0
LWPOLYLINE
  5
1A1
330
1F
100
AcDbEntity
  8
0
  6
Continuous
 62
     7
370
    25
100
AcDbPolyline
 90
        9
 70
   128
 43
0.0
 10
896.1463371324
 20
1807.4194291413
 10
896.1582327333
 20
1807.6145194633
 10
896.1934623949
 20
1807.8021125737
 10
896.250672261
 20
1807.9749993743
 10
896.3276637885
 20
1808.1265359225
 10
896.4214782362
 20
1808.2508987536
 10
896.5285103675
 20
1808.3433086738
 10
896.6446469976
 20
1808.4002144217
 10
896.7654250609
 20
1808.4194291413
  0
LWPOLYLINE
  5
1A2
330
1F
100
AcDbEntity
  8
0
  6
Continuous
 62
     7
370
    25
100
AcDbPolyline
 90
        9
 70
   128
 43
0.0
 10
924.6289939151
 20
1807.4194291413
 10
924.6289919885
 20
1807.6145194633
 10
924.628986283
 20
1807.8021125737
 10
924.6289770178
 20
1807.9749993743
 10
924.6289645489
 20
1808.1265359225
 10
924.6289493555
 20
1808.2508987536
 10
924.6289320214
 20
1808.3433086738
 10
924.6289132129
 20
1808.4002144217
 10
924.6288936527
 20
1808.4194291413
  0
LINE
  5
1A3
330
1F
100
AcDbEntity
  8
0
  6
Continuous
 62
     7
370
    25
100
AcDbLine
 10
896.7654250609
 20
1808.4194291413
 30
0.0
 11
924.6288936527
 21
1808.4194291413
 31
0.0
  0
LINE
  5
1A4
330
1F
100
AcDbEntity
  8
0
  6
Continuous
 62
     7
370
    25
100
AcDbLine
 10
896.1463371324
 20
1795.4194291413
 30
0.0
 11
896.1463371324
 21
1807.4194291413
 31
0.0
  0
LINE
  5
1A5
330
1F
100
AcDbEntity
  8
0
  6
Continuous
 62
     7
370
    25
100
AcDbLine
 10
924.6289939151
 20
1795.4194291413
 30
0.0
 11
924.6289939151
 21
1807.4194291413
 31
0.0
  0
LINE
  5
1A6
330
1F
100
AcDbEntity
  8
0
  6
Continuous
 62
     7
370
    25
100
AcDbLine
 10
924.6289939151
 20
1795.4194291413
 30
0.0
 11
896.1463371324
 21
1795.4194291413
 31
0.0
  0
ARC
  5
1A7
330
1F
100
AcDbEntity
  8
0
  6
Continuous
 62
     7
370
    25
100
AcDbCircle
 10
963.5256411791
 20
1807.4819074351
 30
0.0
 40
0.9402930731320507
100
AcDbArc
 50
356.1901432684
 51
85.5999282992
  0
LINE
  5
1A8
330
1F
100
AcDbEntity
  8
0
  6
Continuous
 62
     7
370
    25
100
AcDbLine
 10
964.4638562537
 20
1807.4194291413
 30
0.0
 11
941.6703515298
 21
1807.4194291413
 31
0.0
  0
LWPOLYLINE
  5
1A9
330
1F
100
AcDbEntity
  8
0
  6
Continuous
 62
     7
370
    25
100
AcDbPolyline
 90
        9
 70
   128
 43
0.0
 10
941.2997869714
 20
1808.4194291413
 10
941.3720805305
 20
1808.4002144217
 10
941.4415958885
 20
1808.3433086738
 10
941.5056616095
 20
1808.2508987536
 10
941.5618156835
 20
1808.1265359225
 10
941.6079001411
 20
1807.9749993743
 10
941.6421439824
 20
1807.8021125737
 10
941.6632312357
 20
1807.6145194633
 10
941.6703515298
 20
1807.4194291413
  0
LINE
  5
1AA
330
1F
100
AcDbEntity
  8
0
  6
Continuous
 62
     7
370
    25
100
AcDbLine
 10
941.2997869714
 20
1808.4194291413
 30
0.0
 11
963.597780723
 21
1808.4194291413
 31
0.0
  0
LINE
  5
1AB
330
1F
100
AcDbEntity
  8
0
  6
Continuous
 62
     7
370
    25
100
AcDbLine
 10
941.6703515298
 20
1795.4194291413
 30
0.0
 11
941.6703515298
 21
1807.4194291413
 31
0.0
  0
LINE
  5
1AC
330
1F
100
AcDbEntity
  8
0
  6
Continuous
 62
     7
370
    25
100
AcDbLine
 10
964.4638562537
 20
1795.4194291413
 30
0.0
 11
964.4638562537
 21
1807.4194291413
 31
0.0
  0
LINE
  5
1AD
330
1F
100
AcDbEntity
  8
0
  6
Continuous
 62
     7
370
    25
100
AcDbLine
 10
964.4638562537
 20
1795.4194291413
 30
0.0
 11
941.6703515298
 21
1795.4194291413
 31
0.0
  0
LINE
  5
1AE
330
1F
100
AcDbEntity
  8
0
  6
Continuous
 62
     7
370
    25
100
AcDbLine
 10
926.1223835798
 20
1807.4194291413
 30
0.0
 11
924.6289939151
 21
1807.4194291413
 31
0.0
  0
LINE
  5
1AF
330
1F
100
AcDbEntity
  8
0
  6
Continuous
 62
     7
370
    25
100
AcDbLine
 10
924.6288936527
 20
1808.4194291413
 30
0.0
 11
927.1178764272
 21
1808.4194291413
 31
0.0
  0
LINE
  5
1B0
330
1F
100
AcDbEntity
  8
0
  6
Continuous
 62
     7
370
    25
100
AcDbLine
 10
926.1223835798
 20
1795.4194291413
 30
0.0
 11
924.6289939151
 21
1795.4194291413
 31
0.0
  0
LINE
  5
1B1
330
1F
100
AcDbEntity
  8
0
  6
Continuous
 62
     7
370
    25
100
AcDbLine
 10
940.0885799354
 20
1808.4194291413
 30
0.0
 11
941.2997869714
 21
1808.4194291413
 31
0.0
  0
LINE
  5
1B2
330
1F
100
AcDbEntity
  8
0
  6
Continuous
 62
     7
370
    25
100
AcDbLine
 10
941.0885799354
 20
1795.4194291413
 30
0.0
 11
941.6703515298
 21
1795.4194291413
 31
0.0
  0
ARC
  5
1B3
330
1F
100
AcDbEntity
  8
0
  6
Continuous
 62
     7
370
    25
100
AcDbCircle
 10
893.2449272396
 20
1807.5386965871
 30
0.0
 40
0.8960422902160573
100
AcDbArc
 50
352.3509615159
 51
79.3933671626
  0
LINE
  5
1B4
330
1F
100
AcDbEntity
  8
0
  6
Continuous
 62
     7
370
    25
100
AcDbLine
 10
882.209452974
 20
1808.4194291413
 30
0.0
 11
893.409857388
 21
1808.4194291413
 31
0.0
  0
LINE
  5
1B5
330
1F
100
AcDbEntity
  8
0
  6
Continuous
 62
     7
370
    25
100
AcDbLine
 10
894.1329965286
 20
1795.4194291413
 30
0.0
 11
894.1329965286
 21
1807.4194291413
 31
0.0
  0
LINE
  5
1B6
330
1F
100
AcDbEntity
  8
0
  6
Continuous
 62
     7
370
    25
100
AcDbLine
 10
894.1329965286
 20
1795.4194291413
 30
0.0
 11
881.209452974
 21
1795.4194291413
 31
0.0
  0
LINE
  5
1B7
330
1F
100
AcDbEntity
  8
0
  6
Continuous
 62
     7
370
    25
100
AcDbLine
 10
896.1463371324
 20
1807.4194291413
 30
0.0
 11
894.1329965286
 21
1807.4194291413
 31
0.0
  0
LINE
  5
1B8
330
1F
100
AcDbEntity
  8
0
  6
Continuous
 62
     7
370
    25
100
AcDbLine
 10
893.409857388
 20
1808.4194291413
 30
0.0
 11
896.7654250609
 21
1808.4194291413
 31
0.0
  0
LINE
  5
1B9
330
1F
100
AcDbEntity
  8
0
  6
Continuous
 62
     7
370
    25
100
AcDbLine
 10
894.1329965286
 20
1795.4194291413
 30
0.0
 11
896.1463371324
 21
1795.4194291413
 31
0.0
  0
LWPOLYLINE
  5
1BA
330
1F
100
AcDbEntity
  8
0
  6
Continuous
 62
     7
370
    25
100
AcDbPolyline
 90
        9
 70
   128
 43
0.0
 10
966.8020082319
 20
1808.4194291413
 10
966.7209256755
 20
1808.4002144217
 10
966.6429590762
 20
1808.3433086738
 10
966.5711046468
 20
1808.2508987536
 10
966.5081237126
 20
1808.1265359225
 10
966.4564365958
 20
1807.9749993744
 10
966.4180296031
 20
1807.8021125737
 10
966.3943786938
 20
1807.6145194634
 10
966.386392759
 20
1807.4194291413
  0
LINE
  5
1BB
330
1F
100
AcDbEntity
  8
0
  6
Continuous
 62
     7
370
    25
100
AcDbLine
 10
966.8020082319
 20
1808.4194291413
 30
0.0
 11
976.003508806
 21
1808.4194291413
 31
0.0
  0
LINE
  5
1BC
330
1F
100
AcDbEntity
  8
0
  6
Continuous
 62
     7
370
    25
100
AcDbLine
 10
966.386392759
 20
1795.4194291413
 30
0.0
 11
966.386392759
 21
1807.4194291413
 31
0.0
  0
LINE
  5
1BD
330
1F
100
AcDbEntity
  8
0
  6
Continuous
 62
     7
370
    25
100
AcDbLine
 10
977.003508806
 20
1795.4194291413
 30
0.0
 11
966.386392759
 21
1795.4194291413
 31
0.0
  0
LINE
  5
1BE
330
1F
100
AcDbEntity
  8
0
  6
Continuous
 62
     7
370
    25
100
AcDbLine
 10
966.386392759
 20
1807.4194291413
 30
0.0
 11
964.4638562537
 21
1807.4194291413
 31
0.0
  0
LINE
  5
1BF
330
1F
100
AcDbEntity
  8
0
  6
Continuous
 62
     7
370
    25
100
AcDbLine
 10
963.597780723
 20
1808.4194291413
 30
0.0
 11
966.8020082319
 21
1808.4194291413
 31
0.0
  0
LINE
  5
1C0
330
1F
100
AcDbEntity
  8
0
  6
Continuous
 62
     7
370
    25
100
AcDbLine
 10
966.386392759
 20
1795.4194291413
 30
0.0
 11
964.4638562537
 21
1795.4194291413
 31
0.0
  0
LINE
  5
1C1
330
1F
100
AcDbEntity
  8
0
  6
Continuous
 62
     7
370
    25
100
AcDbLine
 10
879.6243818446
 20
1808.4194291413
 30
0.0
 11
882.209452974
 21
1808.4194291413
 31
0.0
  0
LINE
  5
1C2
330
1F
100
AcDbEntity
  8
0
  6
Continuous
 62
     7
370
    25
100
AcDbLine
 10
881.209452974
 20
1795.4194291413
 30
0.0
 11
878.6243818446
 21
1795.4194291413
 31
0.0
  0
ARC
  5
1C3
330
1F
100
AcDbEntity
  8
0
  6
Continuous
 62
     7
370
    25
100
AcDbCircle
 10
879.2048827193
 20
1807.655434696
 30
0.0
 40
1.256463507990266
100
AcDbArc
 50
142.5512576455
 51
190.8263588477
  0
LINE
  5
1C4
330
1F
100
AcDbEntity
  8
0
  6
Continuous
 62
     7
370
    25
100
AcDbLine
 10
878.2073793186
 20
1808.4194291413
 30
0.0
 11
879.6243818446
 21
1808.4194291413
 31
0.0
  0
LINE
  5
1C5
330
1F
100
AcDbEntity
  8
0
  6
Continuous
 62
     7
370
    25
100
AcDbLine
 10
877.9707830779
 20
1795.4194291413
 30
0.0
 11
877.9707830779
 21
1807.4194291413
 31
0.0
  0
LINE
  5
1C6
330
1F
100
AcDbEntity
  8
0
  6
Continuous
 62
     7
370
    25
100
AcDbLine
 10
877.9707830779
 20
1795.4194291413
 30
0.0
 11
878.6243818446
 21
1795.4194291413
 31
0.0
  0
LINE
  5
1C7
330
1F
100
AcDbEntity
  8
0
  6
Continuous
 62
     7
370
    25
100
AcDbLine
 10
873.2452548832
 20
1808.4194291413
 30
0.0
 11
878.2073793186
 21
1808.4194291413
 31
0.0
  0
LINE
  5
1C8
330
1F
100
AcDbEntity
  8
0
  6
Continuous
 62
     7
370
    25
100
AcDbLine
 10
877.9707830779
 20
1795.4194291413
 30
0.0
 11
872.2452548832
 21
1795.4194291413
 31
0.0
  0
LINE
  5
1C9
330
1F
100
AcDbEntity
  8
0
  6
Continuous
 62
     7
370
    25
100
AcDbLine
 10
929.6066085458
 20
1660.4194291413
 30
0.0
 11
929.6066085458
 21
1661.9194291413
 31
0.0
  0
LINE
  5
1CA
330
1F
100
AcDbEntity
  8
0
  6
Continuous
 62
     7
370
    25
100
AcDbLine
 10
937.5885799354
 20
1660.4194291413
 30
0.0
 11
929.6066085458
 21
1660.4194291413
 31
0.0
  0
LINE
  5
1CB
330
1F
100
AcDbEntity
  8
0
  6
Continuous
 62
     7
370
    25
100
AcDbLine
 10
937.5885799354
 20
1661.9194291413
 30
0.0
 11
929.6066085458
 21
1661.9194291413
 31
0.0
  0
LINE
  5
1CC
330
1F
100
AcDbEntity
  8
0
  6
Continuous
 62
     7
370
    25
100
AcDbLine
 10
929.1989845367
 20
1660.4194291413
 30
0.0
 11
929.1989845367
 21
1661.9194291413
 31
0.0
  0
LINE
  5
1CD
330
1F
100
AcDbEntity
  8
0
  6
Continuous
 62
     7
370
    25
100
AcDbLine
 10
929.6066085458
 20
1660.4194291413
 30
0.0
 11
929.4278212153
 21
1660.4194291413
 31
0.0
  0
LINE
  5
1CE
330
1F
100
AcDbEntity
  8
0
  6
Continuous
 62
     7
370
    25
100
AcDbLine
 10
929.6066085458
 20
1661.9194291413
 30
0.0
 11
929.4278212153
 21
1661.9194291413
 31
0.0
  0
LINE
  5
1CF
330
1F
100
AcDbEntity
  8
0
  6
Continuous
 62
     7
370
    25
100
AcDbLine
 10
926.1455174256
 20
1660.4194291413
 30
0.0
 11
926.1455174256
 21
1661.9194291413
 31
0.0
  0
LINE
  5
1D0
330
1F
100
AcDbEntity
  8
0
  6
Continuous
 62
     7
370
    25
100
AcDbLine
 10
897.1386721786
 20
1660.4194291413
 30
0.0
 11
897.1386721786
 21
1661.9194291413
 31
0.0
  0
LINE
  5
1D1
330
1F
100
AcDbEntity
  8
0
  6
Continuous
 62
     7
370
    25
100
AcDbLine
 10
924.6286429968
 20
1660.4194291413
 30
0.0
 11
898.3131448823
 21
1660.4194291413
 31
0.0
  0
LINE
  5
1D2
330
1F
100
AcDbEntity
  8
0
  6
Continuous
 62
     7
370
    25
100
AcDbLine
 10
924.6286429967
 20
1661.9194291413
 30
0.0
 11
898.3131448823
 21
1661.9194291413
 31
0.0
  0
LINE
  5
1D3
330
1F
100
AcDbEntity
  8
0
  6
Continuous
 62
     7
370
    25
100
AcDbLine
 10
962.1674469662
 20
1660.4194291413
 30
0.0
 11
962.1674469662
 21
1661.9194291413
 31
0.0
  0
LINE
  5
1D4
330
1F
100
AcDbEntity
  8
0
  6
Continuous
 62
     7
370
    25
100
AcDbLine
 10
938.9544556639
 20
1660.4194291413
 30
0.0
 11
938.9544556639
 21
1661.9194291413
 31
0.0
  0
LINE
  5
1D5
330
1F
100
AcDbEntity
  8
0
  6
Continuous
 62
     7
370
    25
100
AcDbLine
 10
961.4325918966
 20
1660.4194291413
 30
0.0
 11
940.3733755756
 21
1660.4194291413
 31
0.0
  0
LINE
  5
1D6
330
1F
100
AcDbEntity
  8
0
  6
Continuous
 62
     7
370
    25
100
AcDbLine
 10
961.4325918965
 20
1661.9194291413
 30
0.0
 11
940.3733755755
 21
1661.9194291413
 31
0.0
  0
LINE
  5
1D7
330
1F
100
AcDbEntity
  8
0
  6
Continuous
 62
     7
370
    25
100
AcDbLine
 10
891.6020095365
 20
1660.4194291413
 30
0.0
 11
891.6020095365
 21
1661.9194291413
 31
0.0
  0
LINE
  5
1D8
330
1F
100
AcDbEntity
  8
0
  6
Continuous
 62
     7
370
    25
100
AcDbLine
 10
891.6020095365
 20
1660.4194291413
 30
0.0
 11
884.709452974
 21
1660.4194291413
 31
0.0
  0
LINE
  5
1D9
330
1F
100
AcDbEntity
  8
0
  6
Continuous
 62
     7
370
    25
100
AcDbLine
 10
891.6020095365
 20
1661.9194291413
 30
0.0
 11
884.709452974
 21
1661.9194291413
 31
0.0
  0
LINE
  5
1DA
330
1F
100
AcDbEntity
  8
0
  6
Continuous
 62
     7
370
    25
100
AcDbLine
 10
893.2351491819
 20
1660.4194291413
 30
0.0
 11
893.2351491819
 21
1661.9194291413
 31
0.0
  0
LINE
  5
1DB
330
1F
100
AcDbEntity
  8
0
  6
Continuous
 62
     7
370
    25
100
AcDbLine
 10
892.3183183666
 20
1660.4194291413
 30
0.0
 11
891.6020095365
 21
1660.4194291413
 31
0.0
  0
LINE
  5
1DC
330
1F
100
AcDbEntity
  8
0
  6
Continuous
 62
     7
370
    25
100
AcDbLine
 10
892.3183183685
 20
1661.9194291413
 30
0.0
 11
891.6020095365
 21
1661.9194291413
 31
0.0
  0
LINE
  5
1DD
330
1F
100
AcDbEntity
  8
0
  6
Continuous
 62
     7
370
    25
100
AcDbLine
 10
884.7094529741
 20
1660.4194291413
 30
0.0
 11
882.1243818446
 21
1660.4194291413
 31
0.0
  0
LINE
  5
1DE
330
1F
100
AcDbEntity
  8
0
  6
Continuous
 62
     7
370
    25
100
AcDbLine
 10
884.709452974
 20
1661.9194291413
 30
0.0
 11
882.1243818446
 21
1661.9194291413
 31
0.0
  0
LINE
  5
1DF
330
1F
100
AcDbEntity
  8
0
  6
Continuous
 62
     7
370
    25
100
AcDbLine
 10
965.8002832598
 20
1660.4194291413
 30
0.0
 11
965.8002832598
 21
1661.9194291413
 31
0.0
  0
LINE
  5
1E0
330
1F
100
AcDbEntity
  8
0
  6
Continuous
 62
     7
370
    25
100
AcDbLine
 10
967.8410469144
 20
1660.4194291413
 30
0.0
 11
967.8410469144
 21
1661.9194291413
 31
0.0
  0
LINE
  5
1E1
330
1F
100
AcDbEntity
  8
0
  6
Continuous
 62
     7
370
    25
100
AcDbLine
 10
973.503508806
 20
1660.4194291413
 30
0.0
 11
967.8410469144
 21
1660.4194291413
 31
0.0
  0
LINE
  5
1E2
330
1F
100
AcDbEntity
  8
0
  6
Continuous
 62
     7
370
    25
100
AcDbLine
 10
973.503508806
 20
1661.9194291413
 30
0.0
 11
967.8410469144
 21
1661.9194291413
 31
0.0
  0
LINE
  5
1E3
330
1F
100
AcDbEntity
  8
0
  6
Continuous
 62
     7
370
    25
100
AcDbLine
 10
967.8410469144
 20
1660.4194291413
 30
0.0
 11
966.9459507538
 21
1660.4194291413
 31
0.0
  0
LINE
  5
1E4
330
1F
100
AcDbEntity
  8
0
  6
Continuous
 62
     7
370
    25
100
AcDbLine
 10
967.8410469144
 20
1661.9194291413
 30
0.0
 11
966.9459507519
 21
1661.9194291413
 31
0.0
  0
LINE
  5
1E5
330
1F
100
AcDbEntity
  8
0
  6
Continuous
 62
     7
370
    25
100
AcDbLine
 10
880.8396335749
 20
1660.4194291413
 30
0.0
 11
880.8396335749
 21
1661.9194291413
 31
0.0
  0
LINE
  5
1E6
330
1F
100
AcDbEntity
  8
0
  6
Continuous
 62
     7
370
    25
100
AcDbLine
 10
878.7988699203
 20
1660.4194291413
 30
0.0
 11
878.7988699203
 21
1661.9194291413
 31
0.0
  0
LINE
  5
1E7
330
1F
100
AcDbEntity
  8
0
  6
Continuous
 62
     7
370
    25
100
AcDbLine
 10
879.6939660808
 20
1660.4194291413
 30
0.0
 11
878.7988699203
 21
1660.4194291413
 31
0.0
  0
LINE
  5
1E8
330
1F
100
AcDbEntity
  8
0
  6
Continuous
 62
     7
370
    25
100
AcDbLine
 10
879.6939660833
 20
1661.9194291413
 30
0.0
 11
878.7988699203
 21
1661.9194291413
 31
0.0
  0
LINE
  5
1E9
330
1F
100
AcDbEntity
  8
0
  6
Continuous
 62
     7
370
    25
100
AcDbLine
 10
878.7988699203
 20
1660.4194291413
 30
0.0
 11
875.7452548832
 21
1660.4194291413
 31
0.0
  0
LINE
  5
1EA
330
1F
100
AcDbEntity
  8
0
  6
Continuous
 62
     7
370
    25
100
AcDbLine
 10
878.7988699203
 20
1661.9194291413
 30
0.0
 11
875.7452548832
 21
1661.9194291413
 31
0.0
  0
LINE
  5
1EB
330
1F
100
AcDbEntity
  8
0
  6
Continuous
 62
     7
370
    25
100
AcDbLine
 10
929.6066085458
 20
1658.9194291413
 30
0.0
 11
929.6066085458
 21
1660.4194291413
 31
0.0
  0
LINE
  5
1EC
330
1F
100
AcDbEntity
  8
0
  6
Continuous
 62
     7
370
    25
100
AcDbLine
 10
937.5885799355
 20
1658.9194291413
 30
0.0
 11
929.6066085458
 21
1658.9194291413
 31
0.0
  0
LINE
  5
1ED
330
1F
100
AcDbEntity
  8
0
  6
Continuous
 62
     7
370
    25
100
AcDbLine
 10
924.6286429968
 20
1658.9194291413
 30
0.0
 11
924.6286429968
 21
1660.4194291413
 31
0.0
  0
LINE
  5
1EE
330
1F
100
AcDbEntity
  8
0
  6
Continuous
 62
     7
370
    25
100
AcDbLine
 10
898.3131448823
 20
1658.9194291413
 30
0.0
 11
898.3131448823
 21
1660.4194291413
 31
0.0
  0
LINE
  5
1EF
330
1F
100
AcDbEntity
  8
0
  6
Continuous
 62
     7
370
    25
100
AcDbLine
 10
924.6286429968
 20
1658.9194291413
 30
0.0
 11
898.3131448823
 21
1658.9194291413
 31
0.0
  0
LINE
  5
1F0
330
1F
100
AcDbEntity
  8
0
  6
Continuous
 62
     7
370
    25
100
AcDbLine
 10
929.6066085458
 20
1658.9194291413
 30
0.0
 11
924.6286429968
 21
1658.9194291413
 31
0.0
  0
LINE
  5
1F1
330
1F
100
AcDbEntity
  8
0
  6
Continuous
 62
     7
370
    25
100
AcDbLine
 10
929.4278212153
 20
1660.4194291413
 30
0.0
 11
924.6286429968
 21
1660.4194291413
 31
0.0
  0
LINE
  5
1F2
330
1F
100
AcDbEntity
  8
0
  6
Continuous
 62
     7
370
    25
100
AcDbLine
 10
940.3733755756
 20
1658.9194291413
 30
0.0
 11
940.3733755756
 21
1660.4194291413
 31
0.0
  0
LINE
  5
1F3
330
1F
100
AcDbEntity
  8
0
  6
Continuous
 62
     7
370
    25
100
AcDbLine
 10
940.3733755756
 20
1658.9194291413
 30
0.0
 11
937.5885799355
 21
1658.9194291413
 31
0.0
  0
LINE
  5
1F4
330
1F
100
AcDbEntity
  8
0
  6
Continuous
 62
     7
370
    25
100
AcDbLine
 10
940.3733755756
 20
1660.4194291413
 30
0.0
 11
937.5885799355
 21
1660.4194291413
 31
0.0
  0
LINE
  5
1F5
330
1F
100
AcDbEntity
  8
0
  6
Continuous
 62
     7
370
    25
100
AcDbLine
 10
961.4325918966
 20
1658.9194291413
 30
0.0
 11
961.4325918966
 21
1660.4194291413
 31
0.0
  0
LINE
  5
1F6
330
1F
100
AcDbEntity
  8
0
  6
Continuous
 62
     7
370
    25
100
AcDbLine
 10
961.4325918966
 20
1658.9194291413
 30
0.0
 11
940.3733755756
 21
1658.9194291413
 31
0.0
  0
LINE
  5
1F7
330
1F
100
AcDbEntity
  8
0
  6
Continuous
 62
     7
370
    25
100
AcDbLine
 10
891.6020095366
 20
1658.9194291413
 30
0.0
 11
891.6020095366
 21
1660.4194291413
 31
0.0
  0
LINE
  5
1F8
330
1F
100
AcDbEntity
  8
0
  6
Continuous
 62
     7
370
    25
100
AcDbLine
 10
898.3131448823
 20
1658.9194291413
 30
0.0
 11
891.6020095366
 21
1658.9194291413
 31
0.0
  0
LINE
  5
1F9
330
1F
100
AcDbEntity
  8
0
  6
Continuous
 62
     7
370
    25
100
AcDbLine
 10
898.3131448823
 20
1660.4194291413
 30
0.0
 11
892.3183183666
 21
1660.4194291413
 31
0.0
  0
LINE
  5
1FA
330
1F
100
AcDbEntity
  8
0
  6
Continuous
 62
     7
370
    25
100
AcDbLine
 10
891.6020095366
 20
1658.9194291413
 30
0.0
 11
884.7094529741
 21
1658.9194291413
 31
0.0
  0
LINE
  5
1FB
330
1F
100
AcDbEntity
  8
0
  6
Continuous
 62
     7
370
    25
100
AcDbLine
 10
967.8410469143
 20
1658.9194291413
 30
0.0
 11
967.8410469143
 21
1660.4194291413
 31
0.0
  0
LINE
  5
1FC
330
1F
100
AcDbEntity
  8
0
  6
Continuous
 62
     7
370
    25
100
AcDbLine
 10
967.8410469143
 20
1658.9194291413
 30
0.0
 11
961.4325918966
 21
1658.9194291413
 31
0.0
  0
LINE
  5
1FD
330
1F
100
AcDbEntity
  8
0
  6
Continuous
 62
     7
370
    25
100
AcDbLine
 10
966.9459507538
 20
1660.4194291413
 30
0.0
 11
961.4325918966
 21
1660.4194291413
 31
0.0
  0
LINE
  5
1FE
330
1F
100
AcDbEntity
  8
0
  6
Continuous
 62
     7
370
    25
100
AcDbLine
 10
884.7094529741
 20
1658.9194291413
 30
0.0
 11
882.1243818447
 21
1658.9194291413
 31
0.0
  0
LINE
  5
1FF
330
1F
100
AcDbEntity
  8
0
  6
Continuous
 62
     7
370
    25
100
AcDbLine
 10
973.5035088061
 20
1658.9194291413
 30
0.0
 11
967.8410469143
 21
1658.9194291413
 31
0.0
  0
LINE
  5
200
330
1F
100
AcDbEntity
  8
0
  6
Continuous
 62
     7
370
    25
100
AcDbLine
 10
878.7988699205
 20
1658.9194291413
 30
0.0
 11
878.7988699205
 21
1660.4194291413
 31
0.0
  0
LINE
  5
201
330
1F
100
AcDbEntity
  8
0
  6
Continuous
 62
     7
370
    25
100
AcDbLine
 10
882.1243818447
 20
1658.9194291413
 30
0.0
 11
878.7988699205
 21
1658.9194291413
 31
0.0
  0
LINE
  5
202
330
1F
100
AcDbEntity
  8
0
  6
Continuous
 62
     7
370
    25
100
AcDbLine
 10
882.1243818447
 20
1660.4194291413
 30
0.0
 11
879.6939660808
 21
1660.4194291413
 31
0.0
  0
LINE
  5
203
330
1F
100
AcDbEntity
  8
0
  6
Continuous
 62
     7
370
    25
100
AcDbLine
 10
878.7988699205
 20
1658.9194291413
 30
0.0
 11
875.7452548833
 21
1658.9194291413
 31
0.0
  0
LINE
  5
204
330
1F
100
AcDbEntity
  8
0
  6
Continuous
 62
     7
370
    25
100
AcDbLine
 10
929.4278212153
 20
1661.9194291413
 30
0.0
 11
924.6286429967
 21
1661.9194291413
 31
0.0
  0
LINE
  5
205
330
1F
100
AcDbEntity
  8
0
  6
Continuous
 62
     7
370
    25
100
AcDbLine
 10
937.5885799354
 20
1661.9194291413
 30
0.0
 11
940.3733755755
 21
1661.9194291413
 31
0.0
  0
LINE
  5
206
330
1F
100
AcDbEntity
  8
0
  6
Continuous
 62
     7
370
    25
100
AcDbLine
 10
892.3183183685
 20
1661.9194291413
 30
0.0
 11
898.3131448823
 21
1661.9194291413
 31
0.0
  0
LINE
  5
207
330
1F
100
AcDbEntity
  8
0
  6
Continuous
 62
     7
370
    25
100
AcDbLine
 10
966.9459507519
 20
1661.9194291413
 30
0.0
 11
961.4325918965
 21
1661.9194291413
 31
0.0
  0
LINE
  5
208
330
1F
100
AcDbEntity
  8
0
  6
Continuous
 62
     7
370
    25
100
AcDbLine
 10
879.6939660833
 20
1661.9194291413
 30
0.0
 11
882.1243818447
 21
1661.9194291413
 31
0.0
  0
LINE
  5
209
330
1F
100
AcDbEntity
  8
0
  6
Continuous
 62
     7
370
    25
100
AcDbLine
 10
913.1212907219
 20
1546.7512337855
 30
0.0
 11
906.9996204981
 21
1546.7512337855
 31
0.0
  0
LINE
  5
20A
330
1F
100
AcDbEntity
  8
0
  6
Continuous
 62
     7
370
    25
100
AcDbLine
 10
906.9996204981
 20
1546.7512337855
 30
0.0
 11
906.9996204981
 21
1548.1512337855
 31
0.0
  0
LINE
  5
20B
330
1F
100
AcDbEntity
  8
0
  6
Continuous
 62
     7
370
    25
100
AcDbLine
 10
916.309286914
 20
1548.1512337855
 30
0.0
 11
906.9996204981
 21
1548.1512337855
 31
0.0
  0
LINE
  5
20C
330
1F
100
AcDbEntity
  8
0
  6
Continuous
 62
     7
370
    25
100
AcDbLine
 10
916.309286914
 20
1547.2512337855
 30
0.0
 11
916.309286914
 21
1548.1512337855
 31
0.0
  0
LWPOLYLINE
  5
20D
330
1F
100
AcDbEntity
  8
0
  6
Continuous
 62
     7
370
    25
100
AcDbPolyline
 90
        3
 70
   128
 43
0.0
 10
915.8584037033
 20
1546.7512337855
 10
916.3000127398
 20
1547.2405664013
 10
916.309286914
 20
1547.2512337855
  0
LINE
  5
20E
330
1F
100
AcDbEntity
  8
0
  6
Continuous
 62
     7
370
    25
100
AcDbLine
 10
915.8584037033
 20
1546.7512337855
 30
0.0
 11
913.1212907219
 21
1546.7512337855
 31
0.0
  0
LINE
  5
20F
330
1F
100
AcDbEntity
  8
0
  6
Continuous
 62
     7
370
    25
100
AcDbLine
 10
915.262164111
 20
1548.1512337855
 30
0.0
 11
915.262164111
 21
1553.6512337855
 31
0.0
  0
LINE
  5
210
330
1F
100
AcDbEntity
  8
0
  6
Continuous
 62
     7
370
    25
100
AcDbLine
 10
908.2093865233
 20
1548.1512337855
 30
0.0
 11
908.2093865233
 21
1553.6512337855
 31
0.0
  0
LINE
  5
211
330
1F
100
AcDbEntity
  8
0
  6
Continuous
 62
     7
370
    25
100
AcDbLine
 10
915.262164111
 20
1553.6512337855
 30
0.0
 11
908.2093865233
 21
1553.6512337855
 31
0.0
  0
LWPOLYLINE
  5
212
330
1F
100
AcDbEntity
  8
0
  6
Continuous
 62
     7
370
    25
100
AcDbPolyline
 90
        9
 70
   128
 43
0.0
 10
913.8773944876
 20
1546.7512337855
 10
913.7627214657
 20
1545.8502645733
 10
913.542197154
 20
1544.996505085
 10
913.2232527594
 20
1544.2187252246
 10
912.8166360389
 20
1543.543134542
 10
912.3360491232
 20
1542.9924990261
 10
911.7976867832
 20
1542.5853739388
 10
911.2196907007
 20
1542.3354785417
 10
910.6215381312
 20
1542.2512337855
  0
LINE
  5
213
330
1F
100
AcDbEntity
  8
0
  6
Continuous
 62
     7
370
    25
100
AcDbLine
 10
910.6215381312
 20
1542.2512337855
 30
0.0
 11
909.8654343655
 21
1542.2512337855
 31
0.0
  0
LWPOLYLINE
  5
214
330
1F
100
AcDbEntity
  8
0
  6
Continuous
 62
     7
370
    25
100
AcDbPolyline
 90
        9
 70
   128
 43
0.0
 10
909.8654343655
 20
1542.2512337855
 10
910.463586935
 20
1542.3354785417
 10
911.0415830175
 20
1542.5853739388
 10
911.5799453575
 20
1542.9924990261
 10
912.0605322732
 20
1543.543134542
 10
912.4671489937
 20
1544.2187252246
 10
912.7860933883
 20
1544.996505085
 10
913.0066177
 20
1545.8502645733
 10
913.1212907219
 20
1546.7512337855
  0
LINE
  5
215
330
1F
100
AcDbEntity
  8
0
  6
Continuous
 62
     7
370
    25
100
AcDbLine
 10
903.8563126577
 20
1542.2512337855
 30
0.0
 11
903.8563126577
 21
1546.7512337855
 31
0.0
  0
LINE
  5
216
330
1F
100
AcDbEntity
  8
0
  6
Continuous
 62
     7
370
    25
100
AcDbLine
 10
903.8563126577
 20
1542.2512337855
 30
0.0
 11
909.8654343655
 21
1542.2512337855
 31
0.0
  0
LINE
  5
217
330
1F
100
AcDbEntity
  8
0
  6
Continuous
 62
     7
370
    25
100
AcDbLine
 10
932.6055443986
 20
1546.7512337855
 30
0.0
 11
931.7174013313
 21
1546.7512337855
 31
0.0
  0
LWPOLYLINE
  5
218
330
1F
100
AcDbEntity
  8
0
  6
Continuous
 62
     7
370
    25
100
AcDbPolyline
 90
        9
 70
   128
 43
0.0
 10
931.7174013313
 20
1546.7512337855
 10
931.6027283094
 20
1545.8502645733
 10
931.3822039977
 20
1544.996505085
 10
931.0632596031
 20
1544.2187252246
 10
930.6566428826
 20
1543.543134542
 10
930.1760559669
 20
1542.9924990261
 10
929.6376936269
 20
1542.5853739388
 10
929.0596975444
 20
1542.3354785417
 10
928.4615449749
 20
1542.2512337855
  0
LINE
  5
219
330
1F
100
AcDbEntity
  8
0
  6
Continuous
 62
     7
370
    25
100
AcDbLine
 10
928.4615449749
 20
1542.2512337855
 30
0.0
 11
927.7054412092
 21
1542.2512337855
 31
0.0
  0
LWPOLYLINE
  5
21A
330
1F
100
AcDbEntity
  8
0
  6
Continuous
 62
     7
370
    25
100
AcDbPolyline
 90
        9
 70
   128
 43
0.0
 10
927.7054412092
 20
1542.2512337855
 10
928.3035937787
 20
1542.3354785417
 10
928.8815898612
 20
1542.5853739388
 10
929.4199522012
 20
1542.9924990261
 10
929.9005391169
 20
1543.543134542
 10
930.3071558374
 20
1544.2187252246
 10
930.626100232
 20
1544.996505085
 10
930.8466245437
 20
1545.8502645733
 10
930.9612975656
 20
1546.7512337855
  0
LINE
  5
21B
330
1F
100
AcDbEntity
  8
0
  6
Continuous
 62
     7
370
    25
100
AcDbLine
 10
930.9612975656
 20
1546.7512337855
 30
0.0
 11
928.1637136326
 21
1546.7512337855
 31
0.0
  0
LWPOLYLINE
  5
21C
330
1F
100
AcDbEntity
  8
0
  6
Continuous
 62
     7
370
    25
100
AcDbPolyline
 90
        9
 70
   128
 43
0.0
 10
928.1637136326
 20
1546.7512337855
 10
928.0490406106
 20
1545.8502645733
 10
927.8285162989
 20
1544.996505085
 10
927.5095719043
 20
1544.2187252246
 10
927.1029551838
 20
1543.543134542
 10
926.6223682681
 20
1542.9924990261
 10
926.0840059282
 20
1542.5853739388
 10
925.5060098456
 20
1542.3354785417
 10
924.9078572761
 20
1542.2512337855
  0
LINE
  5
21D
330
1F
100
AcDbEntity
  8
0
  6
Continuous
 62
     7
370
    25
100
AcDbLine
 10
924.9078572761
 20
1542.2512337855
 30
0.0
 11
924.1517535104
 21
1542.2512337855
 31
0.0
  0
LWPOLYLINE
  5
21E
330
1F
100
AcDbEntity
  8
0
  6
Continuous
 62
     7
370
    25
100
AcDbPolyline
 90
        9
 70
   128
 43
0.0
 10
924.1517535104
 20
1542.2512337855
 10
924.7499060799
 20
1542.3354785417
 10
925.3279021625
 20
1542.5853739388
 10
925.8662645024
 20
1542.9924990261
 10
926.3468514181
 20
1543.543134542
 10
926.7534681386
 20
1544.2187252246
 10
927.0724125332
 20
1544.996505085
 10
927.2929368449
 20
1545.8502645733
 10
927.4076098669
 20
1546.7512337855
  0
LINE
  5
21F
330
1F
100
AcDbEntity
  8
0
  6
Continuous
 62
     7
370
    25
100
AcDbLine
 10
927.4076098669
 20
1546.7512337855
 30
0.0
 11
924.6100259338
 21
1546.7512337855
 31
0.0
  0
LWPOLYLINE
  5
220
330
1F
100
AcDbEntity
  8
0
  6
Continuous
 62
     7
370
    25
100
AcDbPolyline
 90
        9
 70
   128
 43
0.0
 10
924.6100259338
 20
1546.7512337855
 10
924.4953529118
 20
1545.8502645733
 10
924.2748286002
 20
1544.996505085
 10
923.9558842055
 20
1544.2187252246
 10
923.5492674851
 20
1543.543134542
 10
923.0686805693
 20
1542.9924990261
 10
922.5303182294
 20
1542.5853739388
 10
921.9523221469
 20
1542.3354785417
 10
921.3541695774
 20
1542.2512337855
  0
LINE
  5
221
330
1F
100
AcDbEntity
  8
0
  6
Continuous
 62
     7
370
    25
100
AcDbLine
 10
921.3541695774
 20
1542.2512337855
 30
0.0
 11
920.5980658117
 21
1542.2512337855
 31
0.0
  0
LWPOLYLINE
  5
222
330
1F
100
AcDbEntity
  8
0
  6
Continuous
 62
     7
370
    25
100
AcDbPolyline
 90
        9
 70
   128
 43
0.0
 10
920.5980658117
 20
1542.2512337855
 10
921.1962183812
 20
1542.3354785417
 10
921.7742144637
 20
1542.5853739388
 10
922.3125768036
 20
1542.9924990261
 10
922.7931637194
 20
1543.543134542
 10
923.1997804398
 20
1544.2187252246
 10
923.5187248345
 20
1544.996505085
 10
923.7392491461
 20
1545.8502645733
 10
923.8539221681
 20
1546.7512337855
  0
LINE
  5
223
330
1F
100
AcDbEntity
  8
0
  6
Continuous
 62
     7
370
    25
100
AcDbLine
 10
923.8539221681
 20
1546.7512337855
 30
0.0
 11
921.056338235
 21
1546.7512337855
 31
0.0
  0
LWPOLYLINE
  5
224
330
1F
100
AcDbEntity
  8
0
  6
Continuous
 62
     7
370
    25
100
AcDbPolyline
 90
        9
 70
   128
 43
0.0
 10
921.056338235
 20
1546.7512337855
 10
920.941665213
 20
1545.8502645733
 10
920.7211409014
 20
1544.996505085
 10
920.4021965068
 20
1544.2187252246
 10
919.9955797863
 20
1543.543134542
 10
919.5149928706
 20
1542.9924990261
 10
918.9766305306
 20
1542.5853739388
 10
918.3986344481
 20
1542.3354785417
 10
917.8004818786
 20
1542.2512337855
  0
LINE
  5
225
330
1F
100
AcDbEntity
  8
0
  6
Continuous
 62
     7
370
    25
100
AcDbLine
 10
917.8004818786
 20
1542.2512337855
 30
0.0
 11
917.0443781129
 21
1542.2512337855
 31
0.0
  0
LWPOLYLINE
  5
226
330
1F
100
AcDbEntity
  8
0
  6
Continuous
 62
     7
370
    25
100
AcDbPolyline
 90
        9
 70
   128
 43
0.0
 10
917.0443781129
 20
1542.2512337855
 10
917.6425306824
 20
1542.3354785417
 10
918.2205267649
 20
1542.5853739388
 10
918.7588891049
 20
1542.9924990261
 10
919.2394760206
 20
1543.543134542
 10
919.6460927411
 20
1544.2187252246
 10
919.9650371357
 20
1544.996505085
 10
920.1855614474
 20
1545.8502645733
 10
920.3002344693
 20
1546.7512337855
  0
LINE
  5
227
330
1F
100
AcDbEntity
  8
0
  6
Continuous
 62
     7
370
    25
100
AcDbLine
 10
920.3002344693
 20
1546.7512337855
 30
0.0
 11
917.5026505362
 21
1546.7512337855
 31
0.0
  0
LWPOLYLINE
  5
228
330
1F
100
AcDbEntity
  8
0
  6
Continuous
 62
     7
370
    25
100
AcDbPolyline
 90
        9
 70
   128
 43
0.0
 10
917.5026505362
 20
1546.7512337855
 10
917.3879775143
 20
1545.8502645733
 10
917.1674532026
 20
1544.996505085
 10
916.848508808
 20
1544.2187252246
 10
916.4418920875
 20
1543.543134542
 10
915.9613051718
 20
1542.9924990261
 10
915.4229428318
 20
1542.5853739388
 10
914.8449467493
 20
1542.3354785417
 10
914.2467941798
 20
1542.2512337855
  0
LWPOLYLINE
  5
229
330
1F
100
AcDbEntity
  8
0
  6
Continuous
 62
     7
370
    25
100
AcDbPolyline
 90
        9
 70
   128
 43
0.0
 10
913.4906904141
 20
1542.2512337855
 10
914.0888429836
 20
1542.3354785417
 10
914.6668390662
 20
1542.5853739388
 10
915.2052014061
 20
1542.9924990261
 10
915.6857883218
 20
1543.543134542
 10
916.0924050423
 20
1544.2187252246
 10
916.4113494369
 20
1544.996505085
 10
916.6318737486
 20
1545.8502645733
 10
916.7465467705
 20
1546.7512337855
  0
LINE
  5
22A
330
1F
100
AcDbEntity
  8
0
  6
Continuous
 62
     7
370
    25
100
AcDbLine
 10
916.309286914
 20
1547.2512337855
 30
0.0
 11
932.1874659936
 21
1547.2512337855
 31
0.0
  0
LWPOLYLINE
  5
22B
330
1F
100
AcDbEntity
  8
0
  6
Continuous
 62
     7
370
    25
100
AcDbPolyline
 90
        3
 70
   128
 43
0.0
 10
932.1874659936
 20
1547.2512337855
 10
932.1967252733
 20
1547.2405664013
 10
932.6055443986
 20
1546.7512337855
  0
LINE
  5
22C
330
1F
100
AcDbEntity
  8
0
  6
Continuous
 62
     7
370
    25
100
AcDbLine
 10
914.2467941798
 20
1542.2512337855
 30
0.0
 11
913.4906904141
 21
1542.2512337855
 31
0.0
  0
LINE
  5
22D
330
1F
100
AcDbEntity
  8
0
  6
Continuous
 62
     7
370
    25
100
AcDbLine
 10
916.7465467705
 20
1546.7512337855
 30
0.0
 11
915.8584037033
 21
1546.7512337855
 31
0.0
  0
LINE
  5
22E
330
1F
100
AcDbEntity
  8
0
  6
Continuous
 62
     7
370
    25
100
AcDbLine
 10
932.1874659936
 20
1547.2512337855
 30
0.0
 11
932.1874659936
 21
1548.1512337855
 31
0.0
  0
LINE
  5
22F
330
1F
100
AcDbEntity
  8
0
  6
Continuous
 62
     7
370
    25
100
AcDbLine
 10
932.1874659936
 20
1548.1512337855
 30
0.0
 11
916.309286914
 21
1548.1512337855
 31
0.0
  0
LINE
  5
230
330
1F
100
AcDbEntity
  8
0
  6
Continuous
 62
     7
370
    25
100
AcDbLine
 10
911.6905390003
 20
1542.2512337855
 30
0.0
 11
913.4906904141
 21
1542.2512337855
 31
0.0
  0
LINE
  5
231
330
1F
100
AcDbEntity
  8
0
  6
Continuous
 62
     7
370
    25
100
AcDbLine
 10
901.4367806074
 20
1542.2512337855
 30
0.0
 11
901.4367806074
 21
1546.7512337855
 31
0.0
  0
LINE
  5
232
330
1F
100
AcDbEntity
  8
0
  6
Continuous
 62
     7
370
    25
100
AcDbLine
 10
900.7823288556
 20
1542.2512337855
 30
0.0
 11
900.7823288556
 21
1546.7512337855
 31
0.0
  0
LINE
  5
233
330
1F
100
AcDbEntity
  8
0
  6
Continuous
 62
     7
370
    25
100
AcDbLine
 10
900.7823288556
 20
1546.7512337855
 30
0.0
 11
895.2194889648
 21
1546.7512337855
 31
0.0
  0
LINE
  5
234
330
1F
100
AcDbEntity
  8
0
  6
Continuous
 62
     7
370
    25
100
AcDbLine
 10
895.2194889648
 20
1546.7512337855
 30
0.0
 11
895.2194889648
 21
1548.1512337855
 31
0.0
  0
LINE
  5
235
330
1F
100
AcDbEntity
  8
0
  6
Continuous
 62
     7
370
    25
100
AcDbLine
 10
901.4367806074
 20
1542.2512337855
 30
0.0
 11
900.7823288556
 21
1542.2512337855
 31
0.0
  0
LINE
  5
236
330
1F
100
AcDbEntity
  8
0
  6
Continuous
 62
     7
370
    25
100
AcDbLine
 10
906.9996204981
 20
1546.7512337855
 30
0.0
 11
901.4367806074
 21
1546.7512337855
 31
0.0
  0
LINE
  5
237
330
1F
100
AcDbEntity
  8
0
  6
Continuous
 62
     7
370
    25
100
AcDbLine
 10
906.9996204981
 20
1548.1512337855
 30
0.0
 11
895.2194889648
 21
1548.1512337855
 31
0.0
  0
LINE
  5
238
330
1F
100
AcDbEntity
  8
0
  6
Continuous
 62
     7
370
    25
100
AcDbLine
 10
931.1403431906
 20
1548.1512337855
 30
0.0
 11
931.1403431906
 21
1553.6512337855
 31
0.0
  0
LINE
  5
239
330
1F
100
AcDbEntity
  8
0
  6
Continuous
 62
     7
370
    25
100
AcDbLine
 10
931.1403431906
 20
1553.6512337855
 30
0.0
 11
915.262164111
 21
1553.6512337855
 31
0.0
  0
LINE
  5
23A
330
1F
100
AcDbEntity
  8
0
  6
Continuous
 62
     7
370
    25
100
AcDbLine
 10
896.42925499
 20
1548.1512337855
 30
0.0
 11
896.42925499
 21
1553.6512337855
 31
0.0
  0
LINE
  5
23B
330
1F
100
AcDbEntity
  8
0
  6
Continuous
 62
     7
370
    25
100
AcDbLine
 10
908.2093865233
 20
1553.6512337855
 30
0.0
 11
896.42925499
 21
1553.6512337855
 31
0.0
  0
LINE
  5
23C
330
1F
100
AcDbEntity
  8
0
  6
Continuous
 62
     7
370
    25
100
AcDbLine
 10
914.2073906419
 20
1557.2512337855
 30
0.0
 11
914.2073906419
 21
1555.6512337855
 31
0.0
  0
LINE
  5
23D
330
1F
100
AcDbEntity
  8
0
  6
Continuous
 62
     7
370
    25
100
AcDbLine
 10
912.8633110781
 20
1557.2512337855
 30
0.0
 11
914.2073906419
 21
1557.2512337855
 31
0.0
  0
LINE
  5
23E
330
1F
100
AcDbEntity
  8
0
  6
Continuous
 62
     7
370
    25
100
AcDbLine
 10
914.2073906419
 20
1555.6512337855
 30
0.0
 11
914.2073906419
 21
1553.6512337855
 31
0.0
  0
LINE
  5
23F
330
1F
100
AcDbEntity
  8
0
  6
Continuous
 62
     7
370
    25
100
AcDbLine
 10
915.2446357953
 20
1542.2512337855
 30
0.0
 11
917.0443781129
 21
1542.2512337855
 31
0.0
  0
LINE
  5
240
330
1F
100
AcDbEntity
  8
0
  6
Continuous
 62
     7
370
    25
100
AcDbLine
 10
928.5510923558
 20
1563.6512337855
 30
0.0
 11
928.1557160414
 21
1563.6512337855
 31
0.0
  0
LINE
  5
241
330
1F
100
AcDbEntity
  8
0
  6
Continuous
 62
     7
370
    25
100
AcDbLine
 10
928.5510923558
 20
1562.6512337855
 30
0.0
 11
928.5510923558
 21
1563.6512337855
 31
0.0
  0
LINE
  5
242
330
1F
100
AcDbEntity
  8
0
  6
Continuous
 62
     7
370
    25
100
AcDbLine
 10
928.1557160414
 20
1562.6512337855
 30
0.0
 11
928.5510923558
 21
1562.6512337855
 31
0.0
  0
LINE
  5
243
330
1F
100
AcDbEntity
  8
0
  6
Continuous
 62
     7
370
    25
100
AcDbLine
 10
917.6098575875
 20
1558.2512337855
 30
0.0
 11
917.6098575875
 21
1557.2512337855
 31
0.0
  0
LINE
  5
244
330
1F
100
AcDbEntity
  8
0
  6
Continuous
 62
     7
370
    25
100
AcDbLine
 10
924.7928433617
 20
1558.2512337855
 30
0.0
 11
917.6098575875
 21
1558.2512337855
 31
0.0
  0
LINE
  5
245
330
1F
100
AcDbEntity
  8
0
  6
Continuous
 62
     7
370
    25
100
AcDbLine
 10
924.7928433617
 20
1557.2512337855
 30
0.0
 11
924.7928433617
 21
1558.2512337855
 31
0.0
  0
LINE
  5
246
330
1F
100
AcDbEntity
  8
0
  6
Continuous
 62
     7
370
    25
100
AcDbLine
 10
927.363596165
 20
1553.6512337855
 30
0.0
 11
927.363596165
 21
1557.2512337855
 31
0.0
  0
LINE
  5
247
330
1F
100
AcDbEntity
  8
0
  6
Continuous
 62
     7
370
    25
100
AcDbLine
 10
927.363596165
 20
1557.2512337855
 30
0.0
 11
924.7928433617
 21
1557.2512337855
 31
0.0
  0
LINE
  5
248
330
1F
100
AcDbEntity
  8
0
  6
Continuous
 62
     7
370
    25
100
AcDbLine
 10
917.6098575875
 20
1557.2512337855
 30
0.0
 11
914.2073906419
 21
1557.2512337855
 31
0.0
  0
LINE
  5
249
330
1F
100
AcDbEntity
  8
0
  6
Continuous
 62
     7
370
    25
100
AcDbLine
 10
918.7983234941
 20
1542.2512337855
 30
0.0
 11
920.5980658117
 21
1542.2512337855
 31
0.0
  0
LINE
  5
24A
330
1F
100
AcDbEntity
  8
0
  6
Continuous
 62
     7
370
    25
100
AcDbLine
 10
901.4367806074
 20
1542.2512337855
 30
0.0
 11
903.8563126577
 21
1542.2512337855
 31
0.0
  0
LINE
  5
24B
330
1F
100
AcDbEntity
  8
0
  6
Continuous
 62
     7
370
    25
100
AcDbLine
 10
917.4462446496
 20
1558.2512337855
 30
0.0
 11
917.6098575875
 21
1558.2512337855
 31
0.0
  0
LINE
  5
24C
330
1F
100
AcDbEntity
  8
0
  6
Continuous
 62
     7
370
    25
100
AcDbLine
 10
922.3520111929
 20
1542.2512337855
 30
0.0
 11
924.1517535104
 21
1542.2512337855
 31
0.0
  0
LWPOLYLINE
  5
24D
330
1F
100
AcDbEntity
  8
0
  6
Continuous
 62
     7
370
    25
100
AcDbPolyline
 90
        9
 70
   128
 43
0.0
 10
893.9368828415
 20
1546.7512337855
 10
894.0515558635
 20
1545.8502645733
 10
894.2720801752
 20
1544.996505085
 10
894.5910245698
 20
1544.2187252246
 10
894.9976412903
 20
1543.543134542
 10
895.478228206
 20
1542.9924990261
 10
896.0165905459
 20
1542.5853739388
 10
896.5945866285
 20
1542.3354785417
 10
897.192739198
 20
1542.2512337855
  0
LINE
  5
24E
330
1F
100
AcDbEntity
  8
0
  6
Continuous
 62
     7
370
    25
100
AcDbLine
 10
897.192739198
 20
1542.2512337855
 30
0.0
 11
900.7823288556
 21
1542.2512337855
 31
0.0
  0
LINE
  5
24F
330
1F
100
AcDbEntity
  8
0
  6
Continuous
 62
     7
370
    25
100
AcDbLine
 10
925.9056988916
 20
1542.2512337855
 30
0.0
 11
927.7054412092
 21
1542.2512337855
 31
0.0
  0
LINE
  5
250
330
1F
100
AcDbEntity
  8
0
  6
Continuous
 62
     7
370
    25
100
AcDbLine
 10
934.4680844314
 20
1546.7512337855
 30
0.0
 11
934.1409754083
 21
1546.7512337855
 31
0.0
  0
LINE
  5
251
330
1F
100
AcDbEntity
  8
0
  6
Continuous
 62
     7
370
    25
100
AcDbLine
 10
934.1409754083
 20
1546.7512337855
 30
0.0
 11
932.6055443986
 21
1546.7512337855
 31
0.0
  0
LINE
  5
252
330
1F
100
AcDbEntity
  8
0
  6
Continuous
 62
     7
370
    25
100
AcDbLine
 10
934.4680844314
 20
1548.1512337855
 30
0.0
 11
932.1874659936
 21
1548.1512337855
 31
0.0
  0
LINE
  5
253
330
1F
100
AcDbEntity
  8
0
  6
Continuous
 62
     7
370
    25
100
AcDbLine
 10
895.2194889648
 20
1546.7512337855
 30
0.0
 11
893.6097738184
 21
1546.7512337855
 31
0.0
  0
LINE
  5
254
330
1F
100
AcDbEntity
  8
0
  6
Continuous
 62
     7
370
    25
100
AcDbLine
 10
895.2194889648
 20
1548.1512337855
 30
0.0
 11
893.6097738184
 21
1548.1512337855
 31
0.0
  0
LINE
  5
255
330
1F
100
AcDbEntity
  8
0
  6
Continuous
 62
     7
370
    25
100
AcDbLine
 10
932.8680844314
 20
1553.6512337855
 30
0.0
 11
931.1403431906
 21
1553.6512337855
 31
0.0
  0
LINE
  5
256
330
1F
100
AcDbEntity
  8
0
  6
Continuous
 62
     7
370
    25
100
AcDbLine
 10
896.42925499
 20
1553.6512337855
 30
0.0
 11
895.2097738184
 21
1553.6512337855
 31
0.0
  0
LWPOLYLINE
  5
257
330
1F
100
AcDbEntity
  8
0
  6
Continuous
 62
     7
370
    25
100
AcDbPolyline
 90
        9
 70
   128
 43
0.0
 10
934.1409754083
 20
1546.7512337855
 10
934.0263023863
 20
1545.8502645733
 10
933.8057780747
 20
1544.996505085
 10
933.48683368
 20
1544.2187252246
 10
933.0802169596
 20
1543.543134542
 10
932.5996300438
 20
1542.9924990261
 10
932.0612677039
 20
1542.5853739388
 10
931.4832716214
 20
1542.3354785417
 10
930.8851190519
 20
1542.2512337855
  0
LWPOLYLINE
  5
258
330
1F
100
AcDbEntity
  8
0
  6
Continuous
 62
     7
370
    25
100
AcDbPolyline
 90
        9
 70
   128
 43
0.0
 10
930.1290152862
 20
1542.2512337855
 10
930.7271678557
 20
1542.3354785417
 10
931.3051639382
 20
1542.5853739388
 10
931.8435262781
 20
1542.9924990261
 10
932.3241131939
 20
1543.543134542
 10
932.7307299143
 20
1544.2187252246
 10
933.049674309
 20
1544.996505085
 10
933.2701986206
 20
1545.8502645733
 10
933.3848716426
 20
1546.7512337855
  0
LINE
  5
259
330
1F
100
AcDbEntity
  8
0
  6
Continuous
 62
     7
370
    25
100
AcDbLine
 10
930.8851190519
 20
1542.2512337855
 30
0.0
 11
930.1290152862
 21
1542.2512337855
 31
0.0
  0
LINE
  5
25A
330
1F
100
AcDbEntity
  8
0
  6
Continuous
 62
     7
370
    25
100
AcDbLine
 10
928.4615449749
 20
1542.2512337855
 30
0.0
 11
930.1290152862
 21
1542.2512337855
 31
0.0
  0
LINE
  5
25B
330
1F
100
AcDbEntity
  8
0
  6
Continuous
 62
     7
370
    25
100
AcDbLine
 10
928.5510923558
 20
1553.6512337855
 30
0.0
 11
928.5510923558
 21
1557.2512337855
 31
0.0
  0
LINE
  5
25C
330
1F
100
AcDbEntity
  8
0
  6
Continuous
 62
     7
370
    25
100
AcDbLine
 10
928.5510923558
 20
1557.2512337855
 30
0.0
 11
928.1557160414
 21
1557.2512337855
 31
0.0
  0
LINE
  5
25D
330
1F
100
AcDbEntity
  8
0
  6
Continuous
 62
     7
370
    25
100
AcDbLine
 10
928.1705259376
 20
1569.2512337855
 30
0.0
 11
937.4801923535
 21
1569.2512337855
 31
0.0
  0
LINE
  5
25E
330
1F
100
AcDbEntity
  8
0
  6
Continuous
 62
     7
370
    25
100
AcDbLine
 10
928.1705259376
 20
1570.6512337855
 30
0.0
 11
928.1705259376
 21
1569.2512337855
 31
0.0
  0
LINE
  5
25F
330
1F
100
AcDbEntity
  8
0
  6
Continuous
 62
     7
370
    25
100
AcDbLine
 10
928.1705259376
 20
1570.6512337855
 30
0.0
 11
934.2921961614
 21
1570.6512337855
 31
0.0
  0
LINE
  5
260
330
1F
100
AcDbEntity
  8
0
  6
Continuous
 62
     7
370
    25
100
AcDbLine
 10
934.2921961614
 20
1570.6512337855
 30
0.0
 11
937.0293091428
 21
1570.6512337855
 31
0.0
  0
LWPOLYLINE
  5
261
330
1F
100
AcDbEntity
  8
0
  6
Continuous
 62
     7
370
    25
100
AcDbPolyline
 90
        3
 70
   128
 43
0.0
 10
937.4801923535
 20
1570.1512337855
 10
937.4709181794
 20
1570.1619011697
 10
937.0293091428
 20
1570.6512337855
  0
LINE
  5
262
330
1F
100
AcDbEntity
  8
0
  6
Continuous
 62
     7
370
    25
100
AcDbLine
 10
937.4801923535
 20
1570.1512337855
 30
0.0
 11
937.4801923535
 21
1569.2512337855
 31
0.0
  0
LINE
  5
263
330
1F
100
AcDbEntity
  8
0
  6
Continuous
 62
     7
370
    25
100
AcDbLine
 10
929.3802919628
 20
1569.2512337855
 30
0.0
 11
929.3802919628
 21
1563.7512337855
 31
0.0
  0
LINE
  5
264
330
1F
100
AcDbEntity
  8
0
  6
Continuous
 62
     7
370
    25
100
AcDbLine
 10
936.4330695505
 20
1569.2512337855
 30
0.0
 11
936.4330695505
 21
1563.7512337855
 31
0.0
  0
LINE
  5
265
330
1F
100
AcDbEntity
  8
0
  6
Continuous
 62
     7
370
    25
100
AcDbLine
 10
929.3802919628
 20
1563.7512337855
 30
0.0
 11
936.4330695505
 21
1563.7512337855
 31
0.0
  0
LINE
  5
266
330
1F
100
AcDbEntity
  8
0
  6
Continuous
 62
     7
370
    25
100
AcDbLine
 10
928.1557160414
 20
1575.1512337855
 30
0.0
 11
931.036339805
 21
1575.1512337855
 31
0.0
  0
LWPOLYLINE
  5
267
330
1F
100
AcDbEntity
  8
0
  6
Continuous
 62
     7
370
    25
100
AcDbPolyline
 90
        9
 70
   128
 43
0.0
 10
934.2921961614
 20
1570.6512337855
 10
934.1775231395
 20
1571.5522029977
 10
933.9569988278
 20
1572.405962486
 10
933.6380544332
 20
1573.1837423464
 10
933.2314377127
 20
1573.8593330291
 10
932.750850797
 20
1574.409968545
 10
932.212488457
 20
1574.8170936322
 10
931.6344923745
 20
1575.0669890293
 10
931.036339805
 20
1575.1512337855
  0
LINE
  5
268
330
1F
100
AcDbEntity
  8
0
  6
Continuous
 62
     7
370
    25
100
AcDbLine
 10
931.036339805
 20
1575.1512337855
 30
0.0
 11
931.7924435707
 21
1575.1512337855
 31
0.0
  0
LWPOLYLINE
  5
269
330
1F
100
AcDbEntity
  8
0
  6
Continuous
 62
     7
370
    25
100
AcDbPolyline
 90
        9
 70
   128
 43
0.0
 10
931.7924435707
 20
1575.1512337855
 10
932.3905961402
 20
1575.0669890293
 10
932.9685922227
 20
1574.8170936322
 10
933.5069545627
 20
1574.409968545
 10
933.9875414784
 20
1573.8593330291
 10
934.3941581989
 20
1573.1837423464
 10
934.7131025935
 20
1572.405962486
 10
934.9336269052
 20
1571.5522029977
 10
935.0482999271
 20
1570.6512337855
  0
LWPOLYLINE
  5
26A
330
1F
100
AcDbEntity
  8
0
  6
Continuous
 62
     7
370
    25
100
AcDbPolyline
 90
        9
 70
   128
 43
0.0
 10
937.91745221
 20
1570.6512337855
 10
937.8027791881
 20
1571.5522029977
 10
937.5822548764
 20
1572.405962486
 10
937.2633104818
 20
1573.1837423464
 10
936.8566937613
 20
1573.8593330291
 10
936.3761068456
 20
1574.409968545
 10
935.8377445057
 20
1574.8170936322
 10
935.2597484231
 20
1575.0669890293
 10
934.6615958536
 20
1575.1512337855
  0
LWPOLYLINE
  5
26B
330
1F
100
AcDbEntity
  8
0
  6
Continuous
 62
     7
370
    25
100
AcDbPolyline
 90
        9
 70
   128
 43
0.0
 10
935.4176996193
 20
1575.1512337855
 10
936.0158521888
 20
1575.0669890293
 10
936.5938482714
 20
1574.8170936322
 10
937.1322106113
 20
1574.409968545
 10
937.612797527
 20
1573.8593330291
 10
938.0194142475
 20
1573.1837423464
 10
938.3383586421
 20
1572.405962486
 10
938.5588829538
 20
1571.5522029977
 10
938.6735559757
 20
1570.6512337855
  0
LINE
  5
26C
330
1F
100
AcDbEntity
  8
0
  6
Continuous
 62
     7
370
    25
100
AcDbLine
 10
938.6735559757
 20
1570.6512337855
 30
0.0
 11
941.4711399088
 21
1570.6512337855
 31
0.0
  0
LWPOLYLINE
  5
26D
330
1F
100
AcDbEntity
  8
0
  6
Continuous
 62
     7
370
    25
100
AcDbPolyline
 90
        9
 70
   128
 43
0.0
 10
941.4711399088
 20
1570.6512337855
 10
941.3564668869
 20
1571.5522029977
 10
941.1359425752
 20
1572.405962486
 10
940.8169981806
 20
1573.1837423464
 10
940.4103814601
 20
1573.8593330291
 10
939.9297945444
 20
1574.409968545
 10
939.3914322044
 20
1574.8170936322
 10
938.8134361219
 20
1575.0669890293
 10
938.2152835524
 20
1575.1512337855
  0
LINE
  5
26E
330
1F
100
AcDbEntity
  8
0
  6
Continuous
 62
     7
370
    25
100
AcDbLine
 10
938.2152835524
 20
1575.1512337855
 30
0.0
 11
938.9713873181
 21
1575.1512337855
 31
0.0
  0
LWPOLYLINE
  5
26F
330
1F
100
AcDbEntity
  8
0
  6
Continuous
 62
     7
370
    25
100
AcDbPolyline
 90
        9
 70
   128
 43
0.0
 10
938.9713873181
 20
1575.1512337855
 10
939.5695398876
 20
1575.0669890293
 10
940.1475359701
 20
1574.8170936322
 10
940.6858983101
 20
1574.409968545
 10
941.1664852258
 20
1573.8593330291
 10
941.5731019463
 20
1573.1837423464
 10
941.8920463409
 20
1572.405962486
 10
942.1125706526
 20
1571.5522029977
 10
942.2272436745
 20
1570.6512337855
  0
LINE
  5
270
330
1F
100
AcDbEntity
  8
0
  6
Continuous
 62
     7
370
    25
100
AcDbLine
 10
942.2272436745
 20
1570.6512337855
 30
0.0
 11
945.0248276076
 21
1570.6512337855
 31
0.0
  0
LWPOLYLINE
  5
271
330
1F
100
AcDbEntity
  8
0
  6
Continuous
 62
     7
370
    25
100
AcDbPolyline
 90
        9
 70
   128
 43
0.0
 10
945.0248276076
 20
1570.6512337855
 10
944.9101545856
 20
1571.5522029977
 10
944.689630274
 20
1572.405962486
 10
944.3706858793
 20
1573.1837423464
 10
943.9640691589
 20
1573.8593330291
 10
943.4834822431
 20
1574.409968545
 10
942.9451199032
 20
1574.8170936322
 10
942.3671238207
 20
1575.0669890293
 10
941.7689712512
 20
1575.1512337855
  0
LINE
  5
272
330
1F
100
AcDbEntity
  8
0
  6
Continuous
 62
     7
370
    25
100
AcDbLine
 10
941.7689712512
 20
1575.1512337855
 30
0.0
 11
942.5250750169
 21
1575.1512337855
 31
0.0
  0
LWPOLYLINE
  5
273
330
1F
100
AcDbEntity
  8
0
  6
Continuous
 62
     7
370
    25
100
AcDbPolyline
 90
        9
 70
   128
 43
0.0
 10
942.5250750169
 20
1575.1512337855
 10
943.1232275864
 20
1575.0669890293
 10
943.7012236689
 20
1574.8170936322
 10
944.2395860088
 20
1574.409968545
 10
944.7201729246
 20
1573.8593330291
 10
945.126789645
 20
1573.1837423464
 10
945.4457340397
 20
1572.405962486
 10
945.6662583513
 20
1571.5522029977
 10
945.7809313733
 20
1570.6512337855
  0
LINE
  5
274
330
1F
100
AcDbEntity
  8
0
  6
Continuous
 62
     7
370
    25
100
AcDbLine
 10
945.7809313733
 20
1570.6512337855
 30
0.0
 11
948.5785153064
 21
1570.6512337855
 31
0.0
  0
LWPOLYLINE
  5
275
330
1F
100
AcDbEntity
  8
0
  6
Continuous
 62
     7
370
    25
100
AcDbPolyline
 90
        9
 70
   128
 43
0.0
 10
948.5785153064
 20
1570.6512337855
 10
948.4638422844
 20
1571.5522029977
 10
948.2433179727
 20
1572.405962486
 10
947.9243735781
 20
1573.1837423464
 10
947.5177568576
 20
1573.8593330291
 10
947.0371699419
 20
1574.409968545
 10
946.498807602
 20
1574.8170936322
 10
945.9208115194
 20
1575.0669890293
 10
945.3226589499
 20
1575.1512337855
  0
LINE
  5
276
330
1F
100
AcDbEntity
  8
0
  6
Continuous
 62
     7
370
    25
100
AcDbLine
 10
945.3226589499
 20
1575.1512337855
 30
0.0
 11
946.0787627156
 21
1575.1512337855
 31
0.0
  0
LWPOLYLINE
  5
277
330
1F
100
AcDbEntity
  8
0
  6
Continuous
 62
     7
370
    25
100
AcDbPolyline
 90
        9
 70
   128
 43
0.0
 10
946.0787627156
 20
1575.1512337855
 10
946.6769152851
 20
1575.0669890293
 10
947.2549113677
 20
1574.8170936322
 10
947.7932737076
 20
1574.409968545
 10
948.2738606233
 20
1573.8593330291
 10
948.6804773438
 20
1573.1837423464
 10
948.9994217384
 20
1572.405962486
 10
949.2199460501
 20
1571.5522029977
 10
949.3346190721
 20
1570.6512337855
  0
LINE
  5
278
330
1F
100
AcDbEntity
  8
0
  6
Continuous
 62
     7
370
    25
100
AcDbLine
 10
949.3346190721
 20
1570.6512337855
 30
0.0
 11
952.1322030051
 21
1570.6512337855
 31
0.0
  0
LWPOLYLINE
  5
279
330
1F
100
AcDbEntity
  8
0
  6
Continuous
 62
     7
370
    25
100
AcDbPolyline
 90
        9
 70
   128
 43
0.0
 10
952.1322030051
 20
1570.6512337855
 10
952.0175299832
 20
1571.5522029977
 10
951.7970056715
 20
1572.405962486
 10
951.4780612769
 20
1573.1837423464
 10
951.0714445564
 20
1573.8593330291
 10
950.5908576407
 20
1574.409968545
 10
950.0524953008
 20
1574.8170936322
 10
949.4744992182
 20
1575.0669890293
 10
948.8763466487
 20
1575.1512337855
  0
LINE
  5
27A
330
1F
100
AcDbEntity
  8
0
  6
Continuous
 62
     7
370
    25
100
AcDbLine
 10
948.8763466487
 20
1575.1512337855
 30
0.0
 11
949.6324504144
 21
1575.1512337855
 31
0.0
  0
LWPOLYLINE
  5
27B
330
1F
100
AcDbEntity
  8
0
  6
Continuous
 62
     7
370
    25
100
AcDbPolyline
 90
        9
 70
   128
 43
0.0
 10
949.6324504144
 20
1575.1512337855
 10
950.2306029839
 20
1575.0669890293
 10
950.8085990664
 20
1574.8170936322
 10
951.3469614064
 20
1574.409968545
 10
951.8275483221
 20
1573.8593330291
 10
952.2341650426
 20
1573.1837423464
 10
952.5531094372
 20
1572.405962486
 10
952.7736337489
 20
1571.5522029977
 10
952.8883067708
 20
1570.6512337855
  0
LINE
  5
27C
330
1F
100
AcDbEntity
  8
0
  6
Continuous
 62
     7
370
    25
100
AcDbLine
 10
952.8883067708
 20
1570.6512337855
 30
0.0
 11
953.7764498381
 21
1570.6512337855
 31
0.0
  0
LWPOLYLINE
  5
27D
330
1F
100
AcDbEntity
  8
0
  6
Continuous
 62
     7
370
    25
100
AcDbPolyline
 90
        3
 70
   128
 43
0.0
 10
953.7764498381
 20
1570.6512337855
 10
953.3676307128
 20
1570.1619011697
 10
953.3583714331
 20
1570.1512337855
  0
LINE
  5
27E
330
1F
100
AcDbEntity
  8
0
  6
Continuous
 62
     7
370
    25
100
AcDbLine
 10
953.3583714331
 20
1570.1512337855
 30
0.0
 11
937.4801923535
 21
1570.1512337855
 31
0.0
  0
LINE
  5
27F
330
1F
100
AcDbEntity
  8
0
  6
Continuous
 62
     7
370
    25
100
AcDbLine
 10
934.6615958536
 20
1575.1512337855
 30
0.0
 11
935.4176996193
 21
1575.1512337855
 31
0.0
  0
LINE
  5
280
330
1F
100
AcDbEntity
  8
0
  6
Continuous
 62
     7
370
    25
100
AcDbLine
 10
937.0293091428
 20
1570.6512337855
 30
0.0
 11
937.91745221
 21
1570.6512337855
 31
0.0
  0
LINE
  5
281
330
1F
100
AcDbEntity
  8
0
  6
Continuous
 62
     7
370
    25
100
AcDbLine
 10
953.3583714331
 20
1570.1512337855
 30
0.0
 11
953.3583714331
 21
1569.2512337855
 31
0.0
  0
LINE
  5
282
330
1F
100
AcDbEntity
  8
0
  6
Continuous
 62
     7
370
    25
100
AcDbLine
 10
937.4801923535
 20
1569.2512337855
 30
0.0
 11
953.3583714331
 21
1569.2512337855
 31
0.0
  0
LINE
  5
283
330
1F
100
AcDbEntity
  8
0
  6
Continuous
 62
     7
370
    25
100
AcDbLine
 10
932.8614444398
 20
1575.1512337855
 30
0.0
 11
934.6615958536
 21
1575.1512337855
 31
0.0
  0
LINE
  5
284
330
1F
100
AcDbEntity
  8
0
  6
Continuous
 62
     7
370
    25
100
AcDbLine
 10
928.096119235
 20
1570.6512337855
 30
0.0
 11
928.1705259376
 21
1570.6512337855
 31
0.0
  0
LINE
  5
285
330
1F
100
AcDbEntity
  8
0
  6
Continuous
 62
     7
370
    25
100
AcDbLine
 10
928.096119235
 20
1569.2512337855
 30
0.0
 11
928.1705259376
 21
1569.2512337855
 31
0.0
  0
LINE
  5
286
330
1F
100
AcDbEntity
  8
0
  6
Continuous
 62
     7
370
    25
100
AcDbLine
 10
952.3112486301
 20
1569.2512337855
 30
0.0
 11
952.3112486301
 21
1563.7512337855
 31
0.0
  0
LINE
  5
287
330
1F
100
AcDbEntity
  8
0
  6
Continuous
 62
     7
370
    25
100
AcDbLine
 10
936.4330695505
 20
1563.7512337855
 30
0.0
 11
952.3112486301
 21
1563.7512337855
 31
0.0
  0
LINE
  5
288
330
1F
100
AcDbEntity
  8
0
  6
Continuous
 62
     7
370
    25
100
AcDbLine
 10
928.1557160414
 20
1563.7512337855
 30
0.0
 11
929.3802919628
 21
1563.7512337855
 31
0.0
  0
LINE
  5
289
330
1F
100
AcDbEntity
  8
0
  6
Continuous
 62
     7
370
    25
100
AcDbLine
 10
936.4155412348
 20
1575.1512337855
 30
0.0
 11
938.2152835524
 21
1575.1512337855
 31
0.0
  0
LINE
  5
28A
330
1F
100
AcDbEntity
  8
0
  6
Continuous
 62
     7
370
    25
100
AcDbLine
 10
928.5510923558
 20
1563.7512337855
 30
0.0
 11
928.5510923558
 21
1560.1512337855
 31
0.0
  0
LINE
  5
28B
330
1F
100
AcDbEntity
  8
0
  6
Continuous
 62
     7
370
    25
100
AcDbLine
 10
928.5510923558
 20
1560.1512337855
 30
0.0
 11
930.2523258286
 21
1560.1512337855
 31
0.0
  0
LINE
  5
28C
330
1F
100
AcDbEntity
  8
0
  6
Continuous
 62
     7
370
    25
100
AcDbLine
 10
928.5510923558
 20
1560.1512337855
 30
0.0
 11
928.1557160414
 21
1560.1512337855
 31
0.0
  0
LINE
  5
28D
330
1F
100
AcDbEntity
  8
0
  6
Continuous
 62
     7
370
    25
100
AcDbLine
 10
929.3071961215
 20
1557.5512337855
 30
0.0
 11
930.2523258286
 21
1557.5512337855
 31
0.0
  0
LINE
  5
28E
330
1F
100
AcDbEntity
  8
0
  6
Continuous
 62
     7
370
    25
100
AcDbLine
 10
928.5510923558
 20
1553.7512337855
 30
0.0
 11
930.2523258286
 21
1553.7512337855
 31
0.0
  0
LINE
  5
28F
330
1F
100
AcDbEntity
  8
0
  6
Continuous
 62
     7
370
    25
100
AcDbLine
 10
928.5510923558
 20
1554.7512337855
 30
0.0
 11
928.5510923558
 21
1553.7512337855
 31
0.0
  0
LINE
  5
290
330
1F
100
AcDbEntity
  8
0
  6
Continuous
 62
     7
370
    25
100
AcDbLine
 10
929.3071961215
 20
1554.7512337855
 30
0.0
 11
928.5510923558
 21
1554.7512337855
 31
0.0
  0
LINE
  5
291
330
1F
100
AcDbEntity
  8
0
  6
Continuous
 62
     7
370
    25
100
AcDbLine
 10
929.3071961215
 20
1557.5512337855
 30
0.0
 11
929.3071961215
 21
1554.7512337855
 31
0.0
  0
LINE
  5
292
330
1F
100
AcDbEntity
  8
0
  6
Continuous
 62
     7
370
    25
100
AcDbLine
 10
947.4759563326
 20
1561.7512337855
 30
0.0
 11
947.4759563326
 21
1563.7512337855
 31
0.0
  0
LINE
  5
293
330
1F
100
AcDbEntity
  8
0
  6
Continuous
 62
     7
370
    25
100
AcDbLine
 10
947.4759563326
 20
1560.1512337855
 30
0.0
 11
947.4759563326
 21
1561.7512337855
 31
0.0
  0
LINE
  5
294
330
1F
100
AcDbEntity
  8
0
  6
Continuous
 62
     7
370
    25
100
AcDbLine
 10
944.0734893869
 20
1559.1512337855
 30
0.0
 11
944.0734893869
 21
1560.1512337855
 31
0.0
  0
LINE
  5
295
330
1F
100
AcDbEntity
  8
0
  6
Continuous
 62
     7
370
    25
100
AcDbLine
 10
936.8905036128
 20
1559.1512337855
 30
0.0
 11
944.0734893869
 21
1559.1512337855
 31
0.0
  0
LINE
  5
296
330
1F
100
AcDbEntity
  8
0
  6
Continuous
 62
     7
370
    25
100
AcDbLine
 10
936.8905036128
 20
1560.1512337855
 30
0.0
 11
936.8905036128
 21
1559.1512337855
 31
0.0
  0
LINE
  5
297
330
1F
100
AcDbEntity
  8
0
  6
Continuous
 62
     7
370
    25
100
AcDbLine
 10
934.3197508094
 20
1563.7512337855
 30
0.0
 11
934.3197508094
 21
1560.1512337855
 31
0.0
  0
LINE
  5
298
330
1F
100
AcDbEntity
  8
0
  6
Continuous
 62
     7
370
    25
100
AcDbLine
 10
934.3197508094
 20
1560.1512337855
 30
0.0
 11
936.8905036128
 21
1560.1512337855
 31
0.0
  0
LINE
  5
299
330
1F
100
AcDbEntity
  8
0
  6
Continuous
 62
     7
370
    25
100
AcDbLine
 10
944.0734893869
 20
1560.1512337855
 30
0.0
 11
947.4759563326
 21
1560.1512337855
 31
0.0
  0
LINE
  5
29A
330
1F
100
AcDbEntity
  8
0
  6
Continuous
 62
     7
370
    25
100
AcDbLine
 10
934.1561378715
 20
1560.1512337855
 30
0.0
 11
934.3197508094
 21
1560.1512337855
 31
0.0
  0
LINE
  5
29B
330
1F
100
AcDbEntity
  8
0
  6
Continuous
 62
     7
370
    25
100
AcDbLine
 10
929.3071961215
 20
1557.5512337855
 30
0.0
 11
928.1557160414
 21
1557.5512337855
 31
0.0
  0
LINE
  5
29C
330
1F
100
AcDbEntity
  8
0
  6
Continuous
 62
     7
370
    25
100
AcDbLine
 10
939.9692289336
 20
1575.1512337855
 30
0.0
 11
941.7689712512
 21
1575.1512337855
 31
0.0
  0
LINE
  5
29D
330
1F
100
AcDbEntity
  8
0
  6
Continuous
 62
     7
370
    25
100
AcDbLine
 10
936.7268906748
 20
1559.1512337855
 30
0.0
 11
936.8905036128
 21
1559.1512337855
 31
0.0
  0
LINE
  5
29E
330
1F
100
AcDbEntity
  8
0
  6
Continuous
 62
     7
370
    25
100
AcDbLine
 10
943.5229166324
 20
1575.1512337855
 30
0.0
 11
945.3226589499
 21
1575.1512337855
 31
0.0
  0
LINE
  5
29F
330
1F
100
AcDbEntity
  8
0
  6
Continuous
 62
     7
370
    25
100
AcDbLine
 10
947.0766043311
 20
1575.1512337855
 30
0.0
 11
948.8763466487
 21
1575.1512337855
 31
0.0
  0
LINE
  5
2A0
330
1F
100
AcDbEntity
  8
0
  6
Continuous
 62
     7
370
    25
100
AcDbLine
 10
955.3118808478
 20
1570.6512337855
 30
0.0
 11
955.6389898709
 21
1570.6512337855
 31
0.0
  0
LINE
  5
2A1
330
1F
100
AcDbEntity
  8
0
  6
Continuous
 62
     7
370
    25
100
AcDbLine
 10
953.7764498381
 20
1570.6512337855
 30
0.0
 11
955.3118808478
 21
1570.6512337855
 31
0.0
  0
LINE
  5
2A2
330
1F
100
AcDbEntity
  8
0
  6
Continuous
 62
     7
370
    25
100
AcDbLine
 10
953.3583714331
 20
1569.2512337855
 30
0.0
 11
955.6389898709
 21
1569.2512337855
 31
0.0
  0
LINE
  5
2A3
330
1F
100
AcDbEntity
  8
0
  6
Continuous
 62
     7
370
    25
100
AcDbLine
 10
952.3112486301
 20
1563.7512337855
 30
0.0
 11
954.0389898709
 21
1563.7512337855
 31
0.0
  0
LWPOLYLINE
  5
2A4
330
1F
100
AcDbEntity
  8
0
  6
Continuous
 62
     7
370
    25
100
AcDbPolyline
 90
        9
 70
   128
 43
0.0
 10
954.5557770821
 20
1570.6512337855
 10
954.4411040601
 20
1571.5522029977
 10
954.2205797485
 20
1572.405962486
 10
953.9016353538
 20
1573.1837423464
 10
953.4950186334
 20
1573.8593330291
 10
953.0144317176
 20
1574.409968545
 10
952.4760693777
 20
1574.8170936322
 10
951.8980732952
 20
1575.0669890293
 10
951.2999207257
 20
1575.1512337855
  0
LWPOLYLINE
  5
2A5
330
1F
100
AcDbEntity
  8
0
  6
Continuous
 62
     7
370
    25
100
AcDbPolyline
 90
        9
 70
   128
 43
0.0
 10
952.0560244914
 20
1575.1512337855
 10
952.6541770609
 20
1575.0669890293
 10
953.2321731434
 20
1574.8170936322
 10
953.7705354833
 20
1574.409968545
 10
954.2511223991
 20
1573.8593330291
 10
954.6577391195
 20
1573.1837423464
 10
954.9766835142
 20
1572.405962486
 10
955.1972078258
 20
1571.5522029977
 10
955.3118808478
 20
1570.6512337855
  0
LINE
  5
2A6
330
1F
100
AcDbEntity
  8
0
  6
Continuous
 62
     7
370
    25
100
AcDbLine
 10
951.2999207257
 20
1575.1512337855
 30
0.0
 11
952.0560244914
 21
1575.1512337855
 31
0.0
  0
LINE
  5
2A7
330
1F
100
AcDbEntity
  8
0
  6
Continuous
 62
     7
370
    25
100
AcDbLine
 10
949.6324504144
 20
1575.1512337855
 30
0.0
 11
951.2999207257
 21
1575.1512337855
 31
0.0
  0
LINE
  5
2A8
330
1F
100
AcDbEntity
  8
0
  6
Continuous
 62
     7
370
    25
100
AcDbLine
 10
948.4928100204
 20
1560.1512337855
 30
0.0
 11
947.4759563326
 21
1560.1512337855
 31
0.0
  0
LWPOLYLINE
  5
2A9
330
1F
100
AcDbEntity
  8
0
  6
Continuous
 62
     7
370
    25
100
AcDbPolyline
 90
        6
 70
   128
 43
0.0
 10
911.7287532848
 20
1533.2852001945
 10
911.9925606281
 20
1531.0239324241
 10
913.1120754882
 20
1526.928003755
 10
914.2516061933
 20
1522.8342809335
 10
914.6179240483
 20
1520.6803049722
 10
914.7531683476
 20
1518.4830384297
  0
LINE
  5
2AA
330
1F
100
AcDbEntity
  8
0
  6
Continuous
 62
     7
370
    25
100
AcDbLine
 10
914.7531683476
 20
1518.4830384297
 30
0.0
 11
911.9320573125
 21
1518.4830384297
 31
0.0
  0
LWPOLYLINE
  5
2AB
330
1F
100
AcDbEntity
  8
0
  6
Continuous
 62
     7
370
    25
100
AcDbPolyline
 90
        6
 70
   128
 43
0.0
 10
911.9320573125
 20
1518.4830384297
 10
911.9320573124
 20
1518.4830984297
 10
911.489987695
 20
1522.2788161656
 10
910.404639403
 20
1526.1672349429
 10
909.2193501991
 20
1530.5245386758
 10
908.9076422497
 20
1533.2512337855
  0
ARC
  5
2AC
330
1F
100
AcDbEntity
  8
0
  6
Continuous
 62
     7
370
    25
100
AcDbCircle
 10
908.7137968954
 20
1666.5231926533
 30
0.0
 40
133.272099842675
100
AcDbArc
 50
270.0833372072
 51
271.2962879301
  0
LINE
  5
2AD
330
1F
100
AcDbEntity
  8
0
  6
Continuous
 62
     7
370
    25
100
AcDbLine
 10
910.6215381312
 20
1542.2512337855
 30
0.0
 11
911.6905390003
 21
1542.2512337855
 31
0.0
  0
LINE
  5
2AE
330
1F
100
AcDbEntity
  8
0
  6
Continuous
 62
     7
370
    25
100
AcDbLine
 10
911.7287532848
 20
1542.2512337855
 30
0.0
 11
911.7287532848
 21
1533.2852001945
 31
0.0
  0
LINE
  5
2AF
330
1F
100
AcDbEntity
  8
0
  6
Continuous
 62
     7
370
    25
100
AcDbLine
 10
908.9076422497
 20
1542.2512337855
 30
0.0
 11
908.9076422497
 21
1533.2512337855
 31
0.0
  0
LWPOLYLINE
  5
2B0
330
1F
100
AcDbEntity
  8
0
  6
Continuous
 62
     7
370
    25
100
AcDbPolyline
 90
        6
 70
   128
 43
0.0
 10
901.2505567531
 20
1533.2512337855
 10
901.250558217
 20
1533.2511738168
 10
901.5622647025
 20
1530.5245386758
 10
902.7475539064
 20
1526.1672349429
 10
903.8329021984
 20
1522.2788161656
 10
904.2749718159
 20
1518.4830384297
  0
LINE
  5
2B1
330
1F
100
AcDbEntity
  8
0
  6
Continuous
 62
     7
370
    25
100
AcDbLine
 10
901.2505567531
 20
1533.2512337855
 30
0.0
 11
908.9076422497
 21
1533.2512337855
 31
0.0
  0
LINE
  5
2B2
330
1F
100
AcDbEntity
  8
0
  6
Continuous
 62
     7
370
    25
100
AcDbLine
 10
904.2749718159
 20
1518.4830384297
 30
0.0
 11
911.9320573125
 21
1518.4830384297
 31
0.0
  0
LINE
  5
2B3
330
1F
100
AcDbEntity
  8
0
  6
Continuous
 62
     7
370
    25
100
AcDbLine
 10
926.623997469
 20
1542.2512337855
 30
0.0
 11
926.623997469
 21
1533.2852001945
 31
0.0
  0
LWPOLYLINE
  5
2B4
330
1F
100
AcDbEntity
  8
0
  6
Continuous
 62
     7
370
    25
100
AcDbPolyline
 90
        6
 70
   128
 43
0.0
 10
923.5995824063
 20
1518.4830384297
 10
923.7348267056
 20
1520.6803049722
 10
924.1011445605
 20
1522.8342809335
 10
925.2406752657
 20
1526.928003755
 10
926.3601901258
 20
1531.0239324241
 10
926.623997469
 20
1533.2852001945
  0
LINE
  5
2B5
330
1F
100
AcDbEntity
  8
0
  6
Continuous
 62
     7
370
    25
100
AcDbLine
 10
923.5995824063
 20
1508.4830384297
 30
0.0
 11
923.5995824063
 21
1518.4830384297
 31
0.0
  0
LINE
  5
2B6
330
1F
100
AcDbEntity
  8
0
  6
Continuous
 62
     7
370
    25
100
AcDbLine
 10
923.5995824063
 20
1508.4830384297
 30
0.0
 11
914.7531683476
 21
1508.4830384297
 31
0.0
  0
LINE
  5
2B7
330
1F
100
AcDbEntity
  8
0
  6
Continuous
 62
     7
370
    25
100
AcDbLine
 10
914.7531683476
 20
1518.4830384297
 30
0.0
 11
914.7531683476
 21
1508.4830384297
 31
0.0
  0
LINE
  5
2B8
330
1F
100
AcDbEntity
  8
0
  6
Continuous
 62
     7
370
    25
100
AcDbLine
 10
914.2467941798
 20
1542.2512337855
 30
0.0
 11
915.2446357953
 21
1542.2512337855
 31
0.0
  0
LINE
  5
2B9
330
1F
100
AcDbEntity
  8
0
  6
Continuous
 62
     7
370
    25
100
AcDbLine
 10
917.8004818786
 20
1542.2512337855
 30
0.0
 11
918.7983234941
 21
1542.2512337855
 31
0.0
  0
LINE
  5
2BA
330
1F
100
AcDbEntity
  8
0
  6
Continuous
 62
     7
370
    25
100
AcDbLine
 10
921.3541695774
 20
1542.2512337855
 30
0.0
 11
922.3520111929
 21
1542.2512337855
 31
0.0
  0
LINE
  5
2BB
330
1F
100
AcDbEntity
  8
0
  6
Continuous
 62
     7
370
    25
100
AcDbLine
 10
924.9078572761
 20
1542.2512337855
 30
0.0
 11
925.9056988916
 21
1542.2512337855
 31
0.0
  0
LINE
  5
2BC
330
1F
100
AcDbEntity
  8
0
  6
Continuous
 62
     7
370
    25
100
AcDbLine
 10
901.2505567531
 20
1542.2512337855
 30
0.0
 11
901.2505567531
 21
1533.2512337855
 31
0.0
  0
LINE
  5
2BD
330
1F
100
AcDbEntity
  8
0
  6
Continuous
 62
     7
370
    25
100
AcDbLine
 10
914.7531683476
 20
1508.4830384297
 30
0.0
 11
911.9320573125
 21
1508.4830384297
 31
0.0
  0
LINE
  5
2BE
330
1F
100
AcDbEntity
  8
0
  6
Continuous
 62
     7
370
    25
100
AcDbLine
 10
911.9320573125
 20
1508.4830384297
 30
0.0
 11
911.9320573125
 21
1518.4830384297
 31
0.0
  0
LINE
  5
2BF
330
1F
100
AcDbEntity
  8
0
  6
Continuous
 62
     7
370
    25
100
AcDbLine
 10
904.2749718159
 20
1518.4830384297
 30
0.0
 11
904.2749718159
 21
1508.4830384297
 31
0.0
  0
LINE
  5
2C0
330
1F
100
AcDbEntity
  8
0
  6
Continuous
 62
     7
370
    25
100
AcDbLine
 10
904.2749718159
 20
1508.4830384297
 30
0.0
 11
911.9320573125
 21
1508.4830384297
 31
0.0
  0
LWPOLYLINE
  5
2C1
330
1F
100
AcDbEntity
  8
0
  6
Continuous
 62
     7
370
    25
100
AcDbPolyline
 90
        4
 70
   128
 43
0.0
 10
900.7765785049
 20
1533.259564521
 10
900.7642695035
 20
1533.2583795374
 10
900.902573155
 20
1533.2530576876
 10
901.2505567531
 20
1533.2512337855
  0
ARC
  5
2C2
330
1F
100
AcDbEntity
  8
0
  6
Continuous
 62
     7
370
    25
100
AcDbCircle
 10
926.4076908482
 20
1518.6171792783
 30
0.0
 40
14.66961574657852
100
AcDbArc
 50
86.506491806
 51
89.1551308628
  0
LINE
  5
2C3
330
1F
100
AcDbEntity
  8
0
  6
Continuous
 62
     7
370
    25
100
AcDbLine
 10
924.2906789026
 20
1508.4830384297
 30
0.0
 11
923.5995824063
 21
1508.4830384297
 31
0.0
  0
LINE
  5
2C4
330
1F
100
AcDbEntity
  8
0
  6
Continuous
 62
     7
370
    25
100
AcDbLine
 10
904.2749718159
 20
1508.4830384297
 30
0.0
 11
903.7871793473
 21
1508.4830384297
 31
0.0
  0
LWPOLYLINE
  5
2C5
330
1F
100
AcDbEntity
  8
0
  6
Continuous
 62
     7
370
    25
100
AcDbPolyline
 90
        6
 70
   128
 43
0.0
 10
932.8996587243
 20
1533.2852001945
 10
933.1634660676
 20
1531.0239324241
 10
934.2829809277
 20
1526.928003755
 10
935.4225116328
 20
1522.8342809335
 10
935.7888294878
 20
1520.6803049722
 10
935.9240737871
 20
1518.4830384297
  0
LINE
  5
2C6
330
1F
100
AcDbEntity
  8
0
  6
Continuous
 62
     7
370
    25
100
AcDbLine
 10
935.9240737871
 20
1518.4830384297
 30
0.0
 11
933.102962752
 21
1518.4830384297
 31
0.0
  0
LWPOLYLINE
  5
2C7
330
1F
100
AcDbEntity
  8
0
  6
Continuous
 62
     7
370
    25
100
AcDbPolyline
 90
        6
 70
   128
 43
0.0
 10
933.102962752
 20
1518.4830384297
 10
933.1029627519
 20
1518.4830984297
 10
932.6608931345
 20
1522.2788161656
 10
931.5755448425
 20
1526.1672349429
 10
930.3902556386
 20
1530.5245386758
 10
930.0785476892
 20
1533.2512337855
  0
ARC
  5
2C8
330
1F
100
AcDbEntity
  8
0
  6
Continuous
 62
     7
370
    25
100
AcDbCircle
 10
929.8847023356
 20
1666.5231925965
 30
0.0
 40
133.2720997858818
100
AcDbArc
 50
270.0833372069
 51
271.2962879303
  0
LINE
  5
2C9
330
1F
100
AcDbEntity
  8
0
  6
Continuous
 62
     7
370
    25
100
AcDbLine
 10
932.8996587243
 20
1542.2512337855
 30
0.0
 11
932.8996587243
 21
1533.2852001945
 31
0.0
  0
LINE
  5
2CA
330
1F
100
AcDbEntity
  8
0
  6
Continuous
 62
     7
370
    25
100
AcDbLine
 10
930.0785476892
 20
1542.2512337855
 30
0.0
 11
930.0785476892
 21
1533.2512337855
 31
0.0
  0
LINE
  5
2CB
330
1F
100
AcDbEntity
  8
0
  6
Continuous
 62
     7
370
    25
100
AcDbLine
 10
933.102962752
 20
1518.4830384297
 30
0.0
 11
925.4458772554
 21
1518.4830384297
 31
0.0
  0
LINE
  5
2CC
330
1F
100
AcDbEntity
  8
0
  6
Continuous
 62
     7
370
    25
100
AcDbLine
 10
927.2944169212
 20
1533.2512337855
 30
0.0
 11
930.0785476892
 21
1533.2512337855
 31
0.0
  0
LINE
  5
2CD
330
1F
100
AcDbEntity
  8
0
  6
Continuous
 62
     7
370
    25
100
AcDbLine
 10
947.7949029086
 20
1542.2512337855
 30
0.0
 11
947.7949029086
 21
1533.2852001945
 31
0.0
  0
LWPOLYLINE
  5
2CE
330
1F
100
AcDbEntity
  8
0
  6
Continuous
 62
     7
370
    25
100
AcDbPolyline
 90
        6
 70
   128
 43
0.0
 10
944.7704878458
 20
1518.4830384297
 10
944.9057321451
 20
1520.6803049722
 10
945.27205
 20
1522.8342809335
 10
946.4115807052
 20
1526.928003755
 10
947.5310955653
 20
1531.0239324241
 10
947.7949029086
 20
1533.2852001945
  0
LINE
  5
2CF
330
1F
100
AcDbEntity
  8
0
  6
Continuous
 62
     7
370
    25
100
AcDbLine
 10
944.7704878458
 20
1508.4830384297
 30
0.0
 11
944.7704878458
 21
1518.4830384297
 31
0.0
  0
LINE
  5
2D0
330
1F
100
AcDbEntity
  8
0
  6
Continuous
 62
     7
370
    25
100
AcDbLine
 10
935.9240737871
 20
1508.4830384297
 30
0.0
 11
944.7704878458
 21
1508.4830384297
 31
0.0
  0
LINE
  5
2D1
330
1F
100
AcDbEntity
  8
0
  6
Continuous
 62
     7
370
    25
100
AcDbLine
 10
935.9240737871
 20
1518.4830384297
 30
0.0
 11
935.9240737871
 21
1508.4830384297
 31
0.0
  0
LINE
  5
2D2
330
1F
100
AcDbEntity
  8
0
  6
Continuous
 62
     7
370
    25
100
AcDbLine
 10
935.9240737871
 20
1508.4830384297
 30
0.0
 11
933.102962752
 21
1508.4830384297
 31
0.0
  0
LINE
  5
2D3
330
1F
100
AcDbEntity
  8
0
  6
Continuous
 62
     7
370
    25
100
AcDbLine
 10
933.102962752
 20
1508.4830384297
 30
0.0
 11
933.102962752
 21
1518.4830384297
 31
0.0
  0
LINE
  5
2D4
330
1F
100
AcDbEntity
  8
0
  6
Continuous
 62
     7
370
    25
100
AcDbLine
 10
925.4458772554
 20
1518.4830384297
 30
0.0
 11
925.4458772554
 21
1508.4830384297
 31
0.0
  0
LINE
  5
2D5
330
1F
100
AcDbEntity
  8
0
  6
Continuous
 62
     7
370
    25
100
AcDbLine
 10
933.102962752
 20
1508.4830384297
 30
0.0
 11
925.4458772554
 21
1508.4830384297
 31
0.0
  0
ARC
  5
2D6
330
1F
100
AcDbEntity
  8
0
  6
Continuous
 62
     7
370
    25
100
AcDbCircle
 10
947.5785962877
 20
1518.6171792779
 30
0.0
 40
14.66961574704917
100
AcDbArc
 50
86.506491806
 51
89.1551308628
  0
LINE
  5
2D7
330
1F
100
AcDbEntity
  8
0
  6
Continuous
 62
     7
370
    25
100
AcDbLine
 10
945.4615843421
 20
1508.4830384297
 30
0.0
 11
944.7704878458
 21
1508.4830384297
 31
0.0
  0
LINE
  5
2D8
330
1F
100
AcDbEntity
  8
0
  6
Continuous
 62
     7
370
    25
100
AcDbLine
 10
925.4458772554
 20
1508.4830384297
 30
0.0
 11
924.9580847868
 21
1508.4830384297
 31
0.0
  0
LWPOLYLINE
  5
2D9
330
1F
100
AcDbEntity
  8
0
  6
Continuous
 62
     7
370
    25
100
AcDbPolyline
 90
        6
 70
   128
 43
0.0
 10
930.0785476892
 20
1584.1512337855
 10
930.0785491532
 20
1584.1512937543
 10
930.3902556386
 20
1586.8779288953
 10
931.5755448425
 20
1591.2352326281
 10
932.6608931345
 20
1595.1236514055
 10
933.102962752
 20
1598.9194291413
  0
LINE
  5
2DA
330
1F
100
AcDbEntity
  8
0
  6
Continuous
 62
     7
370
    25
100
AcDbLine
 10
933.102962752
 20
1598.9194291413
 30
0.0
 11
935.9240737871
 21
1598.9194291413
 31
0.0
  0
LWPOLYLINE
  5
2DB
330
1F
100
AcDbEntity
  8
0
  6
Continuous
 62
     7
370
    25
100
AcDbPolyline
 90
        6
 70
   128
 43
0.0
 10
935.9240737871
 20
1598.9194291413
 10
935.7888294878
 20
1596.7221625989
 10
935.4225116328
 20
1594.5681866375
 10
934.2829809277
 20
1590.4744638161
 10
933.1634660676
 20
1586.3785351469
 10
932.8996587243
 20
1584.1172673765
  0
ARC
  5
2DC
330
1F
100
AcDbEntity
  8
0
  6
Continuous
 62
     7
370
    25
100
AcDbCircle
 10
929.8847023295
 20
1450.8792744651
 30
0.0
 40
133.2721002953504
100
AcDbArc
 50
88.703712072
 51
89.9166627908
  0
LINE
  5
2DD
330
1F
100
AcDbEntity
  8
0
  6
Continuous
 62
     7
370
    25
100
AcDbLine
 10
932.8614444398
 20
1575.1512337855
 30
0.0
 11
931.7924435707
 21
1575.1512337855
 31
0.0
  0
LINE
  5
2DE
330
1F
100
AcDbEntity
  8
0
  6
Continuous
 62
     7
370
    25
100
AcDbLine
 10
930.0785476892
 20
1575.1512337855
 30
0.0
 11
930.0785476892
 21
1584.1512337855
 31
0.0
  0
LINE
  5
2DF
330
1F
100
AcDbEntity
  8
0
  6
Continuous
 62
     7
370
    25
100
AcDbLine
 10
932.8996587243
 20
1575.1512337855
 30
0.0
 11
932.8996587243
 21
1584.1172673765
 31
0.0
  0
LINE
  5
2E0
330
1F
100
AcDbEntity
  8
0
  6
Continuous
 62
     7
370
    25
100
AcDbLine
 10
925.4458772554
 20
1598.9194291413
 30
0.0
 11
933.102962752
 21
1598.9194291413
 31
0.0
  0
LINE
  5
2E1
330
1F
100
AcDbEntity
  8
0
  6
Continuous
 62
     7
370
    25
100
AcDbLine
 10
930.0785476892
 20
1584.1512337855
 30
0.0
 11
927.2917066635
 21
1584.1512337855
 31
0.0
  0
LINE
  5
2E2
330
1F
100
AcDbEntity
  8
0
  6
Continuous
 62
     7
370
    25
100
AcDbLine
 10
947.7949029085
 20
1575.1512337855
 30
0.0
 11
947.7949029085
 21
1584.1172673765
 31
0.0
  0
LINE
  5
2E3
330
1F
100
AcDbEntity
  8
0
  6
Continuous
 62
     7
370
    25
100
AcDbLine
 10
935.9240737871
 20
1608.9194291413
 30
0.0
 11
935.9240737871
 21
1598.9194291413
 31
0.0
  0
LINE
  5
2E4
330
1F
100
AcDbEntity
  8
0
  6
Continuous
 62
     7
370
    25
100
AcDbLine
 10
935.9240737871
 20
1608.9194291413
 30
0.0
 11
944.7704878458
 21
1608.9194291413
 31
0.0
  0
LINE
  5
2E5
330
1F
100
AcDbEntity
  8
0
  6
Continuous
 62
     7
370
    25
100
AcDbLine
 10
944.7704878458
 20
1598.9194291413
 30
0.0
 11
944.7704878458
 21
1608.9194291413
 31
0.0
  0
LWPOLYLINE
  5
2E6
330
1F
100
AcDbEntity
  8
0
  6
Continuous
 62
     7
370
    25
100
AcDbPolyline
 90
        6
 70
   128
 43
0.0
 10
947.7949029085
 20
1584.1172673765
 10
947.5310955653
 20
1586.3785351469
 10
946.4115807052
 20
1590.4744638161
 10
945.27205
 20
1594.5681866375
 10
944.9057321451
 20
1596.7221625989
 10
944.7704878458
 20
1598.9194291413
  0
LINE
  5
2E7
330
1F
100
AcDbEntity
  8
0
  6
Continuous
 62
     7
370
    25
100
AcDbLine
 10
947.0766043311
 20
1575.1512337855
 30
0.0
 11
946.0787627156
 21
1575.1512337855
 31
0.0
  0
LINE
  5
2E8
330
1F
100
AcDbEntity
  8
0
  6
Continuous
 62
     7
370
    25
100
AcDbLine
 10
943.5229166324
 20
1575.1512337855
 30
0.0
 11
942.5250750169
 21
1575.1512337855
 31
0.0
  0
LINE
  5
2E9
330
1F
100
AcDbEntity
  8
0
  6
Continuous
 62
     7
370
    25
100
AcDbLine
 10
939.9692289336
 20
1575.1512337855
 30
0.0
 11
938.9713873181
 21
1575.1512337855
 31
0.0
  0
LINE
  5
2EA
330
1F
100
AcDbEntity
  8
0
  6
Continuous
 62
     7
370
    25
100
AcDbLine
 10
936.4155412348
 20
1575.1512337855
 30
0.0
 11
935.4176996193
 21
1575.1512337855
 31
0.0
  0
LINE
  5
2EB
330
1F
100
AcDbEntity
  8
0
  6
Continuous
 62
     7
370
    25
100
AcDbLine
 10
933.102962752
 20
1598.9194291413
 30
0.0
 11
933.102962752
 21
1608.9194291413
 31
0.0
  0
LINE
  5
2EC
330
1F
100
AcDbEntity
  8
0
  6
Continuous
 62
     7
370
    25
100
AcDbLine
 10
933.102962752
 20
1608.9194291413
 30
0.0
 11
935.9240737871
 21
1608.9194291413
 31
0.0
  0
LINE
  5
2ED
330
1F
100
AcDbEntity
  8
0
  6
Continuous
 62
     7
370
    25
100
AcDbLine
 10
925.4458772554
 20
1608.9194291413
 30
0.0
 11
925.4458772554
 21
1598.9194291413
 31
0.0
  0
LINE
  5
2EE
330
1F
100
AcDbEntity
  8
0
  6
Continuous
 62
     7
370
    25
100
AcDbLine
 10
925.4458772554
 20
1608.9194291413
 30
0.0
 11
933.102962752
 21
1608.9194291413
 31
0.0
  0
ARC
  5
2EF
330
1F
100
AcDbEntity
  8
0
  6
Continuous
 62
     7
370
    25
100
AcDbCircle
 10
947.5781646301
 20
1598.8029447109
 30
0.0
 40
14.6872766110855
100
AcDbArc
 50
270.8455372427
 51
273.4897749339
  0
LINE
  5
2F0
330
1F
100
AcDbEntity
  8
0
  6
Continuous
 62
     7
370
    25
100
AcDbLine
 10
944.7704878458
 20
1608.9194291413
 30
0.0
 11
945.4615843421
 21
1608.9194291413
 31
0.0
  0
LINE
  5
2F1
330
1F
100
AcDbEntity
  8
0
  6
Continuous
 62
     7
370
    25
100
AcDbLine
 10
924.9580847868
 20
1608.9194291413
 30
0.0
 11
925.4458772554
 21
1608.9194291413
 31
0.0
  0
LWPOLYLINE
  5
2F2
330
1F
100
AcDbEntity
  8
0
  6
Continuous
 62
     7
370
    25
100
AcDbPolyline
 90
        6
 70
   128
 43
0.0
 10
908.9076422497
 20
1584.1512337855
 10
908.9076437137
 20
1584.1512937543
 10
909.2193501991
 20
1586.8779288953
 10
910.404639403
 20
1591.2352326281
 10
911.489987695
 20
1595.1236514055
 10
911.9320573125
 20
1598.9194291413
  0
LINE
  5
2F3
330
1F
100
AcDbEntity
  8
0
  6
Continuous
 62
     7
370
    25
100
AcDbLine
 10
911.9320573125
 20
1598.9194291413
 30
0.0
 11
914.7531683476
 21
1598.9194291413
 31
0.0
  0
LWPOLYLINE
  5
2F4
330
1F
100
AcDbEntity
  8
0
  6
Continuous
 62
     7
370
    25
100
AcDbPolyline
 90
        6
 70
   128
 43
0.0
 10
914.7531683476
 20
1598.9194291413
 10
914.6179240483
 20
1596.7221625989
 10
914.2516061933
 20
1594.5681866375
 10
913.1120754882
 20
1590.4744638161
 10
911.9925606281
 20
1586.3785351469
 10
911.7287532848
 20
1584.1172673765
  0
ARC
  5
2F5
330
1F
100
AcDbEntity
  8
0
  6
Continuous
 62
     7
370
    25
100
AcDbCircle
 10
908.7137968904
 20
1450.8792744951
 30
0.0
 40
133.2721002653302
100
AcDbArc
 50
88.7037120719
 51
89.9166627909
  0
LINE
  5
2F6
330
1F
100
AcDbEntity
  8
0
  6
Continuous
 62
     7
370
    25
100
AcDbLine
 10
911.7287532848
 20
1575.1512337855
 30
0.0
 11
911.7287532848
 21
1584.1172673765
 31
0.0
  0
LINE
  5
2F7
330
1F
100
AcDbEntity
  8
0
  6
Continuous
 62
     7
370
    25
100
AcDbLine
 10
908.9076422497
 20
1584.1512337855
 30
0.0
 11
901.2505567531
 21
1584.1512337855
 31
0.0
  0
LWPOLYLINE
  5
2F8
330
1F
100
AcDbEntity
  8
0
  6
Continuous
 62
     7
370
    25
100
AcDbPolyline
 90
        6
 70
   128
 43
0.0
 10
904.2749718159
 20
1598.9194291413
 10
904.2749718157
 20
1598.9193691413
 10
903.8329021984
 20
1595.1236514055
 10
902.7475539064
 20
1591.2352326281
 10
901.5622647024
 20
1586.8779288953
 10
901.2505567531
 20
1584.1512337855
  0
LINE
  5
2F9
330
1F
100
AcDbEntity
  8
0
  6
Continuous
 62
     7
370
    25
100
AcDbLine
 10
911.9320573125
 20
1598.9194291413
 30
0.0
 11
904.2749718159
 21
1598.9194291413
 31
0.0
  0
LINE
  5
2FA
330
1F
100
AcDbEntity
  8
0
  6
Continuous
 62
     7
370
    25
100
AcDbLine
 10
926.623997469
 20
1575.1512337855
 30
0.0
 11
926.623997469
 21
1584.1172673765
 31
0.0
  0
LINE
  5
2FB
330
1F
100
AcDbEntity
  8
0
  6
Continuous
 62
     7
370
    25
100
AcDbLine
 10
914.7531683476
 20
1608.9194291413
 30
0.0
 11
914.7531683476
 21
1598.9194291413
 31
0.0
  0
LINE
  5
2FC
330
1F
100
AcDbEntity
  8
0
  6
Continuous
 62
     7
370
    25
100
AcDbLine
 10
923.5995824062
 20
1608.9194291413
 30
0.0
 11
914.7531683476
 21
1608.9194291413
 31
0.0
  0
LINE
  5
2FD
330
1F
100
AcDbEntity
  8
0
  6
Continuous
 62
     7
370
    25
100
AcDbLine
 10
923.5995824062
 20
1598.9194291413
 30
0.0
 11
923.5995824062
 21
1608.9194291413
 31
0.0
  0
LWPOLYLINE
  5
2FE
330
1F
100
AcDbEntity
  8
0
  6
Continuous
 62
     7
370
    25
100
AcDbPolyline
 90
        6
 70
   128
 43
0.0
 10
926.623997469
 20
1584.1172673765
 10
926.3601901257
 20
1586.3785351469
 10
925.2406752657
 20
1590.4744638161
 10
924.1011445605
 20
1594.5681866375
 10
923.7348267056
 20
1596.7221625989
 10
923.5995824062
 20
1598.9194291413
  0
LINE
  5
2FF
330
1F
100
AcDbEntity
  8
0
  6
Continuous
 62
     7
370
    25
100
AcDbLine
 10
906.7440178044
 20
1575.1512337855
 30
0.0
 11
903.1993101647
 21
1575.1512337855
 31
0.0
  0
LINE
  5
300
330
1F
100
AcDbEntity
  8
0
  6
Continuous
 62
     7
370
    25
100
AcDbLine
 10
911.9320573125
 20
1598.9194291413
 30
0.0
 11
911.9320573125
 21
1608.9194291413
 31
0.0
  0
LINE
  5
301
330
1F
100
AcDbEntity
  8
0
  6
Continuous
 62
     7
370
    25
100
AcDbLine
 10
911.9320573125
 20
1608.9194291413
 30
0.0
 11
914.7531683476
 21
1608.9194291413
 31
0.0
  0
LINE
  5
302
330
1F
100
AcDbEntity
  8
0
  6
Continuous
 62
     7
370
    25
100
AcDbLine
 10
904.2749718159
 20
1608.9194291413
 30
0.0
 11
904.2749718159
 21
1598.9194291413
 31
0.0
  0
LINE
  5
303
330
1F
100
AcDbEntity
  8
0
  6
Continuous
 62
     7
370
    25
100
AcDbLine
 10
911.9320573125
 20
1608.9194291413
 30
0.0
 11
904.2749718159
 21
1608.9194291413
 31
0.0
  0
LWPOLYLINE
  5
304
330
1F
100
AcDbEntity
  8
0
  6
Continuous
 62
     7
370
    25
100
AcDbPolyline
 90
        4
 70
   128
 43
0.0
 10
901.2505567531
 20
1584.1512337855
 10
900.902573155
 20
1584.1494098835
 10
900.7642695035
 20
1584.1440880337
 10
900.7762678075
 20
1584.1429329607
  0
ARC
  5
305
330
1F
100
AcDbEntity
  8
0
  6
Continuous
 62
     7
370
    25
100
AcDbCircle
 10
926.4072591903
 20
1598.8029447183
 30
0.0
 40
14.68727661853587
100
AcDbArc
 50
270.8455372434
 51
273.4897749332
  0
LINE
  5
306
330
1F
100
AcDbEntity
  8
0
  6
Continuous
 62
     7
370
    25
100
AcDbLine
 10
923.5995824062
 20
1608.9194291413
 30
0.0
 11
924.2906789025
 21
1608.9194291413
 31
0.0
  0
LINE
  5
307
330
1F
100
AcDbEntity
  8
0
  6
Continuous
 62
     7
370
    25
100
AcDbLine
 10
903.7871793473
 20
1608.9194291413
 30
0.0
 11
904.2749718159
 21
1608.9194291413
 31
0.0
  0
ARC
  5
308
330
1F
100
AcDbEntity
  8
0
  6
Continuous
 62
     7
370
    25
100
AcDbCircle
 10
907.6705324398
 20
1573.8471318562
 30
0.0
 40
1.041055369207541
100
AcDbArc
 50
133.2948151277
 51
181.1579826248
  0
ELLIPSE
  5
309
330
1F
100
AcDbEntity
  8
0
  6
Continuous
 62
     7
370
    25
100
AcDbEllipse
 10
914.1670333207
 20
1572.7338150773
 30
0.0
 11
11.58171171943093
 21
7.350525825923115
 31
0.0
210
0.0
220
0.0
230
1.0
 40
0.4272746269
 41
1.763876928957575
 42
1.950573476716434
  0
LWPOLYLINE
  5
30A
330
1F
100
AcDbEntity
  8
0
  6
Continuous
 62
     7
370
    25
100
AcDbPolyline
 90
        3
 70
   128
 43
0.0
 10
909.5480811242
 20
1576.4012337855
 10
909.1947912555
 20
1576.3490858996
 10
908.8623657768
 20
1576.1799890603
  0
LINE
  5
30B
330
1F
100
AcDbEntity
  8
0
  6
Continuous
 62
     7
370
    25
100
AcDbLine
 10
911.6204897833
 20
1576.4012337855
 30
0.0
 11
909.5480811242
 21
1576.4012337855
 31
0.0
  0
LINE
  5
30C
330
1F
100
AcDbEntity
  8
0
  6
Continuous
 62
     7
370
    25
100
AcDbLine
 10
911.6204897833
 20
1553.8012337855
 30
0.0
 11
911.6204897833
 21
1576.4012337855
 31
0.0
  0
LINE
  5
30D
330
1F
100
AcDbEntity
  8
0
  6
Continuous
 62
     7
370
    25
100
AcDbLine
 10
911.6204897833
 20
1553.8012337855
 30
0.0
 11
905.0937881323
 21
1553.8012337855
 31
0.0
  0
LINE
  5
30E
330
1F
100
AcDbEntity
  8
0
  6
Continuous
 62
     7
370
    25
100
AcDbLine
 10
905.0937881323
 20
1553.8012337855
 30
0.0
 11
905.0937881323
 21
1571.4012337855
 31
0.0
  0
LINE
  5
30F
330
1F
100
AcDbEntity
  8
0
  6
Continuous
 62
     7
370
    25
100
AcDbLine
 10
905.0937881323
 20
1571.4012337855
 30
0.0
 11
906.6296896827
 21
1571.4012337855
 31
0.0
  0
LINE
  5
310
330
1F
100
AcDbEntity
  8
0
  6
Continuous
 62
     7
370
    25
100
AcDbLine
 10
906.6296896827
 20
1573.826092925
 30
0.0
 11
906.6296896827
 21
1571.4012337855
 31
0.0
  0
LWPOLYLINE
  5
311
330
1F
100
AcDbEntity
  8
0
  6
Continuous
 62
     7
370
    25
100
AcDbPolyline
 90
        9
 70
   128
 43
0.0
 10
909.5480811242
 20
1576.4012337855
 10
909.5554771135
 20
1576.5963241075
 10
909.5773808576
 20
1576.7839172179
 10
909.6129506079
 20
1576.9568040185
 10
909.6608194389
 20
1577.1083405667
 10
909.7191477782
 20
1577.2327033978
 10
909.7856941006
 20
1577.325113318
 10
909.857901068
 20
1577.3820190659
 10
909.9329938073
 20
1577.4012337855
  0
LINE
  5
312
330
1F
100
AcDbEntity
  8
0
  6
Continuous
 62
     7
370
    25
100
AcDbLine
 10
909.9329938073
 20
1577.4012337855
 30
0.0
 11
910.4230319737
 21
1577.4012337855
 31
0.0
  0
LWPOLYLINE
  5
313
330
1F
100
AcDbEntity
  8
0
  6
Continuous
 62
     7
370
    25
100
AcDbPolyline
 90
        7
 70
   128
 43
0.0
 10
910.4230319737
 20
1577.4012337855
 10
911.0774837255
 20
1577.2546013463
 10
911.2995986215
 20
1577.1030297775
 10
911.4914667436
 20
1576.8710604921
 10
911.5820544919
 20
1576.664017186
 10
911.6186891677
 20
1576.4586661198
 10
911.6204897833
 20
1576.4012337855
  0
LWPOLYLINE
  5
314
330
1F
100
AcDbEntity
  8
0
  6
Continuous
 62
     7
370
    25
100
AcDbPolyline
 90
        7
 70
   128
 43
0.0
 10
906.9566261264
 20
1574.6048481998
 10
906.8656857645
 20
1574.7709014287
 10
906.8060006807
 20
1574.9294525144
 10
906.7802673962
 20
1575.0733382542
 10
906.7896485189
 20
1575.1960580133
 10
906.8337202176
 20
1575.2920674176
 10
906.8559116123
 20
1575.3174369972
  0
LINE
  5
315
330
1F
100
AcDbEntity
  8
0
  6
Continuous
 62
     7
370
    25
100
AcDbLine
 10
902.4105359497
 20
1571.4012337855
 30
0.0
 11
902.4105359497
 21
1553.8012337855
 31
0.0
  0
LINE
  5
316
330
1F
100
AcDbEntity
  8
0
  6
Continuous
 62
     7
370
    25
100
AcDbLine
 10
902.4105359497
 20
1571.4012337855
 30
0.0
 11
905.0937881323
 21
1571.4012337855
 31
0.0
  0
LINE
  5
317
330
1F
100
AcDbEntity
  8
0
  6
Continuous
 62
     7
370
    25
100
AcDbLine
 10
902.4105359497
 20
1553.8012337855
 30
0.0
 11
905.0937881323
 21
1553.8012337855
 31
0.0
  0
LINE
  5
318
330
1F
100
AcDbEntity
  8
0
  6
Continuous
 62
     7
370
    25
100
AcDbLine
 10
899.8604969705
 20
1576.4012337855
 30
0.0
 11
899.5131323741
 21
1576.4012337855
 31
0.0
  0
LWPOLYLINE
  5
319
330
1F
100
AcDbEntity
  8
0
  6
Continuous
 62
     7
370
    25
100
AcDbPolyline
 90
        3
 70
   128
 43
0.0
 10
900.0705397442
 20
1576.1799890603
 10
899.9739571723
 20
1576.3367451579
 10
899.8604969705
 20
1576.4012337855
  0
ELLIPSE
  5
31A
330
1F
100
AcDbEntity
  8
0
  6
Continuous
 62
     7
370
    25
100
AcDbEllipse
 10
911.4837811381
 20
1572.7338150773
 30
0.0
 11
11.58171171943274
 21
-7.350525825920841
 31
0.0
210
0.0
220
0.0
230
1.0
 40
0.4272746269
 41
3.72040848732818
 42
3.907105035087035
  0
ARC
  5
31B
330
1F
100
AcDbEntity
  8
0
  6
Continuous
 62
     7
370
    25
100
AcDbCircle
 10
899.6986366285
 20
1573.856901395
 30
0.0
 40
1.463730408452548
100
AcDbArc
 50
358.793954369
 51
30.729577241
  0
LINE
  5
31C
330
1F
100
AcDbEntity
  8
0
  6
Continuous
 62
     7
370
    25
100
AcDbLine
 10
901.162042774
 20
1571.4012337855
 30
0.0
 11
901.162042774
 21
1573.826092925
 31
0.0
  0
LINE
  5
31D
330
1F
100
AcDbEntity
  8
0
  6
Continuous
 62
     7
370
    25
100
AcDbLine
 10
901.162042774
 20
1571.4012337855
 30
0.0
 11
902.4105359497
 21
1571.4012337855
 31
0.0
  0
LINE
  5
31E
330
1F
100
AcDbEntity
  8
0
  6
Continuous
 62
     7
370
    25
100
AcDbLine
 10
899.5131323741
 20
1576.4012337855
 30
0.0
 11
899.5131323741
 21
1553.8012337855
 31
0.0
  0
LINE
  5
31F
330
1F
100
AcDbEntity
  8
0
  6
Continuous
 62
     7
370
    25
100
AcDbLine
 10
902.4105359497
 20
1553.8012337855
 30
0.0
 11
899.5131323741
 21
1553.8012337855
 31
0.0
  0
ARC
  5
320
330
1F
100
AcDbEntity
  8
0
  6
Continuous
 62
     7
370
    25
100
AcDbCircle
 10
899.8858377599
 20
1573.8906924579
 30
0.0
 40
2.791549182003714
100
AcDbArc
 50
358.6739939813
 51
32.3301185106
  0
LINE
  5
321
330
1F
100
AcDbEntity
  8
0
  6
Continuous
 62
     7
370
    25
100
AcDbLine
 10
902.6766393895
 20
1573.826092925
 30
0.0
 11
901.162042774
 21
1573.826092925
 31
0.0
  0
ARC
  5
322
330
1F
100
AcDbEntity
  8
0
  6
Continuous
 62
     7
370
    25
100
AcDbCircle
 10
902.1507384833
 20
1574.0847172309
 30
0.0
 40
1.302276309737265
100
AcDbArc
 50
85.8649154218
 51
156.459238158
  0
LINE
  5
323
330
1F
100
AcDbEntity
  8
0
  6
Continuous
 62
     7
370
    25
100
AcDbLine
 10
902.6766393895
 20
1573.826092925
 30
0.0
 11
902.6766393895
 21
1571.4012337855
 31
0.0
  0
LINE
  5
324
330
1F
100
AcDbEntity
  8
0
  6
Continuous
 62
     7
370
    25
100
AcDbLine
 10
903.6034558231
 20
1573.826092925
 30
0.0
 11
902.6766393895
 21
1573.826092925
 31
0.0
  0
ARC
  5
325
330
1F
100
AcDbEntity
  8
0
  6
Continuous
 62
     7
370
    25
100
AcDbCircle
 10
900.9145600376
 20
1573.8627454292
 30
0.0
 40
2.689145580200083
100
AcDbArc
 50
359.2190460639
 51
28.6295195996
  0
ELLIPSE
  5
326
330
1F
100
AcDbEntity
  8
0
  6
Continuous
 62
     7
370
    25
100
AcDbEllipse
 10
911.8943369436
 20
1573.5125703521
 30
0.0
 11
10.48213109407448
 21
-7.557657510505124
 31
0.0
210
0.0
220
0.0
230
1.0
 40
0.4413279084
 41
3.763668521884565
 42
3.950365069643456
  0
ARC
  5
327
330
1F
100
AcDbEntity
  8
0
  6
Continuous
 62
     7
370
    25
100
AcDbCircle
 10
901.1849503259
 20
1575.8112472497
 30
0.0
 40
1.173831958728855
100
AcDbArc
 50
77.8405035118
 51
161.6913919984
  0
LINE
  5
328
330
1F
100
AcDbEntity
  8
0
  6
Continuous
 62
     7
370
    25
100
AcDbLine
 10
903.6034558231
 20
1573.826092925
 30
0.0
 11
903.6034558231
 21
1571.4012337855
 31
0.0
  0
LWPOLYLINE
  5
329
330
1F
100
AcDbEntity
  8
0
  6
Continuous
 62
     7
370
    25
100
AcDbPolyline
 90
        3
 70
   128
 43
0.0
 10
900.8291039845
 20
1577.4012337855
 10
901.164324734
 20
1577.2722565302
 10
901.4321989992
 20
1576.9587443351
  0
ARC
  5
32A
330
1F
100
AcDbEntity
  8
0
  6
Continuous
 62
     7
370
    25
100
AcDbCircle
 10
900.8450548427
 20
1576.4166838986
 30
0.0
 40
0.9846790896649494
100
AcDbArc
 50
90.9281773508
 51
180.8990366618
  0
LINE
  5
32B
330
1F
100
AcDbEntity
  8
0
  6
Continuous
 62
     7
370
    25
100
AcDbLine
 10
900.8291039845
 20
1577.4012337855
 30
0.0
 11
900.9826471272
 21
1577.4012337855
 31
0.0
  0
LINE
  5
32C
330
1F
100
AcDbEntity
  8
0
  6
Continuous
 62
     7
370
    25
100
AcDbLine
 10
900.7105901837
 20
1577.4012337855
 30
0.0
 11
900.8291039845
 21
1577.4012337855
 31
0.0
  0
ARC
  5
32D
330
1F
100
AcDbEntity
  8
0
  6
Continuous
 62
     7
370
    25
100
AcDbCircle
 10
900.5834546483
 20
1576.3365206224
 30
0.0
 40
1.072276813203783
100
AcDbArc
 50
83.1906524106
 51
176.5400299896
  0
LINE
  5
32E
330
1F
100
AcDbEntity
  8
0
  6
Continuous
 62
     7
370
    25
100
AcDbLine
 10
949.4932807641
 20
1562.3512337855
 30
0.0
 11
949.4932807641
 21
1543.6512337855
 31
0.0
  0
LINE
  5
32F
330
1F
100
AcDbEntity
  8
0
  6
Continuous
 62
     7
370
    25
100
AcDbLine
 10
949.4932807641
 20
1543.6512337855
 30
0.0
 11
949.3266214809
 21
1543.6512337855
 31
0.0
  0
LINE
  5
330
330
1F
100
AcDbEntity
  8
0
  6
Continuous
 62
     7
370
    25
100
AcDbLine
 10
949.4932807641
 20
1562.3512337855
 30
0.0
 11
949.3266214809
 21
1562.3512337855
 31
0.0
  0
LINE
  5
331
330
1F
100
AcDbEntity
  8
0
  6
Continuous
 62
     7
370
    25
100
AcDbLine
 10
949.3266214809
 20
1563.6012337855
 30
0.0
 11
950.5598337167
 21
1563.6012337855
 31
0.0
  0
LINE
  5
332
330
1F
100
AcDbEntity
  8
0
  6
Continuous
 62
     7
370
    25
100
AcDbLine
 10
950.5598337167
 20
1563.6012337855
 30
0.0
 11
950.5598337167
 21
1541.0012337855
 31
0.0
  0
LWPOLYLINE
  5
333
330
1F
100
AcDbEntity
  8
0
  6
Continuous
 62
     7
370
    25
100
AcDbPolyline
 90
        7
 70
   128
 43
0.0
 10
949.3623759071
 20
1540.0012337855
 10
950.0168276589
 20
1540.1478662247
 10
950.2389425549
 20
1540.2994377935
 10
950.430810677
 20
1540.5314070789
 10
950.5213984253
 20
1540.738450385
 10
950.5580331011
 20
1540.9438014513
 10
950.5598337167
 20
1541.0012337855
  0
LINE
  5
334
330
1F
100
AcDbEntity
  8
0
  6
Continuous
 62
     7
370
    25
100
AcDbLine
 10
949.3623759071
 20
1540.0012337855
 30
0.0
 11
949.0580999235
 21
1540.0012337855
 31
0.0
  0
ARC
  5
335
330
1F
100
AcDbEntity
  8
0
  6
Continuous
 62
     7
370
    25
100
AcDbCircle
 10
949.0769506468
 20
1540.9689604143
 30
0.0
 40
0.9679102116056877
100
AcDbArc
 50
232.371191525
 51
268.8840543608
  0
LINE
  5
336
330
1F
100
AcDbEntity
  8
0
  6
Continuous
 62
     7
370
    25
100
AcDbLine
 10
912.720596114
 20
1575.1512337855
 30
0.0
 11
912.720596114
 21
1553.6512337855
 31
0.0
  0
LINE
  5
337
330
1F
100
AcDbEntity
  8
0
  6
Continuous
 62
     7
370
    25
100
AcDbLine
 10
911.6204897833
 20
1575.1512337855
 30
0.0
 11
912.720596114
 21
1575.1512337855
 31
0.0
  0
LINE
  5
338
330
1F
100
AcDbEntity
  8
0
  6
Continuous
 62
     7
370
    25
100
AcDbLine
 10
927.4646195451
 20
1553.6512337855
 30
0.0
 11
927.4646195451
 21
1575.1512337855
 31
0.0
  0
LINE
  5
339
330
1F
100
AcDbEntity
  8
0
  6
Continuous
 62
     7
370
    25
100
AcDbLine
 10
927.4646195451
 20
1575.1512337855
 30
0.0
 11
912.720596114
 21
1575.1512337855
 31
0.0
  0
LINE
  5
33A
330
1F
100
AcDbEntity
  8
0
  6
Continuous
 62
     7
370
    25
100
AcDbLine
 10
927.4646195451
 20
1575.1512337855
 30
0.0
 11
928.1557160414
 21
1575.1512337855
 31
0.0
  0
LINE
  5
33B
330
1F
100
AcDbEntity
  8
0
  6
Continuous
 62
     7
370
    25
100
AcDbLine
 10
933.8915015535
 20
1542.2512337855
 30
0.0
 11
931.0703905184
 21
1542.2512337855
 31
0.0
  0
LINE
  5
33C
330
1F
100
AcDbEntity
  8
0
  6
Continuous
 62
     7
370
    25
100
AcDbLine
 10
948.6355249846
 20
1542.2512337855
 30
0.0
 11
948.6355249846
 21
1563.7512337855
 31
0.0
  0
LINE
  5
33D
330
1F
100
AcDbEntity
  8
0
  6
Continuous
 62
     7
370
    25
100
AcDbLine
 10
933.8915015535
 20
1542.2512337855
 30
0.0
 11
948.6355249846
 21
1542.2512337855
 31
0.0
  0
LINE
  5
33E
330
1F
100
AcDbEntity
  8
0
  6
Continuous
 62
     7
370
    25
100
AcDbLine
 10
930.8851190519
 20
1542.2512337855
 30
0.0
 11
931.0703905184
 21
1542.2512337855
 31
0.0
  0
LINE
  5
33F
330
1F
100
AcDbEntity
  8
0
  6
Continuous
 62
     7
370
    25
100
AcDbLine
 10
949.3266214809
 20
1542.2512337855
 30
0.0
 11
948.6355249846
 21
1542.2512337855
 31
0.0
  0
LINE
  5
340
330
1F
100
AcDbEntity
  8
0
  6
Continuous
 62
     7
370
    25
100
AcDbLine
 10
921.1043208299
 20
1638.9194291413
 30
0.0
 11
921.5389291249
 21
1638.9194291413
 31
0.0
  0
LINE
  5
341
330
1F
100
AcDbEntity
  8
0
  6
Continuous
 62
     7
370
    25
100
AcDbLine
 10
906.5389291249
 20
1638.9194291413
 30
0.0
 11
921.1043208299
 21
1638.9194291413
 31
0.0
  0
LINE
  5
342
330
1F
100
AcDbEntity
  8
0
  6
Continuous
 62
     7
370
    25
100
AcDbLine
 10
927.7098345645
 20
1638.9194291413
 30
0.0
 11
942.7098345645
 21
1638.9194291413
 31
0.0
  0
LINE
  5
343
330
1F
100
AcDbEntity
  8
0
  6
Continuous
 62
     7
370
    25
100
AcDbLine
 10
846.5437447578
 20
1666.9194291413
 30
0.0
 11
847.8526482615
 21
1666.9194291413
 31
0.0
  0
LINE
  5
344
330
1F
100
AcDbEntity
  8
0
  6
Continuous
 62
     7
370
    25
100
AcDbLine
 10
846.5437447578
 20
1666.9194291413
 30
0.0
 11
846.5437447578
 21
1706.9194291413
 31
0.0
  0
LINE
  5
345
330
1F
100
AcDbEntity
  8
0
  6
Continuous
 62
     7
370
    25
100
AcDbLine
 10
847.8526482615
 20
1706.9194291413
 30
0.0
 11
846.5437447578
 21
1706.9194291413
 31
0.0
  0
LINE
  5
346
330
1F
100
AcDbEntity
  8
0
  6
Continuous
 62
     7
370
    25
100
AcDbLine
 10
847.8526482615
 20
1666.9194291413
 30
0.0
 11
847.8526482615
 21
1706.9194291413
 31
0.0
  0
LINE
  5
347
330
1F
100
AcDbEntity
  8
0
  6
Continuous
 62
     7
370
    25
100
AcDbLine
 10
851.63316709
 20
1661.9194291413
 30
0.0
 11
850.3242635863
 21
1661.9194291413
 31
0.0
  0
ARC
  5
348
330
1F
100
AcDbEntity
  8
0
  6
Continuous
 62
     7
370
    25
100
AcDbCircle
 10
851.0323461189
 20
1666.384045272
 30
0.0
 40
4.520417908436812
100
AcDbArc
 50
173.1981050719
 51
260.9880219075
  0
ARC
  5
349
330
1F
100
AcDbEntity
  8
0
  6
Continuous
 62
     7
370
    25
100
AcDbCircle
 10
852.3412496226
 20
1666.384045272
 30
0.0
 40
4.520417908436812
100
AcDbArc
 50
173.1981050719
 51
260.9880219075
  0
ARC
  5
34A
330
1F
100
AcDbEntity
  8
0
  6
Continuous
 62
     7
370
    25
100
AcDbCircle
 10
851.0323461189
 20
1707.4548130107
 30
0.0
 40
4.520417908437037
100
AcDbArc
 50
99.0119780925
 51
186.8018949281
  0
LINE
  5
34B
330
1F
100
AcDbEntity
  8
0
  6
Continuous
 62
     7
370
    25
100
AcDbLine
 10
850.3242635863
 20
1711.9194291413
 30
0.0
 11
851.63316709
 21
1711.9194291413
 31
0.0
  0
ARC
  5
34C
330
1F
100
AcDbEntity
  8
0
  6
Continuous
 62
     7
370
    25
100
AcDbCircle
 10
852.3412496226
 20
1707.4548130107
 30
0.0
 40
4.520417908437037
100
AcDbArc
 50
99.0119780925
 51
186.8018949281
  0
LINE
  5
34D
330
1F
100
AcDbEntity
  8
0
  6
Continuous
 62
     7
370
    25
100
AcDbLine
 10
862.7882890186
 20
1711.9194291413
 30
0.0
 11
862.7882890186
 21
1661.9194291413
 31
0.0
  0
LINE
  5
34E
330
1F
100
AcDbEntity
  8
0
  6
Continuous
 62
     7
370
    25
100
AcDbLine
 10
862.7882890186
 20
1661.9194291413
 30
0.0
 11
851.63316709
 21
1661.9194291413
 31
0.0
  0
LINE
  5
34F
330
1F
100
AcDbEntity
  8
0
  6
Continuous
 62
     7
370
    25
100
AcDbLine
 10
851.63316709
 20
1711.9194291413
 30
0.0
 11
862.7882890186
 21
1711.9194291413
 31
0.0
  0
LWPOLYLINE
  5
350
330
1F
100
AcDbEntity
  8
0
  6
Continuous
 62
     7
370
    25
100
AcDbPolyline
 90
       19
 70
   128
 43
0.0
 10
852.9160768535
 20
1686.9194291413
 10
853.0597125586
 20
1687.9967925928
 10
853.4732950879
 20
1688.9442101118
 10
854.1069402845
 20
1689.6474091633
 10
854.8842211862
 20
1690.0215735633
 10
855.7113862448
 20
1690.0215735633
 10
856.4886671465
 20
1689.6474091633
 10
857.1223123431
 20
1688.9442101118
 10
857.5358948724
 20
1687.9967925928
 10
857.6795305774
 20
1686.9194291413
 10
857.5358948724
 20
1685.8420656899
 10
857.1223123431
 20
1684.8946481708
 10
856.4886671465
 20
1684.1914491194
 10
855.7113862448
 20
1683.8172847193
 10
854.8842211862
 20
1683.8172847193
 10
854.1069402845
 20
1684.1914491194
 10
853.4732950879
 20
1684.8946481708
 10
853.0597125586
 20
1685.8420656899
 10
852.9160768535
 20
1686.9194291413
  0
ARC
  5
351
330
1F
100
AcDbEntity
  8
0
  6
Continuous
 62
     7
370
    25
100
AcDbCircle
 10
852.9907158554
 20
1686.9194291413
 30
0.0
 40
3.450292053128775
100
AcDbArc
 50
298.6190933103
 51
61.3809066897
  0
LINE
  5
352
330
1F
100
AcDbEntity
  8
0
  6
Continuous
 62
     7
370
    25
100
AcDbLine
 10
875.7452548833
 20
1661.9194291413
 30
0.0
 11
863.2162411267
 21
1661.9194291413
 31
0.0
  0
LINE
  5
353
330
1F
100
AcDbEntity
  8
0
  6
Continuous
 62
     7
370
    25
100
AcDbLine
 10
863.2162411267
 20
1711.9194291413
 30
0.0
 11
863.2162411267
 21
1661.9194291413
 31
0.0
  0
LINE
  5
354
330
1F
100
AcDbEntity
  8
0
  6
Continuous
 62
     7
370
    25
100
AcDbLine
 10
863.2162411267
 20
1711.9194291413
 30
0.0
 11
875.7452548833
 21
1711.9194291413
 31
0.0
  0
LINE
  5
355
330
1F
100
AcDbEntity
  8
0
  6
Continuous
 62
     7
370
    25
100
AcDbLine
 10
863.2162411267
 20
1711.9194291413
 30
0.0
 11
862.7882890186
 21
1711.9194291413
 31
0.0
  0
LINE
  5
356
330
1F
100
AcDbEntity
  8
0
  6
Continuous
 62
     7
370
    25
100
AcDbLine
 10
862.7882890186
 20
1661.9194291413
 30
0.0
 11
863.2162411267
 21
1661.9194291413
 31
0.0
  0
ARC
  5
357
330
1F
100
AcDbEntity
  8
0
  6
Continuous
 62
     7
370
    25
100
AcDbCircle
 10
843.6789809891
 20
1707.4548130107
 30
0.0
 40
4.520417908437072
100
AcDbArc
 50
99.0119780925
 51
186.8018949281
  0
LINE
  5
358
330
1F
100
AcDbEntity
  8
0
  6
Continuous
 62
     7
370
    25
100
AcDbLine
 10
850.3242635863
 20
1711.9194291413
 30
0.0
 11
842.9708984564
 21
1711.9194291413
 31
0.0
  0
LINE
  5
359
330
1F
100
AcDbEntity
  8
0
  6
Continuous
 62
     7
370
    25
100
AcDbLine
 10
842.9708984564
 20
1661.9194291413
 30
0.0
 11
850.3242635863
 21
1661.9194291413
 31
0.0
  0
ARC
  5
35A
330
1F
100
AcDbEntity
  8
0
  6
Continuous
 62
     7
370
    25
100
AcDbCircle
 10
843.6789809891
 20
1666.384045272
 30
0.0
 40
4.52041790843683
100
AcDbArc
 50
173.1981050719
 51
260.9880219075
  0
LINE
  5
35B
330
1F
100
AcDbEntity
  8
0
  6
Continuous
 62
     7
370
    25
100
AcDbLine
 10
839.1903796279
 20
1706.9194291413
 30
0.0
 11
839.1903796279
 21
1666.9194291413
 31
0.0
  0
ARC
  5
35C
330
1F
100
AcDbEntity
  8
0
  6
Continuous
 62
     7
370
    25
100
AcDbCircle
 10
847.0221350588
 20
1686.5265998329
 30
0.0
 40
2.79605943287932
100
AcDbArc
 50
171.9235725987
 51
260.1485401762
  0
ARC
  5
35D
330
1F
100
AcDbEntity
  8
0
  6
Continuous
 62
     7
370
    25
100
AcDbCircle
 10
847.0963899834
 20
1687.2582376612
 30
0.0
 40
2.862701922117512
100
AcDbArc
 50
101.1308451198
 51
186.7970421053
  0
LINE
  5
35E
330
1F
100
AcDbEntity
  8
0
  6
Continuous
 62
     7
370
    25
100
AcDbLine
 10
841.6619949527
 20
1711.9194291413
 30
0.0
 11
842.9708984564
 21
1711.9194291413
 31
0.0
  0
LINE
  5
35F
330
1F
100
AcDbEntity
  8
0
  6
Continuous
 62
     7
370
    25
100
AcDbLine
 10
839.1903796279
 20
1706.9194291413
 30
0.0
 11
837.8814761242
 21
1706.9194291413
 31
0.0
  0
ARC
  5
360
330
1F
100
AcDbEntity
  8
0
  6
Continuous
 62
     7
370
    25
100
AcDbCircle
 10
842.3700774854
 20
1707.4548130107
 30
0.0
 40
4.520417908437072
100
AcDbArc
 50
99.0119780925
 51
186.8018949281
  0
LINE
  5
361
330
1F
100
AcDbEntity
  8
0
  6
Continuous
 62
     7
370
    25
100
AcDbLine
 10
837.8814761242
 20
1666.9194291413
 30
0.0
 11
839.1903796279
 21
1666.9194291413
 31
0.0
  0
LINE
  5
362
330
1F
100
AcDbEntity
  8
0
  6
Continuous
 62
     7
370
    25
100
AcDbLine
 10
842.9708984564
 20
1661.9194291413
 30
0.0
 11
841.6619949527
 21
1661.9194291413
 31
0.0
  0
ARC
  5
363
330
1F
100
AcDbEntity
  8
0
  6
Continuous
 62
     7
370
    25
100
AcDbCircle
 10
842.3700774854
 20
1666.384045272
 30
0.0
 40
4.520417908436794
100
AcDbArc
 50
173.1981050719
 51
260.9880219075
  0
LINE
  5
364
330
1F
100
AcDbEntity
  8
0
  6
Continuous
 62
     7
370
    25
100
AcDbLine
 10
837.8814761242
 20
1706.9194291413
 30
0.0
 11
837.8814761242
 21
1666.9194291413
 31
0.0
  0
LWPOLYLINE
  5
365
330
1F
100
AcDbEntity
  8
0
  6
Continuous
 62
     7
370
    25
100
AcDbPolyline
 90
        3
 70
   128
 43
0.0
 10
845.9810833301
 20
1683.8906820166
 10
846.5174950092
 20
1684.1914491194
 10
846.5437447578
 20
1684.2117898044
  0
LWPOLYLINE
  5
366
330
1F
100
AcDbEntity
  8
0
  6
Continuous
 62
     7
370
    25
100
AcDbPolyline
 90
        3
 70
   128
 43
0.0
 10
846.5437447578
 20
1689.6270684783
 10
846.5174950092
 20
1689.6474091633
 10
845.9810833301
 20
1689.9481762661
  0
LINE
  5
367
330
1F
100
AcDbEntity
  8
0
  6
Continuous
 62
     7
370
    25
100
AcDbLine
 10
894.6264605463
 20
1588.4194291413
 30
0.0
 11
894.6364141403
 21
1588.4194291413
 31
0.0
  0
LINE
  5
368
330
1F
100
AcDbEntity
  8
0
  6
Continuous
 62
     7
370
    25
100
AcDbLine
 10
854.4364141403
 20
1588.4194291413
 30
0.0
 11
894.6264605463
 21
1588.4194291413
 31
0.0
  0
LINE
  5
369
330
1F
100
AcDbEntity
  8
0
  6
Continuous
 62
     7
370
    25
100
AcDbLine
 10
894.6264605463
 20
1643.4194291413
 30
0.0
 11
894.6364141403
 21
1643.4194291413
 31
0.0
  0
LINE
  5
36A
330
1F
100
AcDbEntity
  8
0
  6
Continuous
 62
     7
370
    25
100
AcDbLine
 10
854.4364141403
 20
1643.4194291413
 30
0.0
 11
894.6264605463
 21
1643.4194291413
 31
0.0
  0
LINE
  5
36B
330
1F
100
AcDbEntity
  8
0
  6
Continuous
 62
     7
370
    25
100
AcDbLine
 10
894.6264605463
 20
1478.4194291413
 30
0.0
 11
894.6364141403
 21
1478.4194291413
 31
0.0
  0
LINE
  5
36C
330
1F
100
AcDbEntity
  8
0
  6
Continuous
 62
     7
370
    25
100
AcDbLine
 10
854.4364141403
 20
1478.4194291413
 30
0.0
 11
894.6264605463
 21
1478.4194291413
 31
0.0
  0
LINE
  5
36D
330
1F
100
AcDbEntity
  8
0
  6
Continuous
 62
     7
370
    25
100
AcDbLine
 10
894.6264605463
 20
1533.4194291413
 30
0.0
 11
894.6364141403
 21
1533.4194291413
 31
0.0
  0
LINE
  5
36E
330
1F
100
AcDbEntity
  8
0
  6
Continuous
 62
     7
370
    25
100
AcDbLine
 10
854.4364141403
 20
1533.4194291413
 30
0.0
 11
894.6264605463
 21
1533.4194291413
 31
0.0
  0
LINE
  5
36F
330
1F
100
AcDbEntity
  8
0
  6
Continuous
 62
     7
370
    25
100
AcDbLine
 10
854.5364141403
 20
1726.4194291413
 30
0.0
 11
875.7452548833
 21
1726.4194291413
 31
0.0
  0
CIRCLE
  5
370
330
1F
100
AcDbEntity
  8
0
  6
Continuous
 62
     7
370
    25
100
AcDbCircle
 10
873.9079219933
 20
1438.423968183
 30
0.0
 40
4.195461043346553
  0
LINE
  5
371
330
1F
100
AcDbEntity
  8
0
  6
Continuous
 62
     7
370
    25
100
AcDbLine
 10
894.5265100667
 20
1408.4194291413
 30
0.0
 11
894.5364141403
 21
1408.4194291413
 31
0.0
  0
LINE
  5
372
330
1F
100
AcDbEntity
  8
0
  6
Continuous
 62
     7
370
    25
100
AcDbLine
 10
854.5364141403
 20
1408.4194291413
 30
0.0
 11
894.5265100667
 21
1408.4194291413
 31
0.0
  0
ARC
  5
373
330
1F
100
AcDbEntity
  8
0
  6
Continuous
 62
     7
370
    25
100
AcDbCircle
 10
874.8874493657
 20
1438.3907211632
 30
0.0
 40
4.16178492899094
100
AcDbArc
 50
98.3793653916
 51
262.0438543633
  0
ARC
  5
374
330
1F
100
AcDbEntity
  8
0
  6
Continuous
 62
     7
370
    25
100
AcDbCircle
 10
874.9293866675
 20
1438.4206467596
 30
0.0
 40
4.099950114195612
100
AcDbArc
 50
95.5001365077
 51
264.4998634923
  0
ARC
  5
375
330
1F
100
AcDbEntity
  8
0
  6
Continuous
 62
     7
370
    25
100
AcDbCircle
 10
874.0145174459
 20
1438.391573209
 30
0.0
 40
4.122342567243799
100
AcDbArc
 50
89.4504191636
 51
270.5622729026
  0
ARC
  5
376
330
1F
100
AcDbEntity
  8
0
  6
Continuous
 62
     7
370
    25
100
AcDbCircle
 10
874.079593378
 20
1438.3913012102
 30
0.0
 40
4.122050114107134
100
AcDbArc
 50
89.4697629079
 51
270.5325345559
  0
ARC
  5
377
330
1F
100
AcDbEntity
  8
0
  6
Continuous
 62
     7
370
    25
100
AcDbCircle
 10
874.8610765374
 20
1438.4213334596
 30
0.0
 40
4.097370901882914
100
AcDbArc
 50
94.0905485412
 51
265.2864844128
  0
LINE
  5
378
330
1F
100
AcDbEntity
  8
0
  6
Continuous
 62
     7
370
    25
100
AcDbLine
 10
855.2364141403
 20
1398.4194291413
 30
0.0
 11
855.2364141403
 21
698.4194291413
 31
0.0
  0
LINE
  5
379
330
1F
100
AcDbEntity
  8
0
  6
Continuous
 62
     7
370
    25
100
AcDbLine
 10
855.2364141403
 20
1398.4194291413
 30
0.0
 11
905.2364141403
 21
1398.4194291413
 31
0.0
  0
LINE
  5
37A
330
1F
100
AcDbEntity
  8
0
  6
Continuous
 62
     7
370
    25
100
AcDbLine
 10
905.2364141403
 20
1398.4194291413
 30
0.0
 11
905.2364141403
 21
748.4194291413
 31
0.0
  0
LINE
  5
37B
330
1F
100
AcDbEntity
  8
0
  6
Continuous
 62
     7
370
    25
100
AcDbLine
 10
855.2364141403
 20
698.4194291413
 30
0.0
 11
905.2364141403
 21
748.4194291413
 31
0.0
  0
LINE
  5
37C
330
1F
100
AcDbEntity
  8
0
  6
Continuous
 62
     8
370
    25
100
AcDbLine
 10
945.2512182144
 20
1642.9194291413
 30
0.0
 11
945.9598345644
 21
1642.9194291413
 31
0.0
  0
LINE
  5
37D
330
1F
100
AcDbEntity
  8
0
  6
Continuous
 62
     8
370
    25
100
AcDbLine
 10
924.7889291249
 20
1642.9194291413
 30
0.0
 11
945.2512182144
 21
1642.9194291413
 31
0.0
  0
LINE
  5
37E
330
1F
100
AcDbEntity
  8
0
  6
Continuous
 62
     8
370
    25
100
AcDbLine
 10
924.0803127749
 20
1642.9194291413
 30
0.0
 11
924.7889291249
 21
1642.9194291413
 31
0.0
  0
LINE
  5
37F
330
1F
100
AcDbEntity
  8
0
  6
Continuous
 62
     8
370
    25
100
AcDbLine
 10
903.2889291249
 20
1642.9194291413
 30
0.0
 11
924.0803127749
 21
1642.9194291413
 31
0.0
  0
LINE
  5
380
330
1F
100
AcDbEntity
  8
0
  6
Continuous
 62
     8
370
    25
100
AcDbLine
 10
941.0885799354
 20
1807.4194291413
 30
0.0
 11
926.1223835798
 21
1807.4194291413
 31
0.0
  0
LINE
  5
381
330
1F
100
AcDbEntity
  8
0
  6
Continuous
 62
     8
370
    25
100
AcDbLine
 10
910.7022661393
 20
1809.4194291413
 30
0.0
 11
930.1982024725
 21
1809.4194291413
 31
0.0
  0
LINE
  5
382
330
1F
100
AcDbEntity
  8
0
  6
Continuous
 62
     8
370
    25
100
AcDbLine
 10
936.9789573982
 20
1809.4194291413
 30
0.0
 11
966.1131313431
 21
1809.4194291413
 31
0.0
  0
LINE
  5
383
330
1F
100
AcDbEntity
  8
0
  6
Continuous
 62
     8
370
    25
100
AcDbLine
 10
882.1243818446
 20
1809.4194291413
 30
0.0
 11
885.3190755111
 21
1809.4194291413
 31
0.0
  0
LINE
  5
384
330
1F
100
AcDbEntity
  8
0
  6
Continuous
 62
     8
370
    25
100
AcDbLine
 10
892.0998304368
 20
1809.4194291413
 30
0.0
 11
910.7022661393
 21
1809.4194291413
 31
0.0
  0
LINE
  5
385
330
1F
100
AcDbEntity
  8
0
  6
Continuous
 62
     8
370
    25
100
AcDbLine
 10
967.1243818446
 20
1846.4194291413
 30
0.0
 11
882.1243818446
 21
1846.4194291413
 31
0.0
  0
LINE
  5
386
330
1F
100
AcDbEntity
  8
0
  6
Continuous
 62
     8
370
    25
100
AcDbLine
 10
941.6703515298
 20
1807.4194291413
 30
0.0
 11
941.0885799354
 21
1807.4194291413
 31
0.0
  0
LINE
  5
387
330
1F
100
AcDbEntity
  8
0
  6
Continuous
 62
     8
370
    25
100
AcDbLine
 10
894.1329965286
 20
1807.4194291413
 30
0.0
 11
881.209452974
 21
1807.4194291413
 31
0.0
  0
LINE
  5
388
330
1F
100
AcDbEntity
  8
0
  6
Continuous
 62
     8
370
    25
100
AcDbLine
 10
977.003508806
 20
1807.4194291413
 30
0.0
 11
966.386392759
 21
1807.4194291413
 31
0.0
  0
LINE
  5
389
330
1F
100
AcDbEntity
  8
0
  6
Continuous
 62
     8
370
    25
100
AcDbLine
 10
881.209452974
 20
1807.4194291413
 30
0.0
 11
878.6243818446
 21
1807.4194291413
 31
0.0
  0
LINE
  5
38A
330
1F
100
AcDbEntity
  8
0
  6
Continuous
 62
     8
370
    25
100
AcDbLine
 10
878.6243818446
 20
1807.4194291413
 30
0.0
 11
877.9707830779
 21
1807.4194291413
 31
0.0
  0
LINE
  5
38B
330
1F
100
AcDbEntity
  8
0
  6
Continuous
 62
     8
370
    25
100
AcDbLine
 10
877.9707830779
 20
1807.4194291413
 30
0.0
 11
872.2452548832
 21
1807.4194291413
 31
0.0
  0
LINE
  5
38C
330
1F
100
AcDbEntity
  8
0
  6
Continuous
 62
     8
370
    25
100
AcDbLine
 10
929.6066085457
 20
1661.9194291413
 30
0.0
 11
929.6066085457
 21
1795.4194291413
 31
0.0
  0
LINE
  5
38D
330
1F
100
AcDbEntity
  8
0
  6
Continuous
 62
     8
370
    25
100
AcDbLine
 10
924.6286429967
 20
1661.9194291413
 30
0.0
 11
924.6286429967
 21
1795.4194291413
 31
0.0
  0
LINE
  5
38E
330
1F
100
AcDbEntity
  8
0
  6
Continuous
 62
     8
370
    25
100
AcDbLine
 10
940.3733755755
 20
1661.9194291413
 30
0.0
 11
940.3733755755
 21
1795.4194291413
 31
0.0
  0
LINE
  5
38F
330
1F
100
AcDbEntity
  8
0
  6
Continuous
 62
     8
370
    25
100
AcDbLine
 10
898.3131448823
 20
1661.9194291413
 30
0.0
 11
898.3131448822
 21
1795.4194291413
 31
0.0
  0
LINE
  5
390
330
1F
100
AcDbEntity
  8
0
  6
Continuous
 62
     8
370
    25
100
AcDbLine
 10
961.4325918965
 20
1661.9194291413
 30
0.0
 11
961.4325918965
 21
1795.4194291413
 31
0.0
  0
LINE
  5
391
330
1F
100
AcDbEntity
  8
0
  6
Continuous
 62
     8
370
    25
100
AcDbLine
 10
891.6020095365
 20
1661.9194291413
 30
0.0
 11
891.6020095365
 21
1795.4194291413
 31
0.0
  0
LINE
  5
392
330
1F
100
AcDbEntity
  8
0
  6
Continuous
 62
     8
370
    25
100
AcDbLine
 10
967.8410469143
 20
1661.9194291413
 30
0.0
 11
967.8410469142
 21
1795.4194291413
 31
0.0
  0
LINE
  5
393
330
1F
100
AcDbEntity
  8
0
  6
Continuous
 62
     8
370
    25
100
AcDbLine
 10
878.7988699204
 20
1661.9194291413
 30
0.0
 11
878.7988699204
 21
1795.4194291413
 31
0.0
  0
LINE
  5
394
330
1F
100
AcDbEntity
  8
0
  6
Continuous
 62
     8
370
    25
100
AcDbLine
 10
912.8633110781
 20
1555.6512337855
 30
0.0
 11
914.2073906419
 21
1555.6512337855
 31
0.0
  0
LINE
  5
395
330
1F
100
AcDbEntity
  8
0
  6
Continuous
 62
     8
370
    25
100
AcDbLine
 10
907.1546130542
 20
1553.6512337855
 30
0.0
 11
907.1546130542
 21
1553.8012337855
 31
0.0
  0
LINE
  5
396
330
1F
100
AcDbEntity
  8
0
  6
Continuous
 62
     8
370
    25
100
AcDbLine
 10
901.2645472875
 20
1553.8012337855
 30
0.0
 11
901.2645472875
 21
1553.6512337855
 31
0.0
  0
LINE
  5
397
330
1F
100
AcDbEntity
  8
0
  6
Continuous
 62
     8
370
    25
100
AcDbLine
 10
948.4928100204
 20
1561.7512337855
 30
0.0
 11
947.4759563326
 21
1561.7512337855
 31
0.0
  0
LINE
  5
398
330
1F
100
AcDbEntity
  8
0
  6
Continuous
 62
     8
370
    25
100
AcDbLine
 10
904.2749718159
 20
1518.4830384297
 30
0.0
 11
903.7872129726
 21
1518.4830384297
 31
0.0
  0
LINE
  5
399
330
1F
100
AcDbEntity
  8
0
  6
Continuous
 62
     8
370
    25
100
AcDbLine
 10
924.290676957
 20
1518.4830384297
 30
0.0
 11
923.5995824063
 21
1518.4830384297
 31
0.0
  0
LWPOLYLINE
  5
39A
330
1F
100
AcDbEntity
  8
0
  6
Continuous
 62
     8
370
    25
100
AcDbPolyline
 90
        3
 70
   128
 43
0.0
 10
924.8483811985
 20
1522.8356540857
 10
925.0038076379
 20
1522.2788161656
 10
925.4458772554
 20
1518.4830384297
  0
LINE
  5
39B
330
1F
100
AcDbEntity
  8
0
  6
Continuous
 62
     8
370
    25
100
AcDbLine
 10
925.4458772554
 20
1518.4830384297
 30
0.0
 11
924.9581184121
 21
1518.4830384297
 31
0.0
  0
LINE
  5
39C
330
1F
100
AcDbEntity
  8
0
  6
Continuous
 62
     8
370
    25
100
AcDbLine
 10
945.4615823965
 20
1518.4830384297
 30
0.0
 11
944.7704878458
 21
1518.4830384297
 31
0.0
  0
ARC
  5
39D
330
1F
100
AcDbEntity
  8
0
  6
Continuous
 62
     8
370
    25
100
AcDbCircle
 10
910.3457468511
 20
1598.7756322134
 30
0.0
 40
15.10081507012438
100
AcDbArc
 50
343.8946656246
 51
0.5456050921
  0
LINE
  5
39E
330
1F
100
AcDbEntity
  8
0
  6
Continuous
 62
     8
370
    25
100
AcDbLine
 10
924.9580866556
 20
1598.9194291413
 30
0.0
 11
925.4458772554
 21
1598.9194291413
 31
0.0
  0
LINE
  5
39F
330
1F
100
AcDbEntity
  8
0
  6
Continuous
 62
     8
370
    25
100
AcDbLine
 10
944.7704878458
 20
1598.9194291413
 30
0.0
 11
945.4615531162
 21
1598.9194291413
 31
0.0
  0
LINE
  5
3A0
330
1F
100
AcDbEntity
  8
0
  6
Continuous
 62
     8
370
    25
100
AcDbLine
 10
908.9076422497
 20
1577.0918597702
 30
0.0
 11
908.9076422497
 21
1584.1512337855
 31
0.0
  0
LINE
  5
3A1
330
1F
100
AcDbEntity
  8
0
  6
Continuous
 62
     8
370
    25
100
AcDbLine
 10
901.2505567531
 20
1577.3438457147
 30
0.0
 11
901.2505567531
 21
1584.1512337855
 31
0.0
  0
LINE
  5
3A2
330
1F
100
AcDbEntity
  8
0
  6
Continuous
 62
     8
370
    25
100
AcDbLine
 10
903.7871812161
 20
1598.9194291413
 30
0.0
 11
904.2749718159
 21
1598.9194291413
 31
0.0
  0
LINE
  5
3A3
330
1F
100
AcDbEntity
  8
0
  6
Continuous
 62
     8
370
    25
100
AcDbLine
 10
923.5995824062
 20
1598.9194291413
 30
0.0
 11
924.2906476767
 21
1598.9194291413
 31
0.0
  0
LWPOLYLINE
  5
3A4
330
1F
100
AcDbEntity
  8
0
  6
Continuous
 62
     8
370
    25
100
AcDbPolyline
 90
        7
 70
   128
 43
0.0
 10
908.8623657768
 20
1576.1799890603
 10
908.7533343244
 20
1576.3608365769
 10
908.6726171602
 20
1576.5323923338
 10
908.6243614493
 20
1576.6858419724
 10
908.6110465205
 20
1576.8133014079
 10
908.6333564812
 20
1576.9082219054
 10
908.6668193816
 20
1576.9503548452
  0
LINE
  5
3A5
330
1F
100
AcDbEntity
  8
0
  6
Continuous
 62
     8
370
    25
100
AcDbLine
 10
906.6296896827
 20
1573.826092925
 30
0.0
 11
906.2578287592
 21
1573.826092925
 31
0.0
  0
LINE
  5
3A6
330
1F
100
AcDbEntity
  8
0
  6
Continuous
 62
     8
370
    25
100
AcDbLine
 10
902.2446432906
 20
1575.3836034746
 30
0.0
 11
903.0400535539
 21
1575.3836034746
 31
0.0
  0
LINE
  5
3A7
330
1F
100
AcDbEntity
  8
0
  6
Continuous
 62
     8
370
    25
100
AcDbLine
 10
901.7603674018
 20
1576.9587443351
 30
0.0
 11
901.4321989992
 21
1576.9587443351
 31
0.0
  0
LINE
  5
3A8
330
1F
100
AcDbEntity
  8
0
  6
Continuous
 62
     8
370
    25
100
AcDbLine
 10
933.8915015535
 20
1563.7512337855
 30
0.0
 11
933.8915015535
 21
1548.1512337855
 31
0.0
  0
LINE
  5
3A9
330
1F
100
AcDbEntity
  8
0
  6
Continuous
 62
     8
370
    25
100
AcDbLine
 10
933.8915015535
 20
1545.2770163692
 30
0.0
 11
933.8915015535
 21
1542.2512337855
 31
0.0
  0
LINE
  5
3AA
330
1F
100
AcDbEntity
  8
0
  6
Continuous
 62
     8
370
    25
100
AcDbLine
 10
931.0703905184
 20
1542.2512337855
 30
0.0
 11
931.0703905184
 21
1542.2592544488
 31
0.0
  0
LINE
  5
3AB
330
1F
100
AcDbEntity
  8
0
  6
Continuous
 62
     8
370
    25
100
AcDbLine
 10
931.0703905184
 20
1553.6512337855
 30
0.0
 11
931.0703905184
 21
1563.7512337855
 31
0.0
  0
LINE
  5
3AC
330
1F
100
AcDbEntity
  8
0
  6
Continuous
 62
     8
370
    25
100
AcDbLine
 10
854.126020385
 20
1684.1770346192
 30
0.0
 11
854.126020385
 21
1689.6618236635
 31
0.0
  0
LINE
  5
3AD
330
1F
100
AcDbEntity
  8
THICK_LINE
 62
     7
100
AcDbLine
 10
921.5389291249
 20
1508.4830384297
 30
0.0
 11
921.5389291249
 21
823.4194291414
 31
0.0
  0
LINE
  5
3AE
330
1F
100
AcDbEntity
  8
THICK_LINE
 62
     7
100
AcDbLine
 10
385.2364141403
 20
798.4194291413
 30
0.0
 11
385.2364141403
 21
783.4194291413
 31
0.0
  0
LINE
  5
3AF
330
1F
100
AcDbEntity
  8
THICK_LINE
 62
     7
100
AcDbLine
 10
1425.2364141403
 20
798.4830384297
 30
0.0
 11
1425.2364141403
 21
783.4830384297
 31
0.0
  0
LINE
  5
3B0
330
1F
100
AcDbEntity
  8
THICK_LINE
 62
     7
100
AcDbLine
 10
942.7098345645
 20
1508.4830384297
 30
0.0
 11
942.7098345645
 21
838.4830384297
 31
0.0
  0
LINE
  5
3B1
330
1F
100
AcDbEntity
  8
THICK_LINE
 62
     7
100
AcDbLine
 10
906.5389291249
 20
1508.4830384297
 30
0.0
 11
906.5389291249
 21
838.4194291414
 31
0.0
  0
LINE
  5
3B2
330
1F
100
AcDbEntity
  8
THICK_LINE
 62
     7
100
AcDbLine
 10
927.7098345645
 20
1508.4830384297
 30
0.0
 11
927.7098345645
 21
823.4830384297
 31
0.0
  0
LINE
  5
3B3
330
1F
100
AcDbEntity
  8
THICK_LINE
 62
     7
100
AcDbLine
 10
866.5389291249
 20
798.4194291413
 30
0.0
 11
385.2364141403
 21
798.4194291413
 31
0.0
  0
LINE
  5
3B4
330
1F
100
AcDbEntity
  8
THICK_LINE
 62
     7
100
AcDbLine
 10
982.7098345645
 20
798.4830384297
 30
0.0
 11
1425.2364141403
 21
798.4830384297
 31
0.0
  0
LINE
  5
3B5
330
1F
100
AcDbEntity
  8
THICK_LINE
 62
     7
100
AcDbLine
 10
881.5389291249
 20
783.4194291413
 30
0.0
 11
385.2364141403
 21
783.4194291413
 31
0.0
  0
LINE
  5
3B6
330
1F
100
AcDbEntity
  8
THICK_LINE
 62
     7
100
AcDbLine
 10
906.5389291249
 20
1508.4830384297
 30
0.0
 11
921.5389291249
 21
1508.4830384297
 31
0.0
  0
LINE
  5
3B7
330
1F
100
AcDbEntity
  8
THICK_LINE
 62
     7
100
AcDbLine
 10
1425.2364141403
 20
1398.4194291413
 30
0.0
 11
1425.2364141403
 21
1115.2079768573
 31
0.0
  0
LINE
  5
3B8
330
1F
100
AcDbEntity
  8
THICK_LINE
 62
     7
100
AcDbLine
 10
385.2364141403
 20
1398.4194291413
 30
0.0
 11
1425.2364141403
 21
1398.4194291413
 31
0.0
  0
LINE
  5
3B9
330
1F
100
AcDbEntity
  8
THICK_LINE
 62
     7
100
AcDbLine
 10
385.2364141403
 20
1054.264790376
 30
0.0
 11
385.2364141403
 21
577.5885991264
 31
0.0
  0
LINE
  5
3BA
330
1F
100
AcDbEntity
  8
THICK_LINE
 62
     7
100
AcDbLine
 10
967.7098345645
 20
783.4830384297
 30
0.0
 11
1425.2364141403
 21
783.4830384297
 31
0.0
  0
LINE
  5
3BB
330
1F
100
AcDbEntity
  8
THICK_LINE
 62
     7
100
AcDbLine
 10
1425.2364141403
 20
1054.264790376
 30
0.0
 11
1425.2364141403
 21
577.5885991264
 31
0.0
  0
LINE
  5
3BC
330
1F
100
AcDbEntity
  8
THICK_LINE
 62
     7
100
AcDbLine
 10
1425.2364141403
 20
1115.2079768573
 30
0.0
 11
1454.7624301592
 21
1107.6262664482
 31
0.0
  0
LINE
  5
3BD
330
1F
100
AcDbEntity
  8
THICK_LINE
 62
     7
100
AcDbLine
 10
1454.7624301592
 20
1107.6262664482
 30
0.0
 11
1371.3072011257
 21
1068.1127702527
 31
0.0
  0
LINE
  5
3BE
330
1F
100
AcDbEntity
  8
THICK_LINE
 62
     7
100
AcDbLine
 10
1371.3072011257
 20
1068.1127702527
 30
0.0
 11
1425.2364141403
 21
1054.264790376
 31
0.0
  0
LINE
  5
3BF
330
1F
100
AcDbEntity
  8
THICK_LINE
 62
     7
100
AcDbLine
 10
927.7098345645
 20
1508.4830384297
 30
0.0
 11
942.7098345645
 21
1508.4830384297
 31
0.0
  0
LINE
  5
3C0
330
1F
100
AcDbEntity
  8
THICK_LINE
  6
Continuous
 62
     7
370
    25
100
AcDbLine
 10
1425.2364141403
 20
577.5885991264
 30
0.0
 11
385.2364141403
 21
577.5885991264
 31
0.0
  0
LINE
  5
3C1
330
1F
100
AcDbEntity
  8
THICK_LINE
  6
Continuous
 62
     7
370
    25
100
AcDbLine
 10
439.165627155
 20
1068.1127702527
 30
0.0
 11
385.2364141403
 21
1054.264790376
 31
0.0
  0
LINE
  5
3C2
330
1F
100
AcDbEntity
  8
THICK_LINE
  6
Continuous
 62
     7
370
    25
100
AcDbLine
 10
355.7103981214
 20
1107.6262664482
 30
0.0
 11
439.165627155
 21
1068.1127702527
 31
0.0
  0
LINE
  5
3C3
330
1F
100
AcDbEntity
  8
THICK_LINE
  6
Continuous
 62
     7
370
    25
100
AcDbLine
 10
385.2364141403
 20
1115.2079768573
 30
0.0
 11
355.7103981214
 21
1107.6262664482
 31
0.0
  0
LINE
  5
3C4
330
1F
100
AcDbEntity
  8
THICK_LINE
  6
Continuous
 62
     7
370
    25
100
AcDbLine
 10
385.2364141403
 20
1398.4194291413
 30
0.0
 11
385.2364141403
 21
1115.2079768573
 31
0.0
  0
ARC
  5
3C5
330
1F
100
AcDbEntity
  8
THICK_LINE
 62
     7
100
AcDbCircle
 10
866.5389291249
 20
838.4194291413
 30
0.0
 40
40.0
100
AcDbArc
 50
270.0
 51
0.0
  0
ARC
  5
3C6
330
1F
100
AcDbEntity
  8
THICK_LINE
 62
     7
100
AcDbCircle
 10
881.5389291249
 20
823.4194291413
 30
0.0
 40
40.00000000000011
100
AcDbArc
 50
270.0
 51
0.0
  0
ARC
  5
3C7
330
1F
100
AcDbEntity
  8
THICK_LINE
 62
     7
100
AcDbCircle
 10
967.7098345645
 20
823.4830384297
 30
0.0
 40
39.99999999999989
100
AcDbArc
 50
180.0
 51
270.0
  0
ARC
  5
3C8
330
1F
100
AcDbEntity
  8
THICK_LINE
 62
     7
100
AcDbCircle
 10
982.7098345645
 20
838.4830384297
 30
0.0
 40
40.0
100
AcDbArc
 50
180.0
 51
270.0
  0
HATCH
  5
3C9
330
1F
100
AcDbEntity
  8
THICK_LINE
 62
   251
420
  4934475
100
AcDbHatch
 10
0.0
 20
0.0
 30
0.0
210
0.0
220
0.0
230
1.0
  2
SOLID
 70
     1
 71
     0
 91
        1
 92
        0
 93
        8
 72
     1
 10
866.5389291248916
 20
798.4194291413404
 11
385.23641414031
 21
798.4194291413403
 72
     1
 10
385.23641414031
 20
798.4194291413403
 11
385.23641414031
 21
783.4194291413497
 72
     1
 10
385.23641414031
 20
783.4194291413497
 11
881.5389291248915
 21
783.4194291413498
 72
     2
 10
881.5389291248919
 20
823.41942914135
 40
39.99999999999999
 50
270.0000000000003
 51
360.0000000000008
 73
     1
 72
     1
 10
921.5389291248918
 20
823.41942914135
 11
921.5389291248919
 21
1508.483038429704
 72
     1
 10
921.5389291248919
 20
1508.483038429704
 11
906.5389291248919
 21
1508.483038429704
 72
     1
 10
906.5389291248919
 20
1508.483038429704
 11
906.5389291248919
 21
838.4194291413502
 72
     2
 10
866.538929124892
 20
838.4194291413404
 40
39.99999999999999
 50
359.9999999999868
 51
450.0000000000014
 73
     0
 97
        0
 75
     0
 76
     1
 98
        1
 10
0.0
 20
0.0
  0
HATCH
  5
3CA
330
1F
100
AcDbEntity
  8
THICK_LINE
 62
   251
420
  4934475
100
AcDbHatch
 10
0.0
 20
0.0
 30
0.0
210
0.0
220
0.0
230
1.0
  2
SOLID
 70
     1
 71
     0
 91
        1
 92
        0
 93
        8
 72
     1
 10
982.7098345644814
 20
798.4830384297095
 11
1425.23641414031
 21
798.4830384297095
 72
     1
 10
1425.23641414031
 20
798.4830384297095
 11
1425.23641414031
 21
783.4830384297077
 72
     1
 10
1425.23641414031
 20
783.4830384297077
 11
967.7098345644819
 21
783.4830384297043
 72
     2
 10
967.7098345644812
 20
823.4830384297042
 40
39.99999999999999
 50
89.99999999999902
 51
180.0
 73
     0
 72
     1
 10
927.7098345644813
 20
823.4830384297042
 11
927.7098345644812
 21
1508.483038429709
 72
     1
 10
927.7098345644812
 20
1508.483038429709
 11
942.7098345644812
 21
1508.483038429709
 72
     1
 10
942.7098345644812
 20
1508.483038429709
 11
942.7098345644812
 21
838.4830384297097
 72
     2
 10
982.7098345644812
 20
838.4830384297094
 40
39.99999999999999
 50
179.9999999999995
 51
270.0000000000011
 73
     1
 97
        0
 75
     0
 76
     1
 98
        1
 10
0.0
 20
0.0
  0
HATCH
  5
3CB
330
1F
100
AcDbEntity
  8
THICK_LINE
 62
     7
100
AcDbHatch
 10
0.0
 20
0.0
 30
0.0
210
0.0
220
0.0
230
1.0
  2
AR-SAND
 70
     0
 71
     0
 91
        1
 92
        0
 93
       12
 72
     1
 10
385.23641414031
 20
1398.419429141331
 11
1425.23641414031
 21
1398.419429141331
 72
     1
 10
1425.23641414031
 20
1398.419429141331
 11
1425.23641414031
 21
1115.207976857345
 72
     1
 10
1425.23641414031
 20
1115.207976857345
 11
1454.762430159241
 21
1107.626266448201
 72
     1
 10
1454.762430159241
 20
1107.626266448201
 11
1371.307201125668
 21
1068.112770252714
 72
     1
 10
1371.307201125668
 20
1068.112770252714
 11
1425.23641414031
 21
1054.264790375989
 72
     1
 10
1425.23641414031
 20
1054.264790375989
 11
1425.23641414031
 21
577.588599126427
 72
     1
 10
1425.23641414031
 20
577.588599126427
 11
385.2364141403102
 21
577.5885991264269
 72
     1
 10
385.2364141403102
 20
577.5885991264269
 11
385.23641414031
 21
1054.264790375989
 72
     1
 10
385.23641414031
 20
1054.264790375989
 11
439.1656271549514
 21
1068.112770252713
 72
     1
 10
439.1656271549514
 20
1068.112770252713
 11
355.7103981213784
 21
1107.626266448201
 72
     1
 10
355.7103981213784
 20
1107.626266448201
 11
385.23641414031
 21
1115.207976857344
 72
     1
 10
385.23641414031
 20
1115.207976857344
 11
385.23641414031
 21
1398.419429141331
 97
        0
 75
     0
 76
     1
 52
0.0
 41
4.0
 77
     0
 78
     4
 53
37.5
 43
0.0
 44
0.0
 45
-6.400125183936183
 46
195.7652949317369
 79
     6
 49
0.0
 49
-154.432
 49
0.0
 49
-172.72
 49
0.0
 49
-165.1
 53
7.5
 43
0.0
 44
0.0
 45
179.8093132552011
 46
286.7300402273417
 79
     6
 49
0.0
 49
-83.312
 49
0.0
 49
-139.192
 49
0.0
 49
-53.34
 53
-32.5
 43
-124.968
 44
0.0
 45
316.3969480965832
 46
0.5748738714183048
 79
     6
 49
0.0
 49
-50.8
 49
0.0
 49
-182.88
 49
0.0
 49
-238.76
 53
-42.50000000000001
 43
-124.968
 44
0.0
 45
305.4225809889189
 46
89.17172930288652
 79
     6
 49
0.0
 49
-25.4
 49
0.0
 49
-119.888
 49
0.0
 49
-137.16
 98
        1
 10
0.0
 20
0.0
  0
DIMENSION
  5
3CC
330
1F
100
AcDbEntity
  8
THICK_LINE
 62
     7
100
AcDbDimension
  2
_D
 10
257.9204001631
 20
1398.4194291413
 30
0.0
 11
257.9204001631
 21
1637.1493977194
 31
0.0
 70
   160
  1
<>
 71
     2
 42
-1.0
 73
     0
 74
     0
 75
     0
  3
SLDDIMSTYLE0
100
AcDbAlignedDimension
 13
884.1243818446
 23
1848.4194291413
 33
0.0
 14
385.2364141403
 24
1398.4194291413
 34
0.0
 50
90.0
100
AcDbRotatedDimension
  0
DIMENSION
  5
3D8
330
1F
100
AcDbEntity
  8
THICK_LINE
 62
     7
100
AcDbDimension
  2
_D_1
 10
327.0633169848
 20
798.4194291413
 30
0.0
 11
327.0633169848
 21
1077.6058832678
 31
0.0
 70
   160
  1
<>
 71
     2
 42
-1.0
 73
     0
 74
     0
 75
     0
  3
SLDDIMSTYLE0
100
AcDbAlignedDimension
 13
385.2364141403
 23
1398.4194291413
 33
0.0
 14
385.2364141403
 24
798.4194291413
 34
0.0
 50
90.0
100
AcDbRotatedDimension
  0
DIMENSION
  5
3E2
330
1F
100
AcDbEntity
  8
THICK_LINE
 62
     7
100
AcDbDimension
  2
_D_2
 10
257.9204001631
 20
1398.4194291413
 30
0.0
 11
257.9204001631
 21
1077.6058832678
 31
0.0
 70
   160
  1
<>
 71
     2
 42
-1.0
 73
     0
 74
     0
 75
     0
  3
SLDDIMSTYLE0
100
AcDbAlignedDimension
 13
855.2364141403
 23
698.4194291413
 33
0.0
 14
385.2364141403
 24
1398.4194291413
 34
0.0
 50
90.0
100
AcDbRotatedDimension
  0
INSERT
  5
3F1
330
1F
100
AcDbEntity
  8
THICK_LINE
 62
     7
100
AcDbBlockReference
  2
SW_NOTE_5
 10
1434.6411889597
 20
1426.7988668237
 30
0.0
  0
LEADER
  5
3F3
330
1F
100
AcDbEntity
  8
THICK_LINE
 62
     7
100
AcDbLeader
  3
SLDDIMSTYLE1
 76
     2
 10
1282.6931805523
 20
1217.1220672923
 30
0.0
 10
1434.6411889597
 20
1426.7988668237
 30
0.0
  0
INSERT
  5
3FA
330
1F
100
AcDbEntity
  8
THICK_LINE
 62
     7
100
AcDbBlockReference
  2
SW_NOTE_6
 10
1286.8704883227
 20
1515.1215844457
 30
0.0
  0
LEADER
  5
3FB
330
1F
100
AcDbEntity
  8
THICK_LINE
 62
     7
100
AcDbLeader
  3
SLDDIMSTYLE1
 76
     2
 10
936.609938082
 20
1409.969700533
 30
0.0
 10
1286.8704883227
 20
1515.1215844457
 30
0.0
  0
LEADER
  5
3FC
330
1F
100
AcDbEntity
  8
THICK_LINE
 62
     7
100
AcDbLeader
  3
SLDDIMSTYLE1
 76
     2
 10
913.2881437723
 20
1449.9579108068
 30
0.0
 10
1286.8704883227
 20
1515.1215844457
 30
0.0
  0
INSERT
  5
403
330
1F
100
AcDbEntity
  8
THICK_LINE
 62
     7
100
AcDbBlockReference
  2
SW_NOTE_7
 10
1091.5414012739
 20
1627.2234952738
 30
0.0
  0
LEADER
  5
404
330
1F
100
AcDbEntity
  8
THICK_LINE
 62
     7
100
AcDbLeader
  3
SLDDIMSTYLE1
 76
     2
 10
940.147247777
 20
1542.2512337855
 30
0.0
 10
1091.5414012739
 20
1627.2234952738
 30
0.0
  0
LEADER
  5
405
330
1F
100
AcDbEntity
  8
THICK_LINE
 62
     7
100
AcDbLeader
  3
SLDDIMSTYLE1
 76
     2
 10
919.7554180264
 20
1575.1512337855
 30
0.0
 10
1091.5414012739
 20
1627.2234952738
 30
0.0
  0
INSERT
  5
40C
330
1F
100
AcDbEntity
  8
THICK_LINE
 62
     7
100
AcDbBlockReference
  2
SW_NOTE_8
 10
1113.6220806794
 20
2059.5425319488
 30
0.0
  0
LEADER
  5
413
330
1F
100
AcDbEntity
  8
THICK_LINE
 62
     7
100
AcDbLeader
  3
SLDDIMSTYLE2
 76
     2
 10
921.0979364588
 20
1831.3114335727
 30
0.0
 10
1113.6220806794
 20
2059.5425319488
 30
0.0
  0
INSERT
  5
41A
330
1F
100
AcDbEntity
  8
THICK_LINE
 62
     7
100
AcDbBlockReference
  2
SW_NOTE_9
 10
639.0833927623
 20
1920.264400314
 30
0.0
  0
LEADER
  5
41B
330
1F
100
AcDbEntity
  8
THICK_LINE
 62
     7
100
AcDbLeader
  3
SLDDIMSTYLE1
 76
     2
 10
862.7882890186
 20
1686.4235862467
 30
0.0
 10
639.0833927623
 20
1920.264400314
 30
0.0
  0
INSERT
  5
421
330
1F
100
AcDbEntity
  8
THICK_LINE
 62
     7
100
AcDbBlockReference
  2
SW_NOTE_10
 10
568.8979792929
 20
1699.4103317918
 30
0.0
  0
LEADER
  5
422
330
1F
100
AcDbEntity
  8
THICK_LINE
 62
     7
100
AcDbLeader
  3
SLDDIMSTYLE1
 76
     2
 10
870.2245713921
 20
1533.4194291413
 30
0.0
 10
568.8979792929
 20
1699.4103317918
 30
0.0
  0
INSERT
  5
429
330
1F
100
AcDbEntity
  8
THICK_LINE
 62
     7
100
AcDbBlockReference
  2
SW_NOTE_11
 10
767.6277233213
 20
1457.4193896983
 30
0.0
  0
LEADER
  5
42A
330
1F
100
AcDbEntity
  8
THICK_LINE
 62
     7
100
AcDbLeader
  3
SLDDIMSTYLE2
 76
     2
 10
880.4937915193
 20
1175.6295950936
 30
0.0
 10
767.6277233213
 20
1457.4193896983
 30
0.0
  0
ENDSEC
  0
SECTION
  2
OBJECTS
  0
DICTIONARY
  5
C
330
0
100
AcDbDictionary
281
     1
  3
ACAD_DETAILVIEWSTYLE
350
433
  3
ACAD_GROUP
350
D
  3
ACAD_LAYOUT
350
1A
  3
ACAD_MATERIAL
350
43
  3
ACAD_MLEADERSTYLE
350
6B
  3
ACAD_MLINESTYLE
350
17
  3
ACAD_PLOTSETTINGS
350
19
  3
ACAD_PLOTSTYLENAME
350
E
  3
ACAD_SCALELIST
350
47
  3
ACAD_SECTIONVIEWSTYLE
350
434
  3
ACAD_TABLESTYLE
350
69
  3
ACAD_VISUALSTYLE
350
2A
  3
ACDB_RECOMPOSE_DATA
350
430
  3
AcDbVariableDictionary
350
42B
  0
SUN
  5
6D
330
29
100
AcDbSun
 90
        1
290
     0
 63
     7
421
 16777215
 40
1.0
291
     1
 91
  2455826
 92
 54000000
292
     0
 70
     2
 71
   256
280
     1
  0
DICTIONARY
  5
433
102
{ACAD_REACTORS
330
C
102
}
330
C
100
AcDbDictionary
281
     1
  0
DICTIONARY
  5
D
102
{ACAD_REACTORS
330
C
102
}
330
C
100
AcDbDictionary
281
     1
  0
DICTIONARY
  5
1A
102
{ACAD_REACTORS
330
C
102
}
330
C
100
AcDbDictionary
281
     1
  3
Layout1
350
1E
  3
Layout2
350
26
  3
Model
350
22
  0
DICTIONARY
  5
43
102
{ACAD_REACTORS
330
C
102
}
330
C
100
AcDbDictionary
281
     1
  3
ByBlock
350
45
  3
ByLayer
350
44
  3
Global
350
46
  0
DICTIONARY
  5
6B
102
{ACAD_REACTORS
330
C
102
}
330
C
100
AcDbDictionary
281
     1
  3
Standard
350
6C
  0
DICTIONARY
  5
17
102
{ACAD_REACTORS
330
C
102
}
330
C
100
AcDbDictionary
281
     1
  3
Standard
350
18
  0
DICTIONARY
  5
19
102
{ACAD_REACTORS
330
C
102
}
330
C
100
AcDbDictionary
281
     1
  0
ACDBDICTIONARYWDFLT
  5
E
102
{ACAD_REACTORS
330
C
102
}
330
C
100
AcDbDictionary
281
     1
  3
Normal
350
F
100
AcDbDictionaryWithDefault
340
F
  0
DICTIONARY
  5
47
102
{ACAD_REACTORS
330
C
102
}
330
C
100
AcDbDictionary
281
     1
  3
A0
350
48
  3
A1
350
49
  3
A2
350
4A
  3
A3
350
4B
  3
A4
350
4C
  3
A5
350
4D
  3
A6
350
4E
  3
A7
350
4F
  3
A8
350
50
  3
A9
350
51
  3
B0
350
52
  3
B1
350
53
  3
B2
350
54
  3
B3
350
55
  3
B4
350
56
  3
B5
350
57
  3
B6
350
58
  3
B7
350
59
  3
B8
350
5A
  3
B9
350
5B
  3
C0
350
5C
  3
C1
350
5D
  3
C2
350
5E
  3
C3
350
5F
  3
C4
350
60
  3
C5
350
61
  3
C6
350
62
  3
C7
350
63
  3
C8
350
64
  3
C9
350
65
  3
D0
350
66
  3
D1
350
67
  3
D2
350
68
  0
DICTIONARY
  5
434
102
{ACAD_REACTORS
330
C
102
}
330
C
100
AcDbDictionary
281
     1
  0
DICTIONARY
  5
69
102
{ACAD_REACTORS
330
C
102
}
330
C
100
AcDbDictionary
281
     1
  3
Standard
350
6A
  0
DICTIONARY
  5
2A
102
{ACAD_REACTORS
330
C
102
}
330
C
100
AcDbDictionary
281
     1
  3
2dWireframe
350
2F
  3
Basic
350
32
  3
Brighten
350
36
  3
ColorChange
350
3A
  3
Conceptual
350
34
  3
Dim
350
35
  3
EdgeColorOff
350
3D
  3
Facepattern
350
39
  3
Flat
350
2B
  3
FlatWithEdges
350
2C
  3
Gouraud
350
2D
  3
GouraudWithEdges
350
2E
  3
Hidden
350
31
  3
JitterOff
350
3B
  3
Linepattern
350
38
  3
OverhangOff
350
3C
  3
Realistic
350
33
  3
Shaded
350
42
  3
Shaded with edges
350
41
  3
Shades of Gray
350
3E
  3
Sketchy
350
3F
  3
Thicken
350
37
  3
Wireframe
350
30
  3
X-Ray
350
40
  0
XRECORD
  5
430
102
{ACAD_REACTORS
330
C
102
}
330
C
100
AcDbXrecord
280
     1
 90
        1
330
6A
  0
DICTIONARY
  5
42B
102
{ACAD_REACTORS
330
C
102
}
330
C
100
AcDbDictionary
281
     1
  3
CANNOSCALE
350
42C
  3
CMLEADERSTYLE
350
432
  3
CTABLESTYLE
350
431
  0
LAYOUT
  5
1E
102
{ACAD_REACTORS
330
1A
102
}
330
1A
100
AcDbPlotSettings
  1

  2
none_device
  4

  6

 40
0.0
 41
0.0
 42
0.0
 43
0.0
 44
0.0
 45
0.0
 46
0.0
 47
0.0
 48
0.0
 49
0.0
140
0.0
141
0.0
142
1.0
143
1.0
 70
   688
 72
     1
 73
     0
 74
     5
  7

 75
    16
 76
     0
 77
     2
 78
   300
147
1.0
148
0.0
149
0.0
100
AcDbLayout
  1
Layout1
 70
     1
 71
     1
 10
0.0
 20
0.0
 11
420.0
 21
297.0
 12
0.0
 22
0.0
 32
0.0
 14
1.0000000000E+20
 24
1.0000000000E+20
 34
1.0000000000E+20
 15
-1.0000000000E+20
 25
-1.0000000000E+20
 35
-1.0000000000E+20
146
0.0
 13
0.0
 23
0.0
 33
0.0
 16
1.0
 26
0.0
 36
0.0
 17
0.0
 27
1.0
 37
0.0
 76
     0
330
1B
  0
LAYOUT
  5
26
102
{ACAD_REACTORS
330
1A
102
}
330
1A
100
AcDbPlotSettings
  1

  2
none_device
  4

  6

 40
0.0
 41
0.0
 42
0.0
 43
0.0
 44
0.0
 45
0.0
 46
0.0
 47
0.0
 48
0.0
 49
0.0
140
0.0
141
0.0
142
1.0
143
1.0
 70
   688
 72
     1
 73
     0
 74
     5
  7

 75
    16
 76
     0
 77
     2
 78
   300
147
1.0
148
0.0
149
0.0
100
AcDbLayout
  1
Layout2
 70
     1
 71
     2
 10
0.0
 20
0.0
 11
0.0
 21
0.0
 12
0.0
 22
0.0
 32
0.0
 14
0.0
 24
0.0
 34
0.0
 15
0.0
 25
0.0
 35
0.0
146
0.0
 13
0.0
 23
0.0
 33
0.0
 16
1.0
 26
0.0
 36
0.0
 17
0.0
 27
1.0
 37
0.0
 76
     0
330
23
  0
LAYOUT
  5
22
102
{ACAD_REACTORS
330
1A
102
}
330
1A
100
AcDbPlotSettings
  1

  2
none_device
  4
Letter_(8.50_x_11.00_Inches)
  6

 40
6.35
 41
6.35
 42
6.35000508
 43
6.35000508
 44
215.9
 45
279.4
 46
0.0
 47
0.0
 48
0.0
 49
0.0
140
0.0
141
0.0
142
1.0
143
1.0
 70
  1712
 72
     1
 73
     0
 74
     0
  7

 75
     0
 76
     0
 77
     2
 78
   300
147
1.0
148
0.0
149
0.0
100
AcDbLayout
  1
Model
 70
     1
 71
     0
 10
0.0
 20
0.0
 11
1680.0
 21
2376.0
 12
0.0
 22
0.0
 32
0.0
 14
0.0
 24
0.0
 34
0.0
 15
1680.0
 25
2376.0
 35
0.0
146
0.0
 13
0.0
 23
0.0
 33
0.0
 16
1.0
 26
0.0
 36
0.0
 17
0.0
 27
1.0
 37
0.0
 76
     0
330
1F
331
29
  0
MATERIAL
  5
45
102
{ACAD_REACTORS
330
43
102
}
330
43
100
AcDbMaterial
  1
ByBlock
 72
     1
 94
      127
  0
MATERIAL
  5
44
102
{ACAD_REACTORS
330
43
102
}
330
43
100
AcDbMaterial
  1
ByLayer
 72
     1
 94
      127
  0
MATERIAL
  5
46
102
{ACAD_REACTORS
330
43
102
}
330
43
100
AcDbMaterial
  1
Global
 72
     1
 94
      127
  0
MLEADERSTYLE
  5
6C
102
{ACAD_REACTORS
330
6B
102
}
330
6B
100
AcDbMLeaderStyle
170
     2
171
     1
172
     0
 90
        2
 40
0.0
 41
0.0
173
     1
 91
-1056964608
340
14
 92
       -2
290
     1
 42
2.0
291
     1
 43
8.0
  3
Standard
341
0
 44
4.0
300

342
11
174
     1
178
     6
175
     1
176
     0
 93
-1056964608
 45
4.0
292
     0
297
     0
 46
4.0
343
0
 94
-1056964608
 47
1.0
 49
1.0
140
1.0
293
     1
141
0.0
294
     1
177
     0
142
1.0
295
     0
296
     0
143
3.75
1001
ACAD_MLEADERVER
1070
     2
  0
MLINESTYLE
  5
18
102
{ACAD_REACTORS
330
17
102
}
330
17
100
AcDbMlineStyle
  2
Standard
 70
     0
  3

 62
   256
 51
90.0
 52
90.0
 71
     2
 49
0.5
 62
   256
  6
BYLAYER
 49
-0.5
 62
   256
  6
BYLAYER
  0
ACDBPLACEHOLDER
  5
F
102
{ACAD_REACTORS
330
E
102
}
330
E
  0
SCALE
  5
48
102
{ACAD_REACTORS
330
47
102
}
330
47
100
AcDbScale
 70
     0
300
1:1
140
1.0
141
1.0
290
     1
  0
SCALE
  5
49
102
{ACAD_REACTORS
330
47
102
}
330
47
100
AcDbScale
 70
     0
300
1:2
140
1.0
141
2.0
290
     0
  0
SCALE
  5
4A
102
{ACAD_REACTORS
330
47
102
}
330
47
100
AcDbScale
 70
     0
300
1:4
140
1.0
141
4.0
290
     0
  0
SCALE
  5
4B
102
{ACAD_REACTORS
330
47
102
}
330
47
100
AcDbScale
 70
     0
300
1:5
140
1.0
141
5.0
290
     0
  0
SCALE
  5
4C
102
{ACAD_REACTORS
330
47
102
}
330
47
100
AcDbScale
 70
     0
300
1:8
140
1.0
141
8.0
290
     0
  0
SCALE
  5
4D
102
{ACAD_REACTORS
330
47
102
}
330
47
100
AcDbScale
 70
     0
300
1:10
140
1.0
141
10.0
290
     0
  0
SCALE
  5
4E
102
{ACAD_REACTORS
330
47
102
}
330
47
100
AcDbScale
 70
     0
300
1:16
140
1.0
141
16.0
290
     0
  0
SCALE
  5
4F
102
{ACAD_REACTORS
330
47
102
}
330
47
100
AcDbScale
 70
     0
300
1:20
140
1.0
141
20.0
290
     0
  0
SCALE
  5
50
102
{ACAD_REACTORS
330
47
102
}
330
47
100
AcDbScale
 70
     0
300
1:30
140
1.0
141
30.0
290
     0
  0
SCALE
  5
51
102
{ACAD_REACTORS
330
47
102
}
330
47
100
AcDbScale
 70
     0
300
1:40
140
1.0
141
40.0
290
     0
  0
SCALE
  5
52
102
{ACAD_REACTORS
330
47
102
}
330
47
100
AcDbScale
 70
     0
300
1:50
140
1.0
141
50.0
290
     0
  0
SCALE
  5
53
102
{ACAD_REACTORS
330
47
102
}
330
47
100
AcDbScale
 70
     0
300
1:100
140
1.0
141
100.0
290
     0
  0
SCALE
  5
54
102
{ACAD_REACTORS
330
47
102
}
330
47
100
AcDbScale
 70
     0
300
2:1
140
2.0
141
1.0
290
     0
  0
SCALE
  5
55
102
{ACAD_REACTORS
330
47
102
}
330
47
100
AcDbScale
 70
     0
300
4:1
140
4.0
141
1.0
290
     0
  0
SCALE
  5
56
102
{ACAD_REACTORS
330
47
102
}
330
47
100
AcDbScale
 70
     0
300
8:1
140
8.0
141
1.0
290
     0
  0
SCALE
  5
57
102
{ACAD_REACTORS
330
47
102
}
330
47
100
AcDbScale
 70
     0
300
10:1
140
10.0
141
1.0
290
     0
  0
SCALE
  5
58
102
{ACAD_REACTORS
330
47
102
}
330
47
100
AcDbScale
 70
     0
300
100:1
140
100.0
141
1.0
290
     0
  0
SCALE
  5
59
102
{ACAD_REACTORS
330
47
102
}
330
47
100
AcDbScale
 70
     0
300
1/128" = 1'-0"
140
0.0078125
141
12.0
290
     0
  0
SCALE
  5
5A
102
{ACAD_REACTORS
330
47
102
}
330
47
100
AcDbScale
 70
     0
300
1/64" = 1'-0"
140
0.015625
141
12.0
290
     0
  0
SCALE
  5
5B
102
{ACAD_REACTORS
330
47
102
}
330
47
100
AcDbScale
 70
     0
300
1/32" = 1'-0"
140
0.03125
141
12.0
290
     0
  0
SCALE
  5
5C
102
{ACAD_REACTORS
330
47
102
}
330
47
100
AcDbScale
 70
     0
300
1/16" = 1'-0"
140
0.0625
141
12.0
290
     0
  0
SCALE
  5
5D
102
{ACAD_REACTORS
330
47
102
}
330
47
100
AcDbScale
 70
     0
300
3/32" = 1'-0"
140
0.09375
141
12.0
290
     0
  0
SCALE
  5
5E
102
{ACAD_REACTORS
330
47
102
}
330
47
100
AcDbScale
 70
     0
300
1/8" = 1'-0"
140
0.125
141
12.0
290
     0
  0
SCALE
  5
5F
102
{ACAD_REACTORS
330
47
102
}
330
47
100
AcDbScale
 70
     0
300
3/16" = 1'-0"
140
0.1875
141
12.0
290
     0
  0
SCALE
  5
60
102
{ACAD_REACTORS
330
47
102
}
330
47
100
AcDbScale
 70
     0
300
1/4" = 1'-0"
140
0.25
141
12.0
290
     0
  0
SCALE
  5
61
102
{ACAD_REACTORS
330
47
102
}
330
47
100
AcDbScale
 70
     0
300
3/8" = 1'-0"
140
0.375
141
12.0
290
     0
  0
SCALE
  5
62
102
{ACAD_REACTORS
330
47
102
}
330
47
100
AcDbScale
 70
     0
300
1/2" = 1'-0"
140
0.5
141
12.0
290
     0
  0
SCALE
  5
63
102
{ACAD_REACTORS
330
47
102
}
330
47
100
AcDbScale
 70
     0
300
3/4" = 1'-0"
140
0.75
141
12.0
290
     0
  0
SCALE
  5
64
102
{ACAD_REACTORS
330
47
102
}
330
47
100
AcDbScale
 70
     0
300
1" = 1'-0"
140
1.0
141
12.0
290
     0
  0
SCALE
  5
65
102
{ACAD_REACTORS
330
47
102
}
330
47
100
AcDbScale
 70
     0
300
1-1/2" = 1'-0"
140
1.5
141
12.0
290
     0
  0
SCALE
  5
66
102
{ACAD_REACTORS
330
47
102
}
330
47
100
AcDbScale
 70
     0
300
3" = 1'-0"
140
3.0
141
12.0
290
     0
  0
SCALE
  5
67
102
{ACAD_REACTORS
330
47
102
}
330
47
100
AcDbScale
 70
     0
300
6" = 1'-0"
140
6.0
141
12.0
290
     0
  0
SCALE
  5
68
102
{ACAD_REACTORS
330
47
102
}
330
47
100
AcDbScale
 70
     0
300
1'-0" = 1'-0"
140
12.0
141
12.0
290
     0
  0
TABLESTYLE
  5
6A
102
{ACAD_REACTORS
330
69
102
}
102
{ACAD_XDICTIONARY
360
42D
102
}
330
69
100
AcDbTableStyle
  3
Standard
 70
     0
 71
     0
 40
0.06
 41
0.06
280
     0
281
     0
  7
STANDARD
140
4.5
170
     2
 62
     0
 63
   257
283
     0
 90
        4
 91
        0
  1

274
    -2
284
     1
 64
     0
275
    -2
285
     1
 65
     0
276
    -2
286
     1
 66
     0
277
    -2
287
     1
 67
     0
278
    -2
288
     1
 68
     0
279
    -2
289
     1
 69
     0
  7
STANDARD
140
6.0
170
     5
 62
     0
 63
   257
283
     0
 90
        4
 91
        0
  1

274
    -2
284
     1
 64
     0
275
    -2
285
     1
 65
     0
276
    -2
286
     1
 66
     0
277
    -2
287
     1
 67
     0
278
    -2
288
     1
 68
     0
279
    -2
289
     1
 69
     0
  7
STANDARD
140
4.5
170
     5
 62
     0
 63
   257
283
     0
 90
        4
 91
        0
  1

274
    -2
284
     1
 64
     0
275
    -2
285
     1
 65
     0
276
    -2
286
     1
 66
     0
277
    -2
287
     1
 67
     0
278
    -2
288
     1
 68
     0
279
    -2
289
     1
 69
     0
  0
VISUALSTYLE
  5
2F
102
{ACAD_REACTORS
330
2A
102
}
330
2A
100
AcDbVisualStyle
  2
2dWireframe
 70
     4
 71
     0
 72
     2
 73
     0
 90
        0
 40
0.6
 41
30.0
 62
     5
 63
     7
421
 16777215
 74
     1
 91
        4
 64
     7
 65
   257
 75
     1
175
     1
 42
1.0
 92
        0
 66
   257
 43
1.0
 76
     1
 77
     6
 78
     2
 67
     7
 79
     5
170
     0
171
     0
290
     0
174
     0
 93
        1
 44
0.0
173
     0
291
     0
 45
0.0
  0
VISUALSTYLE
  5
32
102
{ACAD_REACTORS
330
2A
102
}
330
2A
100
AcDbVisualStyle
  2
Basic
 70
     7
 71
     1
 72
     0
 73
     1
 90
        0
 40
0.6
 41
30.0
 62
     5
 63
     7
421
 16777215
 74
     0
 91
        4
 64
     7
 65
   257
 75
     1
175
     1
 42
1.0
 92
        8
 66
     7
 43
1.0
 76
     1
 77
     6
 78
     2
 67
     7
 79
     5
170
     0
171
     0
290
     0
174
     0
 93
        1
 44
0.0
173
     0
291
     1
 45
0.0
  0
VISUALSTYLE
  5
36
102
{ACAD_REACTORS
330
2A
102
}
330
2A
100
AcDbVisualStyle
  2
Brighten
 70
    12
 71
     2
 72
     2
 73
     0
 90
        0
 40
0.6
 41
30.0
 62
     5
 63
     7
421
 16777215
 74
     1
 91
        4
 64
     7
 65
   257
 75
     1
175
     1
 42
1.0
 92
        8
 66
     7
 43
1.0
 76
     1
 77
     6
 78
     2
 67
     7
 79
     5
170
     0
171
     0
290
     0
174
     0
 93
        1
 44
50.0
173
     0
291
     1
 45
0.0
  0
VISUALSTYLE
  5
3A
102
{ACAD_REACTORS
330
2A
102
}
330
2A
100
AcDbVisualStyle
  2
ColorChange
 70
    16
 71
     2
 72
     2
 73
     3
 90
        0
 40
0.6
 41
30.0
 62
     5
 63
     8
421
  8421504
 74
     1
 91
        4
 64
     7
 65
   257
 75
     1
175
     1
 42
1.0
 92
        8
 66
     8
424
  8421504
 43
1.0
 76
     1
 77
     6
 78
     2
 67
     7
 79
     5
170
     0
171
     0
290
     0
174
     0
 93
        1
 44
0.0
173
     0
291
     1
 45
0.0
  0
VISUALSTYLE
  5
34
102
{ACAD_REACTORS
330
2A
102
}
330
2A
100
AcDbVisualStyle
  2
Conceptual
 70
     9
 71
     3
 72
     2
 73
     0
 90
        0
 40
0.6
 41
30.0
 62
     5
 63
     7
421
 16777215
 74
     2
 91
        2
 64
     7
 65
   257
 75
     1
175
     1
 42
179.0
 92
        8
 66
     7
 43
1.0
 76
     1
 77
     6
 78
     2
 67
     7
 79
     3
170
     0
171
     0
290
     0
174
     0
 93
        1
 44
0.0
173
     0
291
     0
 45
0.0
  0
VISUALSTYLE
  5
35
102
{ACAD_REACTORS
330
2A
102
}
330
2A
100
AcDbVisualStyle
  2
Dim
 70
    11
 71
     2
 72
     2
 73
     0
 90
        0
 40
0.6
 41
30.0
 62
     5
 63
     7
421
 16777215
 74
     1
 91
        4
 64
     7
 65
   257
 75
     1
175
     1
 42
1.0
 92
        8
 66
     7
 43
1.0
 76
     1
 77
     6
 78
     2
 67
     7
 79
     5
170
     0
171
     0
290
     0
174
     0
 93
        1
 44
-50.0
173
     0
291
     1
 45
0.0
  0
VISUALSTYLE
  5
3D
102
{ACAD_REACTORS
330
2A
102
}
330
2A
100
AcDbVisualStyle
  2
EdgeColorOff
 70
    22
 71
     2
 72
     2
 73
     0
 90
        0
 40
0.6
 41
30.0
 62
     5
 63
     7
421
 16777215
 74
     1
 91
        4
 64
     7
 65
   257
 75
     1
175
     1
 42
1.0
 92
        8
 66
     7
 43
1.0
 76
     1
 77
     6
 78
     2
 67
     7
 79
     5
170
     0
171
     0
290
     0
174
     0
 93
        1
 44
0.0
173
     0
291
     1
 45
0.0
  0
VISUALSTYLE
  5
39
102
{ACAD_REACTORS
330
2A
102
}
330
2A
100
AcDbVisualStyle
  2
Facepattern
 70
    15
 71
     2
 72
     2
 73
     0
 90
        0
 40
0.6
 41
30.0
 62
     5
 63
     7
421
 16777215
 74
     1
 91
        4
 64
     7
 65
   257
 75
     1
175
     1
 42
1.0
 92
        8
 66
     7
 43
1.0
 76
     1
 77
     6
 78
     2
 67
     7
 79
     5
170
     0
171
     0
290
     0
174
     0
 93
        1
 44
0.0
173
     0
291
     1
 45
0.0
  0
VISUALSTYLE
  5
2B
102
{ACAD_REACTORS
330
2A
102
}
330
2A
100
AcDbVisualStyle
  2
Flat
 70
     0
 71
     2
 72
     1
 73
     1
 90
        2
 40
0.6
 41
30.0
 62
     5
 63
     7
421
 16777215
 74
     0
 91
        0
 64
     7
 65
   257
 75
     1
175
     1
 42
1.0
 92
        8
 66
     7
 43
1.0
 76
     1
 77
     6
 78
     2
 67
     7
 79
     5
170
     0
171
     0
290
     0
174
     0
 93
       13
 44
0.0
173
     0
291
     1
 45
0.0
  0
VISUALSTYLE
  5
2C
102
{ACAD_REACTORS
330
2A
102
}
330
2A
100
AcDbVisualStyle
  2
FlatWithEdges
 70
     1
 71
     2
 72
     1
 73
     1
 90
        2
 40
0.6
 41
30.0
 62
     5
 63
     7
421
 16777215
 74
     1
 91
        0
 64
     7
 65
   257
 75
     1
175
     1
 42
1.0
 92
        0
 66
   257
 43
1.0
 76
     1
 77
     6
 78
     2
 67
     7
 79
     5
170
     0
171
     0
290
     0
174
     0
 93
       13
 44
0.0
173
     0
291
     1
 45
0.0
  0
VISUALSTYLE
  5
2D
102
{ACAD_REACTORS
330
2A
102
}
330
2A
100
AcDbVisualStyle
  2
Gouraud
 70
     2
 71
     2
 72
     2
 73
     1
 90
        2
 40
0.6
 41
30.0
 62
     5
 63
     7
421
 16777215
 74
     0
 91
        0
 64
     7
 65
   257
 75
     1
175
     1
 42
1.0
 92
        0
 66
     7
 43
1.0
 76
     1
 77
     6
 78
     2
 67
     7
 79
     5
170
     0
171
     0
290
     0
174
     0
 93
       13
 44
0.0
173
     0
291
     1
 45
0.0
  0
VISUALSTYLE
  5
2E
102
{ACAD_REACTORS
330
2A
102
}
330
2A
100
AcDbVisualStyle
  2
GouraudWithEdges
 70
     3
 71
     2
 72
     2
 73
     1
 90
        2
 40
0.6
 41
30.0
 62
     5
 63
     7
421
 16777215
 74
     1
 91
        0
 64
     7
 65
   257
 75
     1
175
     1
 42
1.0
 92
        0
 66
   257
 43
1.0
 76
     1
 77
     6
 78
     2
 67
     7
 79
     5
170
     0
171
     0
290
     0
174
     0
 93
       13
 44
0.0
173
     0
291
     1
 45
0.0
  0
VISUALSTYLE
  5
31
102
{ACAD_REACTORS
330
2A
102
}
330
2A
100
AcDbVisualStyle
  2
Hidden
 70
     6
 71
     1
 72
     2
 73
     2
 90
        0
 40
0.6
 41
30.0
 62
     5
 63
     7
421
 16777215
 74
     2
 91
        2
 64
     7
 65
   257
 75
     2
175
     1
 42
40.0
 92
        0
 66
   257
 43
1.0
 76
     1
 77
     6
 78
     2
 67
     7
 79
     3
170
     0
171
     0
290
     0
174
     0
 93
        1
 44
0.0
173
     0
291
     0
 45
0.0
  0
VISUALSTYLE
  5
3B
102
{ACAD_REACTORS
330
2A
102
}
330
2A
100
AcDbVisualStyle
  2
JitterOff
 70
    20
 71
     2
 72
     2
 73
     0
 90
        0
 40
0.6
 41
30.0
 62
     5
 63
     7
421
 16777215
 74
     1
 91
        4
 64
     7
 65
   257
 75
     1
175
     1
 42
1.0
 92
       10
 66
     7
 43
1.0
 76
     1
 77
     6
 78
     2
 67
     7
 79
     5
170
     0
171
     0
290
     0
174
     0
 93
        1
 44
0.0
173
     0
291
     1
 45
0.0
  0
VISUALSTYLE
  5
38
102
{ACAD_REACTORS
330
2A
102
}
330
2A
100
AcDbVisualStyle
  2
Linepattern
 70
    14
 71
     2
 72
     2
 73
     0
 90
        0
 40
0.6
 41
30.0
 62
     5
 63
     7
421
 16777215
 74
     1
 91
        4
 64
     7
 65
   257
 75
     7
175
     7
 42
1.0
 92
        8
 66
     7
 43
1.0
 76
     1
 77
     6
 78
     2
 67
     7
 79
     5
170
     0
171
     0
290
     0
174
     0
 93
        1
 44
0.0
173
     0
291
     1
 45
0.0
  0
VISUALSTYLE
  5
3C
102
{ACAD_REACTORS
330
2A
102
}
330
2A
100
AcDbVisualStyle
  2
OverhangOff
 70
    21
 71
     2
 72
     2
 73
     0
 90
        0
 40
0.6
 41
30.0
 62
     5
 63
     7
421
 16777215
 74
     1
 91
        4
 64
     7
 65
   257
 75
     1
175
     1
 42
1.0
 92
        9
 66
     7
 43
1.0
 76
     1
 77
     6
 78
     2
 67
     7
 79
     5
170
     0
171
     0
290
     0
174
     0
 93
        1
 44
0.0
173
     0
291
     1
 45
0.0
  0
VISUALSTYLE
  5
33
102
{ACAD_REACTORS
330
2A
102
}
330
2A
100
AcDbVisualStyle
  2
Realistic
 70
     8
 71
     2
 72
     3
 73
     0
 90
        2
 40
0.6
 41
30.0
 62
     5
 63
     7
421
 16777215
 74
     0
 91
        0
 64
     7
 65
   257
 75
     1
175
     1
 42
1.0
 92
        8
 66
   257
 43
1.0
 76
     1
 77
     6
 78
     2
 67
     7
 79
     3
170
     0
171
     0
290
     0
174
     0
 93
       13
 44
0.0
173
     0
291
     0
 45
0.0
  0
VISUALSTYLE
  5
42
102
{ACAD_REACTORS
330
2A
102
}
330
2A
100
AcDbVisualStyle
  2
Shaded
 70
    27
 71
     2
 72
     2
 73
     1
 90
        2
 40
0.6
 41
30.0
 62
     5
 63
     7
421
 16777215
 74
     0
 91
        4
 64
     7
 65
   257
 75
     1
175
     1
 42
1.0
 92
        8
 66
   257
 43
1.0
 76
     1
 77
     6
 78
     2
 67
     8
425
  7895160
 79
     3
170
     0
171
     0
290
     0
174
     0
 93
        5
 44
0.0
173
     0
291
     0
 45
0.0
  0
VISUALSTYLE
  5
41
102
{ACAD_REACTORS
330
2A
102
}
330
2A
100
AcDbVisualStyle
  2
Shaded with edges
 70
    26
 71
     2
 72
     2
 73
     1
 90
        2
 40
0.6
 41
30.0
 62
     5
 63
     7
421
 16777215
 74
     1
 91
       10
 64
     7
 65
   257
 75
     2
175
     1
 42
1.0
 92
        8
 66
   257
 43
1.0
 76
     1
 77
     6
 78
     2
 67
     7
 79
     3
170
     0
171
     0
290
     0
174
     0
 93
        5
 44
0.0
173
     0
291
     0
 45
0.0
  0
VISUALSTYLE
  5
3E
102
{ACAD_REACTORS
330
2A
102
}
330
2A
100
AcDbVisualStyle
  2
Shades of Gray
 70
    23
 71
     2
 72
     2
 73
     3
 90
        0
 40
0.6
 41
30.0
 62
     5
 63
     7
421
 16777215
 74
     2
 91
        2
 64
     7
 65
     7
 75
     1
175
     1
 42
40.0
 92
        8
 66
     7
 43
1.0
 76
     1
 77
     6
 78
     2
 67
     7
 79
     3
170
     0
171
     0
290
     0
174
     0
 93
        1
 44
0.0
173
     0
291
     0
 45
0.0
  0
VISUALSTYLE
  5
3F
102
{ACAD_REACTORS
330
2A
102
}
330
2A
100
AcDbVisualStyle
  2
Sketchy
 70
    24
 71
     1
 72
     2
 73
     2
 90
        0
 40
0.6
 41
30.0
 62
     5
 63
     7
421
 16777215
 74
     2
 91
        2
 64
     7
 65
     7
 75
     1
175
     1
 42
40.0
 92
       11
 66
     7
 43
1.0
 76
     1
 77
     6
 78
     2
 67
     7
 79
     6
170
     0
171
     0
290
     0
174
     0
 93
        1
 44
0.0
173
     0
291
     0
 45
0.0
  0
VISUALSTYLE
  5
37
102
{ACAD_REACTORS
330
2A
102
}
330
2A
100
AcDbVisualStyle
  2
Thicken
 70
    13
 71
     2
 72
     2
 73
     0
 90
        0
 40
0.6
 41
30.0
 62
     5
 63
     7
421
 16777215
 74
     1
 91
        4
 64
     7
 65
   257
 75
     1
175
     1
 42
1.0
 92
       12
 66
     7
 43
1.0
 76
     1
 77
     6
 78
     2
 67
     7
 79
     5
170
     0
171
     0
290
     0
174
     0
 93
        1
 44
0.0
173
     0
291
     1
 45
0.0
  0
VISUALSTYLE
  5
30
102
{ACAD_REACTORS
330
2A
102
}
330
2A
100
AcDbVisualStyle
  2
Wireframe
 70
     5
 71
     0
 72
     2
 73
     0
 90
        0
 40
0.6
 41
30.0
 62
     5
 63
     7
421
 16777215
 74
     1
 91
        4
 64
     7
 65
   257
 75
     1
175
     1
 42
1.0
 92
        0
 66
   257
 43
1.0
 76
     1
 77
     6
 78
     2
 67
     7
 79
     3
170
     0
171
     0
290
     0
174
     0
 93
        1
 44
0.0
173
     0
291
     0
 45
0.0
  0
VISUALSTYLE
  5
40
102
{ACAD_REACTORS
330
2A
102
}
330
2A
100
AcDbVisualStyle
  2
X-Ray
 70
    25
 71
     2
 72
     2
 73
     1
 90
        1
 40
0.5
 41
30.0
 62
     5
 63
     7
421
 16777215
 74
     1
 91
        0
 64
     7
 65
   257
 75
     1
175
     1
 42
1.0
 92
        8
 66
     7
 43
1.0
 76
     1
 77
     6
 78
     2
 67
     7
 79
     3
170
     0
171
     0
290
     0
174
     0
 93
       13
 44
0.0
173
     0
291
     0
 45
0.0
  0
DICTIONARYVAR
  5
42C
102
{ACAD_REACTORS
330
42B
102
}
330
42B
100
DictionaryVariables
280
     0
  1
1:1
  0
DICTIONARYVAR
  5
432
102
{ACAD_REACTORS
330
42B
102
}
330
42B
100
DictionaryVariables
280
     0
  1
Standard
  0
DICTIONARYVAR
  5
431
102
{ACAD_REACTORS
330
42B
102
}
330
42B
100
DictionaryVariables
280
     0
  1
Standard
  0
DICTIONARY
  5
42D
330
6A
100
AcDbDictionary
280
     1
281
     1
  3
ACAD_ROUNDTRIP_2008_TABLESTYLE_CELLSTYLEMAP
360
42E
  0
CELLSTYLEMAP
  5
42E
102
{ACAD_REACTORS
330
42D
102
}
330
42D
100
AcDbCellStyleMap
 90
        3
300
CELLSTYLE
  1
TABLEFORMAT_BEGIN
 90
        5
170
     1
 91
        0
 92
    32768
 62
   257
 93
        1
300
CONTENTFORMAT
  1
CONTENTFORMAT_BEGIN
 90
        0
 91
        0
 92
        4
 93
        0
300

 40
0.0
140
1.0
 94
        5
 62
     0
340
11
144
6.0
309
CONTENTFORMAT_END
171
     1
301
MARGIN
  1
CELLMARGIN_BEGIN
 40
1.5
 40
1.5
 40
1.5
 40
1.5
 40
1.5
 40
1.5
309
CELLMARGIN_END
 94
        6
 95
        1
302
GRIDFORMAT
  1
GRIDFORMAT_BEGIN
 90
        0
 91
        1
 62
     0
 92
       -2
340
14
 93
        0
 40
0.045
309
GRIDFORMAT_END
 95
        2
302
GRIDFORMAT
  1
GRIDFORMAT_BEGIN
 90
        0
 91
        1
 62
     0
 92
       -2
340
14
 93
        0
 40
0.045
309
GRIDFORMAT_END
 95
        4
302
GRIDFORMAT
  1
GRIDFORMAT_BEGIN
 90
        0
 91
        1
 62
     0
 92
       -2
340
14
 93
        0
 40
0.045
309
GRIDFORMAT_END
 95
        8
302
GRIDFORMAT
  1
GRIDFORMAT_BEGIN
 90
        0
 91
        1
 62
     0
 92
       -2
340
14
 93
        0
 40
0.045
309
GRIDFORMAT_END
 95
       16
302
GRIDFORMAT
  1
GRIDFORMAT_BEGIN
 90
        0
 91
        1
 62
     0
 92
       -2
340
14
 93
        0
 40
0.045
309
GRIDFORMAT_END
 95
       32
302
GRIDFORMAT
  1
GRIDFORMAT_BEGIN
 90
        0
 91
        1
 62
     0
 92
       -2
340
14
 93
        0
 40
0.045
309
GRIDFORMAT_END
309
TABLEFORMAT_END
  1
CELLSTYLE_BEGIN
 90
        1
 91
        1
300
_TITLE
309
CELLSTYLE_END
300
CELLSTYLE
  1
TABLEFORMAT_BEGIN
 90
        5
170
     1
 91
        0
 92
        0
 62
   257
 93
        1
300
CONTENTFORMAT
  1
CONTENTFORMAT_BEGIN
 90
        0
 91
        0
 92
        4
 93
        0
300

 40
0.0
140
1.0
 94
        5
 62
     0
340
11
144
4.5
309
CONTENTFORMAT_END
171
     1
301
MARGIN
  1
CELLMARGIN_BEGIN
 40
1.5
 40
1.5
 40
1.5
 40
1.5
 40
1.5
 40
1.5
309
CELLMARGIN_END
 94
        6
 95
        1
302
GRIDFORMAT
  1
GRIDFORMAT_BEGIN
 90
        0
 91
        1
 62
     0
 92
       -2
340
14
 93
        0
 40
0.045
309
GRIDFORMAT_END
 95
        2
302
GRIDFORMAT
  1
GRIDFORMAT_BEGIN
 90
        0
 91
        1
 62
     0
 92
       -2
340
14
 93
        0
 40
0.045
309
GRIDFORMAT_END
 95
        4
302
GRIDFORMAT
  1
GRIDFORMAT_BEGIN
 90
        0
 91
        1
 62
     0
 92
       -2
340
14
 93
        0
 40
0.045
309
GRIDFORMAT_END
 95
        8
302
GRIDFORMAT
  1
GRIDFORMAT_BEGIN
 90
        0
 91
        1
 62
     0
 92
       -2
340
14
 93
        0
 40
0.045
309
GRIDFORMAT_END
 95
       16
302
GRIDFORMAT
  1
GRIDFORMAT_BEGIN
 90
        0
 91
        1
 62
     0
 92
       -2
340
14
 93
        0
 40
0.045
309
GRIDFORMAT_END
 95
       32
302
GRIDFORMAT
  1
GRIDFORMAT_BEGIN
 90
        0
 91
        1
 62
     0
 92
       -2
340
14
 93
        0
 40
0.045
309
GRIDFORMAT_END
309
TABLEFORMAT_END
  1
CELLSTYLE_BEGIN
 90
        2
 91
        1
300
_HEADER
309
CELLSTYLE_END
300
CELLSTYLE
  1
TABLEFORMAT_BEGIN
 90
        5
170
     1
 91
        0
 92
        0
 62
   257
 93
        1
300
CONTENTFORMAT
  1
CONTENTFORMAT_BEGIN
 90
        0
 91
        0
 92
        4
 93
        0
300

 40
0.0
140
1.0
 94
        2
 62
     0
340
11
144
4.5
309
CONTENTFORMAT_END
171
     1
301
MARGIN
  1
CELLMARGIN_BEGIN
 40
1.5
 40
1.5
 40
1.5
 40
1.5
 40
1.5
 40
1.5
309
CELLMARGIN_END
 94
        6
 95
        1
302
GRIDFORMAT
  1
GRIDFORMAT_BEGIN
 90
        0
 91
        1
 62
     0
 92
       -2
340
14
 93
        0
 40
0.045
309
GRIDFORMAT_END
 95
        2
302
GRIDFORMAT
  1
GRIDFORMAT_BEGIN
 90
        0
 91
        1
 62
     0
 92
       -2
340
14
 93
        0
 40
0.045
309
GRIDFORMAT_END
 95
        4
302
GRIDFORMAT
  1
GRIDFORMAT_BEGIN
 90
        0
 91
        1
 62
     0
 92
       -2
340
14
 93
        0
 40
0.045
309
GRIDFORMAT_END
 95
        8
302
GRIDFORMAT
  1
GRIDFORMAT_BEGIN
 90
        0
 91
        1
 62
     0
 92
       -2
340
14
 93
        0
 40
0.045
309
GRIDFORMAT_END
 95
       16
302
GRIDFORMAT
  1
GRIDFORMAT_BEGIN
 90
        0
 91
        1
 62
     0
 92
       -2
340
14
 93
        0
 40
0.045
309
GRIDFORMAT_END
 95
       32
302
GRIDFORMAT
  1
GRIDFORMAT_BEGIN
 90
        0
 91
        1
 62
     0
 92
       -2
340
14
 93
        0
 40
0.045
309
GRIDFORMAT_END
309
TABLEFORMAT_END
  1
CELLSTYLE_BEGIN
 90
        3
 91
        2
300
_DATA
309
CELLSTYLE_END
  0
ENDSEC
  0
EOF
