  0
SECTION
  2
HEADER
  9
$ACADVER
  1
AC1021
  9
$ACADMAINTVER
 70
    25
  9
$DWGCODEPAGE
  3
ANSI_1251
  9
$INSBASE
 10
0.0
 20
0.0
 30
0.0
  9
$EXTMIN
 10
0.0
 20
0.0
 30
0.0
  9
$EXTMAX
 10
1680.0
 20
2376.0
 30
0.0
  9
$LIMMIN
 10
0.0
 20
0.0
  9
$LIMMAX
 10
1680.0
 20
2376.0
  9
$ORTHOMODE
 70
     0
  9
$REGENMODE
 70
     1
  9
$FILLMODE
 70
     1
  9
$QTEXTMODE
 70
     0
  9
$MIRRTEXT
 70
     1
  9
$LTSCALE
 40
8.0
  9
$ATTMODE
 70
     1
  9
$TEXTSIZE
 40
28.0
  9
$TRACEWID
 40
1.0
  9
$TEXTSTYLE
  7
STANDARD
  9
$CLAYER
  8
0
  9
$CELTYPE
  6
ByLayer
  9
$CECOLOR
 62
   256
  9
$CELTSCALE
 40
1.0
  9
$DISPSILH
 70
     0
  9
$DIMSCALE
 40
1.0
  9
$DIMASZ
 40
28.0
  9
$DIMEXO
 40
0.08
  9
$DIMDLI
 40
3.75
  9
$DIMRND
 40
0.0
  9
$DIMDLE
 40
0.0
  9
$DIMEXE
 40
8.0
  9
$DIMTP
 40
0.0
  9
$DIMTM
 40
0.0
  9
$DIMTXT
 40
28.0
  9
$DIMCEN
 40
2.5
  9
$DIMTSZ
 40
0.0
  9
$DIMTOL
 70
     0
  9
$DIMLIM
 70
     0
  9
$DIMTIH
 70
     1
  9
$DIMTOH
 70
     1
  9
$DIMSE1
 70
     0
  9
$DIMSE2
 70
     0
  9
$DIMTAD
 70
     1
  9
$DIMZIN
 70
     0
  9
$DIMBLK
  1

  9
$DIMASO
 70
     1
  9
$DIMSHO
 70
     1
  9
$DIMPOST
  1

  9
$DIMAPOST
  1

  9
$DIMALT
 70
     0
  9
$DIMALTD
 70
     3
  9
$DIMALTF
 40
0.0393700787
  9
$DIMLFAC
 40
1.0
  9
$DIMTOFL
 70
     1
  9
$DIMTVP
 40
0.0
  9
$DIMTIX
 70
     0
  9
$DIMSOXD
 70
     0
  9
$DIMSAH
 70
     0
  9
$DIMBLK1
  1

  9
$DIMBLK2
  1

  9
$DIMSTYLE
  2
ISO-25
  9
$DIMCLRD
 70
     0
  9
$DIMCLRE
 70
     0
  9
$DIMCLRT
 70
     0
  9
$DIMTFAC
 40
1.0
  9
$DIMGAP
 40
24.0
  9
$DIMJUST
 70
     0
  9
$DIMSD1
 70
     0
  9
$DIMSD2
 70
     0
  9
$DIMTOLJ
 70
     0
  9
$DIMTZIN
 70
     0
  9
$DIMALTZ
 70
     0
  9
$DIMALTTZ
 70
     0
  9
$DIMUPT
 70
     0
  9
$DIMDEC
 70
     2
  9
$DIMTDEC
 70
     3
  9
$DIMALTU
 70
     2
  9
$DIMALTTD
 70
     3
  9
$DIMTXSTY
  7
STANDARD
  9
$DIMAUNIT
 70
     0
  9
$DIMADEC
 70
     2
  9
$DIMALTRND
 40
0.0
  9
$DIMAZIN
 70
     0
  9
$DIMDSEP
 70
    44
  9
$DIMATFIT
 70
     3
  9
$DIMFRAC
 70
     0
  9
$DIMLDRBLK
  1

  9
$DIMLUNIT
 70
     2
  9
$DIMLWD
 70
    -2
  9
$DIMLWE
 70
    -2
  9
$DIMTMOVE
 70
     0
  9
$DIMFXL
 40
1.0
  9
$DIMFXLON
 70
     0
  9
$DIMJOGANG
 40
0.7853981634
  9
$DIMTFILL
 70
     0
  9
$DIMTFILLCLR
 70
     0
  9
$DIMARCSYM
 70
     0
  9
$DIMLTYPE
  6

  9
$DIMLTEX1
  6

  9
$DIMLTEX2
  6

  9
$LUNITS
 70
     2
  9
$LUPREC
 70
     2
  9
$SKETCHINC
 40
1.0
  9
$FILLETRAD
 40
10.0
  9
$AUNITS
 70
     0
  9
$AUPREC
 70
     2
  9
$MENU
  1
.
  9
$ELEVATION
 40
0.0
  9
$PELEVATION
 40
0.0
  9
$THICKNESS
 40
0.0
  9
$LIMCHECK
 70
     0
  9
$CHAMFERA
 40
0.0
  9
$CHAMFERB
 40
0.0
  9
$CHAMFERC
 40
0.0
  9
$CHAMFERD
 40
0.0
  9
$SKPOLY
 70
     0
  9
$TDCREATE
 40
2457904.470815336
  9
$TDUCREATE
 40
2457904.345815336
  9
$TDUPDATE
 40
2457904.47081956
  9
$TDUUPDATE
 40
2457904.34581956
  9
$TDINDWG
 40
0.0000000116
  9
$TDUSRTIMER
 40
0.0000000116
  9
$USRTIMER
 70
     1
  9
$ANGBASE
 50
0.0
  9
$ANGDIR
 70
     0
  9
$PDMODE
 70
     0
  9
$PDSIZE
 40
-1.0
  9
$PLINEWID
 40
0.0
  9
$SPLFRAME
 70
     0
  9
$SPLINETYPE
 70
     6
  9
$SPLINESEGS
 70
     8
  9
$HANDSEED
  5
430
  9
$SURFTAB1
 70
     6
  9
$SURFTAB2
 70
     6
  9
$SURFTYPE
 70
     6
  9
$SURFU
 70
     6
  9
$SURFV
 70
     6
  9
$UCSBASE
  2

  9
$UCSNAME
  2

  9
$UCSORG
 10
0.0
 20
0.0
 30
0.0
  9
$UCSXDIR
 10
1.0
 20
0.0
 30
0.0
  9
$UCSYDIR
 10
0.0
 20
1.0
 30
0.0
  9
$UCSORTHOREF
  2

  9
$UCSORTHOVIEW
 70
     0
  9
$UCSORGTOP
 10
0.0
 20
0.0
 30
0.0
  9
$UCSORGBOTTOM
 10
0.0
 20
0.0
 30
0.0
  9
$UCSORGLEFT
 10
0.0
 20
0.0
 30
0.0
  9
$UCSORGRIGHT
 10
0.0
 20
0.0
 30
0.0
  9
$UCSORGFRONT
 10
0.0
 20
0.0
 30
0.0
  9
$UCSORGBACK
 10
0.0
 20
0.0
 30
0.0
  9
$PUCSBASE
  2

  9
$PUCSNAME
  2

  9
$PUCSORG
 10
0.0
 20
0.0
 30
0.0
  9
$PUCSXDIR
 10
1.0
 20
0.0
 30
0.0
  9
$PUCSYDIR
 10
0.0
 20
1.0
 30
0.0
  9
$PUCSORTHOREF
  2

  9
$PUCSORTHOVIEW
 70
     0
  9
$PUCSORGTOP
 10
0.0
 20
0.0
 30
0.0
  9
$PUCSORGBOTTOM
 10
0.0
 20
0.0
 30
0.0
  9
$PUCSORGLEFT
 10
0.0
 20
0.0
 30
0.0
  9
$PUCSORGRIGHT
 10
0.0
 20
0.0
 30
0.0
  9
$PUCSORGFRONT
 10
0.0
 20
0.0
 30
0.0
  9
$PUCSORGBACK
 10
0.0
 20
0.0
 30
0.0
  9
$USERI1
 70
     0
  9
$USERI2
 70
     0
  9
$USERI3
 70
     0
  9
$USERI4
 70
     0
  9
$USERI5
 70
     0
  9
$USERR1
 40
0.0
  9
$USERR2
 40
0.0
  9
$USERR3
 40
0.0
  9
$USERR4
 40
0.0
  9
$USERR5
 40
0.0
  9
$WORLDVIEW
 70
     1
  9
$SHADEDGE
 70
     3
  9
$SHADEDIF
 70
    70
  9
$TILEMODE
 70
     1
  9
$MAXACTVP
 70
    64
  9
$PINSBASE
 10
0.0
 20
0.0
 30
0.0
  9
$PLIMCHECK
 70
     0
  9
$PEXTMIN
 10
1.0000000000E+20
 20
1.0000000000E+20
 30
1.0000000000E+20
  9
$PEXTMAX
 10
-1.0000000000E+20
 20
-1.0000000000E+20
 30
-1.0000000000E+20
  9
$PLIMMIN
 10
0.0
 20
0.0
  9
$PLIMMAX
 10
420.0
 20
297.0
  9
$UNITMODE
 70
     0
  9
$VISRETAIN
 70
     1
  9
$PLINEGEN
 70
     0
  9
$PSLTSCALE
 70
     1
  9
$TREEDEPTH
 70
  3020
  9
$CMLSTYLE
  2
Standard
  9
$CMLJUST
 70
     0
  9
$CMLSCALE
 40
20.0
  9
$PROXYGRAPHICS
 70
     1
  9
$MEASUREMENT
 70
     1
  9
$CELWEIGHT
370
    -1
  9
$ENDCAPS
280
     0
  9
$JOINSTYLE
280
     0
  9
$LWDISPLAY
290
     1
  9
$INSUNITS
 70
     4
  9
$HYPERLINKBASE
  1

  9
$STYLESHEET
  1

  9
$XEDIT
290
     1
  9
$CEPSNTYPE
380
     0
  9
$PSTYLEMODE
290
     1
  9
$FINGERPRINTGUID
  2
{5AEED529-EF06-4C2D-840F-E1DE2B41DE84}
  9
$VERSIONGUID
  2
{FAEB1C32-E019-11D5-929B-00C0DF256EC4}
  9
$EXTNAMES
290
     1
  9
$PSVPSCALE
 40
0.0
  9
$OLESTARTUP
290
     0
  9
$SORTENTS
280
   127
  9
$INDEXCTL
280
     0
  9
$HIDETEXT
280
     1
  9
$XCLIPFRAME
290
     0
  9
$HALOGAP
280
     0
  9
$OBSCOLOR
 70
   257
  9
$OBSLTYPE
280
     0
  9
$INTERSECTIONDISPLAY
280
     0
  9
$INTERSECTIONCOLOR
 70
   257
  9
$DIMASSOC
280
     2
  9
$PROJECTNAME
  1

  9
$CAMERADISPLAY
290
     0
  9
$LENSLENGTH
 40
50.0
  9
$CAMERAHEIGHT
 40
0.0
  9
$STEPSPERSEC
 40
2.0
  9
$STEPSIZE
 40
6.0
  9
$3DDWFPREC
 40
2.0
  9
$PSOLWIDTH
 40
5.0
  9
$PSOLHEIGHT
 40
80.0
  9
$LOFTANG1
 40
1.5707963268
  9
$LOFTANG2
 40
1.5707963268
  9
$LOFTMAG1
 40
0.0
  9
$LOFTMAG2
 40
0.0
  9
$LOFTPARAM
 70
     7
  9
$LOFTNORMALS
280
     1
  9
$LATITUDE
 40
37.795
  9
$LONGITUDE
 40
-122.394
  9
$NORTHDIRECTION
 40
0.0
  9
$TIMEZONE
 70
 -8000
  9
$LIGHTGLYPHDISPLAY
280
     1
  9
$TILEMODELIGHTSYNCH
280
     1
  9
$CMATERIAL
347
44
  9
$SOLIDHIST
280
     0
  9
$SHOWHIST
280
     1
  9
$DWFFRAME
280
     2
  9
$DGNFRAME
280
     2
  9
$REALWORLDSCALE
290
     1
  9
$INTERFERECOLOR
 62
   256
  9
$CSHADOW
280
     0
  9
$SHADOWPLANELOCATION
 40
0.0
  0
ENDSEC
  0
SECTION
  2
CLASSES
  0
CLASS
  1
ACDBDICTIONARYWDFLT
  2
AcDbDictionaryWithDefault
  3
ObjectDBX Classes
 90
        0
 91
        4
280
     0
281
     0
  0
CLASS
  1
VISUALSTYLE
  2
AcDbVisualStyle
  3
ObjectDBX Classes
 90
     4095
 91
        4
280
     0
281
     0
  0
CLASS
  1
MATERIAL
  2
AcDbMaterial
  3
ObjectDBX Classes
 90
     1153
 91
        4
280
     0
281
     0
  0
CLASS
  1
SCALE
  2
AcDbScale
  3
ObjectDBX Classes
 90
     1153
 91
        4
280
     0
281
     0
  0
CLASS
  1
TABLESTYLE
  2
AcDbTableStyle
  3
ObjectDBX Classes
 90
     4095
 91
        4
280
     0
281
     0
  0
CLASS
  1
MLEADERSTYLE
  2
AcDbMLeaderStyle
  3
ACDB_MLEADERSTYLE_CLASS
 90
     4095
 91
        4
280
     0
281
     0
  0
CLASS
  1
SUN
  2
AcDbSun
  3
SCENEOE
 90
     1153
 91
        4
280
     0
281
     0
  0
CLASS
  1
DICTIONARYVAR
  2
AcDbDictionaryVar
  3
ObjectDBX Classes
 90
        0
 91
        4
280
     0
281
     0
  0
CLASS
  1
CELLSTYLEMAP
  2
AcDbCellStyleMap
  3
ObjectDBX Classes
 90
     1152
 91
        4
280
     0
281
     0
  0
ENDSEC
  0
SECTION
  2
TABLES
  0
TABLE
  2
VPORT
  5
8
330
0
100
AcDbSymbolTable
 70
     1
  0
VPORT
  5
29
330
8
100
AcDbSymbolTableRecord
100
AcDbViewportTableRecord
  2
*Active
 70
     0
 10
0.0
 20
0.0
 11
1.0
 21
1.0
 12
840.0
 22
1188.0
 13
0.0
 23
0.0
 14
10.0
 24
10.0
 15
10.0
 25
10.0
 16
0.0
 26
0.0
 36
1.0
 17
0.0
 27
0.0
 37
0.0
 40
2376.0
 41
0.7070707071
 42
50.0
 43
0.0
 44
0.0
 50
0.0
 51
0.0
 71
     0
 72
  2000
 73
     1
 74
     3
 75
     0
 76
     0
 77
     0
 78
     0
281
     0
 65
     1
110
0.0
120
0.0
130
0.0
111
1.0
121
0.0
131
0.0
112
0.0
122
1.0
132
0.0
 79
     0
146
0.0
348
2F
 60
     3
 61
     5
292
     1
282
     1
141
0.0
142
0.0
 63
   250
361
6D
  0
ENDTAB
  0
TABLE
  2
LTYPE
  5
5
330
0
100
AcDbSymbolTable
 70
     6
  0
LTYPE
  5
14
330
5
100
AcDbSymbolTableRecord
100
AcDbLinetypeTableRecord
  2
ByBlock
 70
     0
  3

 72
    65
 73
     0
 40
0.0
  0
LTYPE
  5
15
330
5
100
AcDbSymbolTableRecord
100
AcDbLinetypeTableRecord
  2
ByLayer
 70
     0
  3

 72
    65
 73
     0
 40
0.0
  0
LTYPE
  5
16
330
5
100
AcDbSymbolTableRecord
100
AcDbLinetypeTableRecord
  2
Continuous
 70
     0
  3
Solid line
 72
    65
 73
     0
 40
0.0
  0
LTYPE
  5
6E
330
5
100
AcDbSymbolTableRecord
100
AcDbLinetypeTableRecord
  2
HIDDEN
 70
     0
  3
Hidden __ __ __ __ __ __ __ __ __ __ __ __ __ __
 72
    65
 73
     2
 40
1.905
 49
1.27
 74
     0
 49
-0.635
 74
     0
  0
LTYPE
  5
6F
330
5
100
AcDbSymbolTableRecord
100
AcDbLinetypeTableRecord
  2
PHANTOM
 70
     0
  3
Phantom ______  __  __  ______  __  __  ______
 72
    65
 73
     6
 40
12.7
 49
6.35
 74
     0
 49
-1.27
 74
     0
 49
1.27
 74
     0
 49
-1.27
 74
     0
 49
1.27
 74
     0
 49
-1.27
 74
     0
  0
LTYPE
  5
70
330
5
100
AcDbSymbolTableRecord
100
AcDbLinetypeTableRecord
  2
CENTER
 70
     0
  3
Center ____ _ ____ _ ____ _ ____ _ ____ _ ____
 72
    65
 73
     4
 40
10.16
 49
6.35
 74
     0
 49
-1.27
 74
     0
 49
1.27
 74
     0
 49
-1.27
 74
     0
  0
LTYPE
  5
71
330
5
100
AcDbSymbolTableRecord
100
AcDbLinetypeTableRecord
  2
CENTERX2
 70
     0
  3
Center (2x) ________  __  ________  __  _____
 72
    65
 73
     4
 40
20.32
 49
12.7
 74
     0
 49
-2.54
 74
     0
 49
2.54
 74
     0
 49
-2.54
 74
     0
  0
LTYPE
  5
72
330
5
100
AcDbSymbolTableRecord
100
AcDbLinetypeTableRecord
  2
DOT2
 70
     0
  3
Dot (.5x) ........................................
 72
    65
 73
     2
 40
0.635
 49
0.0
 74
     0
 49
-0.635
 74
     0
  0
ENDTAB
  0
TABLE
  2
LAYER
  5
2
330
0
100
AcDbSymbolTable
 70
     7
  0
LAYER
  5
10
330
2
100
AcDbSymbolTableRecord
100
AcDbLayerTableRecord
  2
0
 70
     0
 62
     7
  6
Continuous
370
    -3
390
F
347
46
  0
LAYER
  5
73
330
2
100
AcDbSymbolTableRecord
100
AcDbLayerTableRecord
  2
THIN_LINE
 70
     0
 62
     7
  6
Continuous
370
    -3
390
F
347
46
  0
LAYER
  5
74
330
2
100
AcDbSymbolTableRecord
100
AcDbLayerTableRecord
  2
THICK_LINE
 70
     0
 62
     7
  6
Continuous
370
    25
390
F
347
46
  0
LAYER
  5
75
330
2
100
AcDbSymbolTableRecord
100
AcDbLayerTableRecord
  2
ПОДЧЕРКТИПОРАЗМЕР
 70
     0
 62
    -7
  6
Continuous
290
     0
370
    -3
390
F
347
46
  0
LAYER
  5
76
330
2
100
AcDbSymbolTableRecord
100
AcDbLayerTableRecord
  2
THIN_LIONE
 70
     0
 62
     7
  6
Continuous
370
    -3
390
F
347
46
  0
LAYER
  5
77
330
2
100
AcDbSymbolTableRecord
100
AcDbLayerTableRecord
  2
THICK_LIONE
 70
     0
 62
     7
  6
Continuous
370
    25
390
F
347
46
  0
LAYER
  5
78
330
2
100
AcDbSymbolTableRecord
100
AcDbLayerTableRecord
  2
ПОДЧЕРКТИПАРАЗМЕР
 70
     0
 62
    -7
  6
Continuous
290
     0
370
    -3
390
F
347
46
  0
ENDTAB
  0
TABLE
  2
STYLE
  5
3
330
0
100
AcDbSymbolTable
 70
     6
  0
STYLE
  5
11
330
3
100
AcDbSymbolTableRecord
100
AcDbTextStyleTableRecord
  2
STANDARD
 70
     0
 40
0.0
 41
1.0
 50
0.0
 71
     0
 42
28.0
  3
ARIAL.TTF
  4

1001
ACAD
1000
ARIAL
1071
       34
  0
STYLE
  5
A1
330
3
100
AcDbSymbolTableRecord
100
AcDbTextStyleTableRecord
  2
SLDTEXTSTYLE0
 70
     0
 40
0.0
 41
1.0
 50
0.0
 71
     0
 42
28.0
  3
GOSTA.TTF
  4
bigfont
1001
ACAD
1000
GOST 2.304 A
1071
 16777474
  0
STYLE
  5
AE
330
3
100
AcDbSymbolTableRecord
100
AcDbTextStyleTableRecord
  2
SLDTEXTSTYLE1
 70
     0
 40
0.0
 41
1.0
 50
0.0
 71
     0
 42
28.0
  3
GOSTA.TTF
  4

1001
ACAD
1000
GOST 2.304 A
1071
 16777474
  0
STYLE
  5
B5
330
3
100
AcDbSymbolTableRecord
100
AcDbTextStyleTableRecord
  2
SLDTEXTSTYLE2
 70
     0
 40
0.0
 41
0.6
 50
0.0
 71
     0
 42
28.0
  3
GOSTA.TTF
  4
bigfont
1001
ACAD
1000
GOST 2.304 A
1071
 16777474
  0
STYLE
  5
D1
330
3
100
AcDbSymbolTableRecord
100
AcDbTextStyleTableRecord
  2
SLDTEXTSTYLE3
 70
     0
 40
0.0
 41
1.0
 50
0.0
 71
     0
 42
28.0
  3
ARIBLK.TTF
  4

1001
ACAD
1000
Arial Black
1071
      290
  0
STYLE
  5
3C9
330
3
100
AcDbSymbolTableRecord
100
AcDbTextStyleTableRecord
  2
SLDTEXTSTYLE4
 70
     0
 40
0.0
 41
0.948
 50
0.0
 71
     0
 42
28.0
  3
ARIAL.TTF
  4

1001
ACAD
1000
Arial
1071
      290
  0
ENDTAB
  0
TABLE
  2
VIEW
  5
6
330
0
100
AcDbSymbolTable
 70
     0
  0
ENDTAB
  0
TABLE
  2
UCS
  5
7
330
0
100
AcDbSymbolTable
 70
     0
  0
ENDTAB
  0
TABLE
  2
APPID
  5
9
330
0
100
AcDbSymbolTable
 70
     2
  0
APPID
  5
12
330
9
100
AcDbSymbolTableRecord
100
AcDbRegAppTableRecord
  2
ACAD
 70
     0
  0
APPID
  5
42A
330
9
100
AcDbSymbolTableRecord
100
AcDbRegAppTableRecord
  2
ACAD_MLEADERVER
 70
     0
  0
ENDTAB
  0
TABLE
  2
DIMSTYLE
  5
A
330
0
100
AcDbSymbolTable
 70
     4
100
AcDbDimStyleTable
  0
DIMSTYLE
105
27
330
A
100
AcDbSymbolTableRecord
100
AcDbDimStyleTableRecord
  2
ISO-25
 70
     0
 41
2.5
 42
0.625
 43
3.75
 44
1.25
 73
     0
 74
     0
 77
     1
 78
     8
140
2.5
141
2.5
143
0.0393700787
147
0.625
171
     3
172
     1
178
     0
271
     2
272
     2
274
     3
278
    44
283
     0
284
     8
340
11
  0
DIMSTYLE
105
3CA
102
{ACAD_REACTORS
330
3C8
330
3D4
330
3DE
102
}
330
A
100
AcDbSymbolTableRecord
100
AcDbDimStyleTableRecord
  2
SLDDIMSTYLE0
 70
     0
 41
28.0
 44
0.0
 45
0.000000001
 73
     0
 74
     0
 77
     2
 78
    12
 79
     3
140
28.0
147
7.0
173
     1
178
     0
271
     2
272
     3
276
     2
284
    12
340
3C9
  0
DIMSTYLE
105
3EE
330
A
100
AcDbSymbolTableRecord
100
AcDbDimStyleTableRecord
  2
SLDDIMSTYLE1
 70
     0
 41
8.6153846154
 44
0.0
 45
0.000000001
146
8.6153846154
147
0.0
173
     1
178
     0
271
     0
272
     0
276
     2
340
11
341
3EF
343
3EF
344
3EF
  0
DIMSTYLE
105
3FC
330
A
100
AcDbSymbolTableRecord
100
AcDbDimStyleTableRecord
  2
SLDDIMSTYLE2
 70
     0
 41
28.0
 44
0.0
 45
0.000000001
146
28.0
147
0.0
173
     1
178
     0
271
     0
272
     0
276
     2
340
11
  0
ENDTAB
  0
TABLE
  2
BLOCK_RECORD
  5
1
330
0
100
AcDbSymbolTable
 70
    18
  0
BLOCK_RECORD
  5
1F
330
1
100
AcDbSymbolTableRecord
100
AcDbBlockTableRecord
  2
*Model_Space
340
22
 70
     0
280
     1
281
     0
  0
BLOCK_RECORD
  5
1B
330
1
100
AcDbSymbolTableRecord
100
AcDbBlockTableRecord
  2
*Paper_Space
340
1E
 70
     0
280
     1
281
     0
  0
BLOCK_RECORD
  5
23
330
1
100
AcDbSymbolTableRecord
100
AcDbBlockTableRecord
  2
*Paper_Space0
340
26
 70
     0
280
     1
281
     0
  0
BLOCK_RECORD
  5
9E
330
1
100
AcDbSymbolTableRecord
100
AcDbBlockTableRecord
  2
SW_NOTE_0
340
0
102
{BLKREFS
331
A4
102
}
 70
     0
280
     1
281
     0
  0
BLOCK_RECORD
  5
A7
330
1
100
AcDbSymbolTableRecord
100
AcDbBlockTableRecord
  2
SW_NOTE_1
340
0
102
{BLKREFS
331
B2
102
}
 70
     0
280
     1
281
     0
  0
BLOCK_RECORD
  5
AA
330
1
100
AcDbSymbolTableRecord
100
AcDbBlockTableRecord
  2
SW_SYMBOL_GWLD_NUM
340
0
102
{BLKREFS
331
B0
331
BB
331
C3
331
C9
102
}
 70
     0
280
     1
281
     0
  0
BLOCK_RECORD
  5
B7
330
1
100
AcDbSymbolTableRecord
100
AcDbBlockTableRecord
  2
SW_NOTE_2
340
0
102
{BLKREFS
331
BD
102
}
 70
     0
280
     1
281
     0
  0
BLOCK_RECORD
  5
BF
330
1
100
AcDbSymbolTableRecord
100
AcDbBlockTableRecord
  2
SW_NOTE_3
340
0
102
{BLKREFS
331
C4
102
}
 70
     0
280
     1
281
     0
  0
BLOCK_RECORD
  5
C5
330
1
100
AcDbSymbolTableRecord
100
AcDbBlockTableRecord
  2
SW_NOTE_4
340
0
102
{BLKREFS
331
CB
102
}
 70
     0
280
     1
281
     0
  0
BLOCK_RECORD
  5
3CB
330
1
100
AcDbSymbolTableRecord
100
AcDbBlockTableRecord
  2
_D
340
0
 70
     0
280
     1
281
     0
  0
BLOCK_RECORD
  5
3D5
330
1
100
AcDbSymbolTableRecord
100
AcDbBlockTableRecord
  2
_D_1
340
0
 70
     0
280
     1
281
     0
  0
BLOCK_RECORD
  5
3DF
330
1
100
AcDbSymbolTableRecord
100
AcDbBlockTableRecord
  2
_D_2
340
0
 70
     0
280
     1
281
     0
  0
BLOCK_RECORD
  5
3E8
330
1
100
AcDbSymbolTableRecord
100
AcDbBlockTableRecord
  2
SW_NOTE_5
340
0
102
{BLKREFS
331
3ED
102
}
 70
     0
280
     1
281
     0
  0
BLOCK_RECORD
  5
3EF
330
1
100
AcDbSymbolTableRecord
100
AcDbBlockTableRecord
  2
_Dot
340
0
 70
     0
280
     1
281
     0
  0
BLOCK_RECORD
  5
3F5
330
1
100
AcDbSymbolTableRecord
100
AcDbBlockTableRecord
  2
SW_NOTE_6
340
0
102
{BLKREFS
331
3FB
102
}
 70
     0
280
     1
281
     0
  0
BLOCK_RECORD
  5
3FF
330
1
100
AcDbSymbolTableRecord
100
AcDbBlockTableRecord
  2
SW_NOTE_7
340
0
102
{BLKREFS
331
405
102
}
 70
     0
280
     1
281
     0
  0
BLOCK_RECORD
  5
408
330
1
100
AcDbSymbolTableRecord
100
AcDbBlockTableRecord
  2
SW_NOTE_8
340
0
102
{BLKREFS
331
40D
102
}
 70
     0
280
     1
281
     0
  0
BLOCK_RECORD
  5
40F
330
1
100
AcDbSymbolTableRecord
100
AcDbBlockTableRecord
  2
SW_NOTE_9
340
0
102
{BLKREFS
331
415
102
}
 70
     0
280
     1
281
     0
  0
BLOCK_RECORD
  5
417
330
1
100
AcDbSymbolTableRecord
100
AcDbBlockTableRecord
  2
SW_NOTE_10
340
0
102
{BLKREFS
331
41C
102
}
 70
     0
280
     1
281
     0
  0
BLOCK_RECORD
  5
41E
330
1
100
AcDbSymbolTableRecord
100
AcDbBlockTableRecord
  2
SW_NOTE_11
340
0
102
{BLKREFS
331
424
102
}
 70
     0
280
     1
281
     0
  0
ENDTAB
  0
ENDSEC
  0
SECTION
  2
BLOCKS
  0
BLOCK
  5
20
330
1F
100
AcDbEntity
  8
0
100
AcDbBlockBegin
  2
*Model_Space
 70
     0
 10
0.0
 20
0.0
 30
0.0
  3
*Model_Space
  1

  0
ENDBLK
  5
21
330
1F
100
AcDbEntity
  8
0
100
AcDbBlockEnd
  0
BLOCK
  5
1C
330
1B
100
AcDbEntity
 67
     1
  8
0
100
AcDbBlockBegin
  2
*Paper_Space
 70
     0
 10
0.0
 20
0.0
 30
0.0
  3
*Paper_Space
  1

  0
ENDBLK
  5
1D
330
1B
100
AcDbEntity
 67
     1
  8
0
100
AcDbBlockEnd
  0
BLOCK
  5
24
330
23
100
AcDbEntity
  8
0
100
AcDbBlockBegin
  2
*Paper_Space0
 70
     0
 10
0.0
 20
0.0
 30
0.0
  3
*Paper_Space0
  1

  0
ENDBLK
  5
25
330
23
100
AcDbEntity
  8
0
100
AcDbBlockEnd
  0
BLOCK
  5
9F
330
9E
100
AcDbEntity
  8
0
100
AcDbBlockBegin
  2
SW_NOTE_0
 70
     0
 10
0.0
 20
0.0
 30
0.0
  3
SW_NOTE_0
  1

  0
MTEXT
  5
A2
330
9E
100
AcDbEntity
  8
THICK_LINE
 62
     0
100
AcDbMText
 10
0.0
 20
37.3777449047
 30
0.0
 40
29.6333333333
 41
0.0
 46
0.0
 71
     1
 72
     1
  1
Примечание: Кабели питания закрепляются к ломкой стойке с помощью пластиковой 
  7
SLDTEXTSTYLE0
 73
     1
 44
1.0
  0
MTEXT
  5
A3
330
9E
100
AcDbEntity
  8
THICK_LINE
 62
     0
100
AcDbMText
 10
0.0
 20
-10.1333670402
 30
0.0
 40
29.6333333333
 41
0.0
 46
0.0
 71
     1
 72
     1
  1
              стяжки ниже соединительных коннекторов.
  7
SLDTEXTSTYLE0
 73
     1
 44
1.0
  0
ENDBLK
  5
A0
330
9E
100
AcDbEntity
  8
0
100
AcDbBlockEnd
  0
BLOCK
  5
A8
330
A7
100
AcDbEntity
  8
0
100
AcDbBlockBegin
  2
SW_NOTE_1
 70
     0
 10
0.0
 20
0.0
 30
0.0
  3
SW_NOTE_1
  1

  0
INSERT
  5
B0
330
A7
100
AcDbEntity
  8
0
  6
Continuous
 62
     0
370
     0
100
AcDbBlockReference
  2
SW_SYMBOL_GWLD_NUM
 10
0.0
 20
3.6587771203
 30
0.0
 41
0.0044146943
 42
0.0044146943
 43
0.0044146943
  0
MTEXT
  5
B1
330
A7
100
AcDbEntity
  8
0
  6
Continuous
 62
     0
370
     0
100
AcDbMText
 10
45.0216680765
 20
35.3175542406
 30
0.0
 40
28.0
 41
0.0
 46
0.0
 71
     1
 72
     1
  1
 докум
  7
SLDTEXTSTYLE0
 73
     1
 44
1.0
  0
ENDBLK
  5
A9
330
A7
100
AcDbEntity
  8
0
100
AcDbBlockEnd
  0
BLOCK
  5
AB
330
AA
100
AcDbEntity
  8
0
100
AcDbBlockBegin
  2
SW_SYMBOL_GWLD_NUM
 70
     0
 10
0.0
 20
0.0
 30
0.0
  3
SW_SYMBOL_GWLD_NUM
  1

  0
CIRCLE
  5
AD
330
AA
100
AcDbEntity
  8
0
  6
Continuous
 62
     0
370
     0
100
AcDbCircle
 10
8400.0
 20
6600.0
 30
0.0
 40
1000.0
  0
MTEXT
  5
AF
330
AA
100
AcDbEntity
  8
0
  6
Continuous
 62
     0
370
     0
100
AcDbMText
 10
3200.0
 20
4000.0
 30
0.0
 40
6342.4550430023
 41
0.0
 46
0.0
 71
     5
 72
     1
  1
N
  7
SLDTEXTSTYLE1
 73
     1
 44
1.0
  0
ENDBLK
  5
AC
330
AA
100
AcDbEntity
  8
0
100
AcDbBlockEnd
  0
BLOCK
  5
B8
330
B7
100
AcDbEntity
  8
0
100
AcDbBlockBegin
  2
SW_NOTE_2
 70
     0
 10
0.0
 20
0.0
 30
0.0
  3
SW_NOTE_2
  1

  0
MTEXT
  5
BA
330
B7
100
AcDbEntity
  8
0
  6
Continuous
 62
     0
370
     0
100
AcDbMText
 10
-25.2268244576
 20
0.0
 30
0.0
 40
20.0
 41
0.0
 46
0.0
 71
     1
 72
     1
  1
Инв.
  7
SLDTEXTSTYLE2
 11
-3.491481338843133E-15
 21
1.0
 31
0.0
 73
     1
 44
1.0
  0
INSERT
  5
BB
330
B7
100
AcDbEntity
  8
0
  6
Continuous
 62
     0
370
     0
100
AcDbBlockReference
  2
SW_SYMBOL_GWLD_NUM
 10
-2.6134122288
 20
53.6111071706
 30
0.0
 41
0.0031533531
 42
0.0031533531
 43
0.0031533531
 50
90.0
  0
MTEXT
  5
BC
330
B7
100
AcDbEntity
  8
0
  6
Continuous
 62
     0
370
     0
100
AcDbMText
 10
-25.2268244576
 20
85.7694447041
 30
0.0
 40
20.0
 41
0.0
 46
0.0
 71
     1
 72
     1
  1
подл.
  7
SLDTEXTSTYLE2
 11
-3.491481338843133E-15
 21
1.0
 31
0.0
 73
     1
 44
1.0
  0
ENDBLK
  5
B9
330
B7
100
AcDbEntity
  8
0
100
AcDbBlockEnd
  0
BLOCK
  5
C0
330
BF
100
AcDbEntity
  8
0
100
AcDbBlockBegin
  2
SW_NOTE_3
 70
     0
 10
0.0
 20
0.0
 30
0.0
  3
SW_NOTE_3
  1

  0
MTEXT
  5
C2
330
BF
100
AcDbEntity
  8
0
  6
Continuous
 62
     0
370
     0
100
AcDbMText
 10
-25.2268244576
 20
0.0
 30
0.0
 40
20.0
 41
0.0
 46
0.0
 71
     1
 72
     1
  1
Взам. инв. 
  7
SLDTEXTSTYLE2
 11
-3.491481338843133E-15
 21
1.0
 31
0.0
 73
     1
 44
1.0
  0
INSERT
  5
C3
330
BF
100
AcDbEntity
  8
0
  6
Continuous
 62
     0
370
     0
100
AcDbBlockReference
  2
SW_SYMBOL_GWLD_NUM
 10
-2.6134122288
 20
143.7722146511
 30
0.0
 41
0.0031533531
 42
0.0031533531
 43
0.0031533531
 50
90.0
  0
ENDBLK
  5
C1
330
BF
100
AcDbEntity
  8
0
100
AcDbBlockEnd
  0
BLOCK
  5
C6
330
C5
100
AcDbEntity
  8
0
100
AcDbBlockBegin
  2
SW_NOTE_4
 70
     0
 10
0.0
 20
0.0
 30
0.0
  3
SW_NOTE_4
  1

  0
MTEXT
  5
C8
330
C5
100
AcDbEntity
  8
0
  6
Continuous
 62
     0
370
     0
100
AcDbMText
 10
-25.2268244576
 20
0.0
 30
0.0
 40
20.0
 41
0.0
 46
0.0
 71
     1
 72
     1
  1
Инв. 
  7
SLDTEXTSTYLE2
 11
-3.491481338843133E-15
 21
1.0
 31
0.0
 73
     1
 44
1.0
  0
INSERT
  5
C9
330
C5
100
AcDbEntity
  8
0
  6
Continuous
 62
     0
370
     0
100
AcDbBlockReference
  2
SW_SYMBOL_GWLD_NUM
 10
-2.6134122288
 20
65.722219646
 30
0.0
 41
0.0031533531
 42
0.0031533531
 43
0.0031533531
 50
90.0
  0
MTEXT
  5
CA
330
C5
100
AcDbEntity
  8
0
  6
Continuous
 62
     0
370
     0
100
AcDbMText
 10
-25.2268244576
 20
97.8805571795
 30
0.0
 40
20.0
 41
0.0
 46
0.0
 71
     1
 72
     1
  1
 дубл.
  7
SLDTEXTSTYLE2
 11
-3.491481338843133E-15
 21
1.0
 31
0.0
 73
     1
 44
1.0
  0
ENDBLK
  5
C7
330
C5
100
AcDbEntity
  8
0
100
AcDbBlockEnd
  0
BLOCK
  5
3CC
330
3CB
100
AcDbEntity
  8
0
100
AcDbBlockBegin
  2
_D
 70
     0
 10
0.0
 20
0.0
 30
0.0
  3
_D
  1

  0
SOLID
  5
3CE
330
3CB
100
AcDbEntity
  8
THICK_LINE
 62
     7
100
AcDbTrace
 10
351.6059167353
 20
1260.2212122897
 30
0.0
 11
347.2982244276
 21
1232.2212122897
 31
0.0
 12
355.913609043
 22
1232.2212122897
 32
0.0
 13
355.913609043
 23
1232.2212122897
 33
0.0
  0
SOLID
  5
3CF
330
3CB
100
AcDbEntity
  8
THICK_LINE
 62
     7
100
AcDbTrace
 10
351.6059167353
 20
660.2212122897
 30
0.0
 11
355.913609043
 21
688.2212122897
 31
0.0
 12
347.2982244276
 22
688.2212122897
 32
0.0
 13
347.2982244276
 23
688.2212122897
 33
0.0
  0
LINE
  5
3D0
330
3CB
100
AcDbEntity
  8
THICK_LINE
 62
     7
100
AcDbLine
 10
402.7593607601
 20
1260.2212122897
 30
0.0
 11
343.6059167353
 21
1260.2212122897
 31
0.0
  0
LINE
  5
3D1
330
3CB
100
AcDbEntity
  8
THICK_LINE
 62
     7
100
AcDbLine
 10
402.7593607601
 20
660.2212122897
 30
0.0
 11
343.6059167353
 21
660.2212122897
 31
0.0
  0
LINE
  5
3D2
330
3CB
100
AcDbEntity
  8
THICK_LINE
 62
     7
100
AcDbLine
 10
351.6059167353
 20
1260.2212122897
 30
0.0
 11
351.6059167353
 21
660.2212122897
 31
0.0
  0
MTEXT
  5
3D3
330
3CB
100
AcDbEntity
  8
THICK_LINE
 62
     7
100
AcDbMText
 10
315.5120181591
 20
907.3376302122
 30
0.0
 40
28.0
 41
0.0
 46
0.0
 71
     1
 72
     1
  1
600
  7
SLDTEXTSTYLE4
 11
-7.044195017643634E-15
 21
1.0
 31
0.0
 73
     1
 44
1.0
  0
ENDBLK
  5
3CD
330
3CB
100
AcDbEntity
  8
0
100
AcDbBlockEnd
  0
BLOCK
  5
3D6
330
3D5
100
AcDbEntity
  8
0
100
AcDbBlockBegin
  2
_D_1
 70
     0
 10
0.0
 20
0.0
 30
0.0
  3
_D_1
  1

  0
SOLID
  5
3D8
330
3D5
100
AcDbEntity
  8
THICK_LINE
 62
     7
100
AcDbTrace
 10
231.6972586138
 20
560.2212122897
 30
0.0
 11
236.0049509215
 21
588.2212122897
 31
0.0
 12
227.3895663061
 22
588.2212122897
 32
0.0
 13
227.3895663061
 23
588.2212122897
 33
0.0
  0
SOLID
  5
3D9
330
3D5
100
AcDbEntity
  8
THICK_LINE
 62
     7
100
AcDbTrace
 10
231.6972586138
 20
1260.2212122897
 30
0.0
 11
227.3895663061
 21
1232.2212122897
 31
0.0
 12
236.0049509215
 22
1232.2212122897
 32
0.0
 13
236.0049509215
 23
1232.2212122897
 33
0.0
  0
LINE
  5
3DA
330
3D5
100
AcDbEntity
  8
THICK_LINE
 62
     7
100
AcDbLine
 10
927.7593607601
 20
560.2212122897
 30
0.0
 11
223.6972586138
 21
560.2212122897
 31
0.0
  0
LINE
  5
3DB
330
3D5
100
AcDbEntity
  8
THICK_LINE
 62
     7
100
AcDbLine
 10
402.7593607601
 20
1260.2212122897
 30
0.0
 11
223.6972586138
 21
1260.2212122897
 31
0.0
  0
LINE
  5
3DC
330
3D5
100
AcDbEntity
  8
THICK_LINE
 62
     7
100
AcDbLine
 10
231.6972586138
 20
560.2212122897
 30
0.0
 11
231.6972586138
 21
1260.2212122897
 31
0.0
  0
MTEXT
  5
3DD
330
3D5
100
AcDbEntity
  8
THICK_LINE
 62
     7
100
AcDbMText
 10
195.6033600375
 20
907.3376302122
 30
0.0
 40
28.0
 41
0.0
 46
0.0
 71
     1
 72
     1
  1
700
  7
SLDTEXTSTYLE4
 11
6.123233995736766E-17
 21
1.0
 31
0.0
 73
     1
 44
1.0
  0
ENDBLK
  5
3D7
330
3D5
100
AcDbEntity
  8
0
100
AcDbBlockEnd
  0
BLOCK
  5
3E0
330
3DF
100
AcDbEntity
  8
0
100
AcDbBlockBegin
  2
_D_2
 70
     0
 10
0.0
 20
0.0
 30
0.0
  3
_D_2
  1

  0
SOLID
  5
3E2
330
3DF
100
AcDbEntity
  8
THICK_LINE
 62
     7
100
AcDbTrace
 10
231.6972586138
 20
1710.2212122897
 30
0.0
 11
227.3895663061
 21
1682.2212122897
 31
0.0
 12
236.0049509215
 22
1682.2212122897
 32
0.0
 13
236.0049509215
 23
1682.2212122897
 33
0.0
  0
SOLID
  5
3E3
330
3DF
100
AcDbEntity
  8
THICK_LINE
 62
     7
100
AcDbTrace
 10
231.6972586138
 20
1260.2212122897
 30
0.0
 11
236.0049509215
 21
1288.2212122897
 31
0.0
 12
227.3895663061
 22
1288.2212122897
 32
0.0
 13
227.3895663061
 23
1288.2212122897
 33
0.0
  0
LINE
  5
3E4
330
3DF
100
AcDbEntity
  8
THICK_LINE
 62
     7
100
AcDbLine
 10
953.7575717197
 20
1710.2212122897
 30
0.0
 11
223.6972586138
 21
1710.2212122897
 31
0.0
  0
LINE
  5
3E5
330
3DF
100
AcDbEntity
  8
THICK_LINE
 62
     7
100
AcDbLine
 10
402.7593607601
 20
1260.2212122897
 30
0.0
 11
223.6972586138
 21
1260.2212122897
 31
0.0
  0
LINE
  5
3E6
330
3DF
100
AcDbEntity
  8
THICK_LINE
 62
     7
100
AcDbLine
 10
231.6972586138
 20
1710.2212122897
 30
0.0
 11
231.6972586138
 21
1260.2212122897
 31
0.0
  0
MTEXT
  5
3E7
330
3DF
100
AcDbEntity
  8
THICK_LINE
 62
     7
100
AcDbMText
 10
195.6033600376
 20
1461.7771934924
 30
0.0
 40
28.0
 41
0.0
 46
0.0
 71
     1
 72
     1
  1
450
  7
SLDTEXTSTYLE4
 11
-4.379659758543259E-15
 21
1.0
 31
0.0
 73
     1
 44
1.0
  0
ENDBLK
  5
3E1
330
3DF
100
AcDbEntity
  8
0
100
AcDbBlockEnd
  0
BLOCK
  5
3E9
330
3E8
100
AcDbEntity
  8
0
100
AcDbBlockBegin
  2
SW_NOTE_5
 70
     0
 10
0.0
 20
0.0
 30
0.0
  3
SW_NOTE_5
  1

  0
LINE
  5
3EB
330
3E8
100
AcDbEntity
  8
THICK_LINE
 62
     0
100
AcDbLine
 10
157.9634746042
 20
0.0
 30
0.0
 11
0.0
 21
0.0
 31
0.0
  0
MTEXT
  5
3EC
330
3E8
100
AcDbEntity
  8
THICK_LINE
 62
     0
100
AcDbMText
 10
3.7320769787
 20
37.9218038757
 30
0.0
 40
29.6333333333
 41
0.0
 46
0.0
 71
     1
 72
     1
  1
Огонь ВПП
  7
SLDTEXTSTYLE0
 73
     1
 44
1.0
  0
ENDBLK
  5
3EA
330
3E8
100
AcDbEntity
  8
0
100
AcDbBlockEnd
  0
BLOCK
  5
3F0
330
3EF
100
AcDbEntity
  8
0
100
AcDbBlockBegin
  2
_Dot
 70
     0
 10
0.0
 20
0.0
 30
0.0
  3
_Dot
  1

  0
LWPOLYLINE
  5
3F2
330
3EF
100
AcDbEntity
  8
0
  6
ByBlock
 62
     0
100
AcDbPolyline
 90
        2
 70
     1
 43
0.5
 10
-0.25
 20
0.0
 42
1.0
 10
0.25
 20
0.0
 42
1.0
  0
LINE
  5
3F3
330
3EF
100
AcDbEntity
  8
0
  6
ByBlock
 62
     0
370
    -2
100
AcDbLine
 10
-0.5
 20
0.0
 30
0.0
 11
-1.0
 21
0.0
 31
0.0
  0
ENDBLK
  5
3F1
330
3EF
100
AcDbEntity
  8
0
100
AcDbBlockEnd
  0
BLOCK
  5
3F6
330
3F5
100
AcDbEntity
  8
0
100
AcDbBlockBegin
  2
SW_NOTE_6
 70
     0
 10
0.0
 20
0.0
 30
0.0
  3
SW_NOTE_6
  1

  0
LINE
  5
3F8
330
3F5
100
AcDbEntity
  8
THICK_LINE
 62
     0
100
AcDbLine
 10
438.6021395651
 20
0.0
 30
0.0
 11
0.0
 21
0.0
 31
0.0
  0
LINE
  5
3F9
330
3F5
100
AcDbEntity
  8
THICK_LINE
 62
     0
100
AcDbLine
 10
438.6021395651
 20
0.0
 30
0.0
 11
0.0
 21
0.0
 31
0.0
  0
MTEXT
  5
3FA
330
3F5
100
AcDbEntity
  8
THICK_LINE
 62
     0
100
AcDbMText
 10
3.5925359287
 20
37.9696715009
 30
0.0
 40
29.6333333333
 41
0.0
 46
0.0
 71
     1
 72
     1
  1
Соединительные коннекторы
  7
SLDTEXTSTYLE0
 73
     1
 44
1.0
  0
ENDBLK
  5
3F7
330
3F5
100
AcDbEntity
  8
0
100
AcDbBlockEnd
  0
BLOCK
  5
400
330
3FF
100
AcDbEntity
  8
0
100
AcDbBlockBegin
  2
SW_NOTE_7
 70
     0
 10
0.0
 20
0.0
 30
0.0
  3
SW_NOTE_7
  1

  0
LINE
  5
402
330
3FF
100
AcDbEntity
  8
THICK_LINE
 62
     0
100
AcDbLine
 10
243.0769999949
 20
0.0
 30
0.0
 11
0.0
 21
0.0
 31
0.0
  0
LINE
  5
403
330
3FF
100
AcDbEntity
  8
THICK_LINE
 62
     0
100
AcDbLine
 10
243.0769999949
 20
0.0
 30
0.0
 11
0.0
 21
0.0
 31
0.0
  0
MTEXT
  5
404
330
3FF
100
AcDbEntity
  8
THICK_LINE
 62
     0
100
AcDbMText
 10
3.6839460593
 20
37.6169131093
 30
0.0
 40
29.6333333333
 41
0.0
 46
0.0
 71
     1
 72
     1
  1
Кабель питания
  7
SLDTEXTSTYLE0
 73
     1
 44
1.0
  0
ENDBLK
  5
401
330
3FF
100
AcDbEntity
  8
0
100
AcDbBlockEnd
  0
BLOCK
  5
409
330
408
100
AcDbEntity
  8
0
100
AcDbBlockBegin
  2
SW_NOTE_8
 70
     0
 10
0.0
 20
0.0
 30
0.0
  3
SW_NOTE_8
  1

  0
LINE
  5
40B
330
408
100
AcDbEntity
  8
THICK_LINE
 62
     0
100
AcDbLine
 10
90.5201857415
 20
0.0
 30
0.0
 11
0.0
 21
0.0
 31
0.0
  0
MTEXT
  5
40C
330
408
100
AcDbEntity
  8
THICK_LINE
 62
     0
100
AcDbMText
 10
3.3745182744
 20
38.1639159669
 30
0.0
 40
29.6333333333
 41
0.0
 46
0.0
 71
     1
 72
     1
  1
Грунт
  7
SLDTEXTSTYLE0
 73
     1
 44
1.0
  0
ENDBLK
  5
40A
330
408
100
AcDbEntity
  8
0
100
AcDbBlockEnd
  0
BLOCK
  5
410
330
40F
100
AcDbEntity
  8
0
100
AcDbBlockBegin
  2
SW_NOTE_9
 70
     0
 10
0.0
 20
0.0
 30
0.0
  3
SW_NOTE_9
  1

  0
LINE
  5
412
330
40F
100
AcDbEntity
  8
THICK_LINE
 62
     0
100
AcDbLine
 10
-333.5108856234
 20
0.0
 30
0.0
 11
0.0
 21
0.0
 31
0.0
  0
MTEXT
  5
413
330
40F
100
AcDbEntity
  8
THICK_LINE
 62
     0
100
AcDbMText
 10
-337.0847557595
 20
85.7338778369
 30
0.0
 40
29.6333333333
 41
0.0
 46
0.0
 71
     1
 72
     1
  1
Конштейн крепления 
  7
SLDTEXTSTYLE0
 73
     1
 44
1.0
  0
MTEXT
  5
414
330
40F
100
AcDbEntity
  8
THICK_LINE
 62
     0
100
AcDbMText
 10
-337.0847557595
 20
38.222765892
 30
0.0
 40
29.6333333333
 41
0.0
 46
0.0
 71
     1
 72
     1
  1
на трубу D=40мм.
  7
SLDTEXTSTYLE0
 73
     1
 44
1.0
  0
ENDBLK
  5
411
330
40F
100
AcDbEntity
  8
0
100
AcDbBlockEnd
  0
BLOCK
  5
418
330
417
100
AcDbEntity
  8
0
100
AcDbBlockBegin
  2
SW_NOTE_10
 70
     0
 10
0.0
 20
0.0
 30
0.0
  3
SW_NOTE_10
  1

  0
LINE
  5
41A
330
417
100
AcDbEntity
  8
THICK_LINE
 62
     0
100
AcDbLine
 10
-231.9892744097
 20
0.0
 30
0.0
 11
0.0
 21
0.0
 31
0.0
  0
MTEXT
  5
41B
330
417
100
AcDbEntity
  8
THICK_LINE
 62
     0
100
AcDbMText
 10
-235.5631445458
 20
38.0259026095
 30
0.0
 40
29.6333333333
 41
0.0
 46
0.0
 71
     1
 72
     1
  1
Ломкая стойка
  7
SLDTEXTSTYLE0
 73
     1
 44
1.0
  0
ENDBLK
  5
419
330
417
100
AcDbEntity
  8
0
100
AcDbBlockEnd
  0
BLOCK
  5
41F
330
41E
100
AcDbEntity
  8
0
100
AcDbBlockBegin
  2
SW_NOTE_11
 70
     0
 10
0.0
 20
0.0
 30
0.0
  3
SW_NOTE_11
  1

  0
LINE
  5
421
330
41E
100
AcDbEntity
  8
THICK_LINE
 62
     0
100
AcDbLine
 10
-462.1415237459
 20
0.0
 30
0.0
 11
0.0
 21
0.0
 31
0.0
  0
MTEXT
  5
422
330
41E
100
AcDbEntity
  8
THICK_LINE
 62
     0
100
AcDbMText
 10
-465.5163748136
 20
85.5566621873
 30
0.0
 40
29.6333333333
 41
0.0
 46
0.0
 71
     1
 72
     1
  1
Фундаментная забивная игла.
  7
SLDTEXTSTYLE0
 73
     1
 44
1.0
  0
MTEXT
  5
423
330
41E
100
AcDbEntity
  8
THICK_LINE
 62
     0
100
AcDbMText
 10
-465.5163748136
 20
38.0455502424
 30
0.0
 40
29.6333333333
 41
0.0
 46
0.0
 71
     1
 72
     1
  1
(Стальной уголок 50х50мм.)
  7
SLDTEXTSTYLE0
 73
     1
 44
1.0
  0
ENDBLK
  5
420
330
41E
100
AcDbEntity
  8
0
100
AcDbBlockEnd
  0
ENDSEC
  0
SECTION
  2
ENTITIES
  0
LINE
  5
79
330
1F
100
AcDbEntity
  8
THICK_LINE
100
AcDbLine
 10
160.0
 20
2336.0
 30
0.0
 11
720.0
 21
2336.0
 31
0.0
  0
LINE
  5
7A
330
1F
100
AcDbEntity
  8
THICK_LINE
100
AcDbLine
 10
160.0
 20
2336.0
 30
0.0
 11
160.0
 21
2224.0
 31
0.0
  0
LINE
  5
7B
330
1F
100
AcDbEntity
  8
THICK_LINE
100
AcDbLine
 10
160.0
 20
2224.0
 30
0.0
 11
720.0
 21
2224.0
 31
0.0
  0
LINE
  5
7C
330
1F
100
AcDbEntity
  8
THICK_LINE
100
AcDbLine
 10
720.0
 20
2336.0
 30
0.0
 11
720.0
 21
2224.0
 31
0.0
  0
LINE
  5
7D
330
1F
100
AcDbEntity
  8
THICK_LINE
100
AcDbLine
 10
217.1932620256
 20
160.6777803472
 30
0.0
 11
217.1932620256
 21
40.6777803472
 31
0.0
  0
LINE
  5
7E
330
1F
100
AcDbEntity
  8
THICK_LINE
100
AcDbLine
 10
1561.1932620256
 20
160.6777803472
 30
0.0
 11
1561.1932620256
 21
40.6777803472
 31
0.0
  0
LINE
  5
7F
330
1F
100
AcDbEntity
  8
THICK_LINE
100
AcDbLine
 10
1561.1932620256
 20
160.6777803472
 30
0.0
 11
1561.1932620256
 21
40.6777803472
 31
0.0
  0
LINE
  5
80
330
1F
100
AcDbEntity
  8
THICK_LINE
100
AcDbLine
 10
64.0204468216
 20
39.9744633888
 30
0.0
 11
64.0204468216
 21
1199.9744633888
 31
0.0
  0
LINE
  5
81
330
1F
100
AcDbEntity
  8
THICK_LINE
100
AcDbLine
 10
64.0204468216
 20
39.9744633888
 30
0.0
 11
160.0204468216
 21
39.9744633888
 31
0.0
  0
LINE
  5
82
330
1F
100
AcDbEntity
  8
THIN_LINE
100
AcDbLine
 10
104.0204468216
 20
39.9744633888
 30
0.0
 11
104.0204468216
 21
1199.9744633888
 31
0.0
  0
LINE
  5
83
330
1F
100
AcDbEntity
  8
THICK_LINE
100
AcDbLine
 10
160.0204468216
 20
39.9744633888
 30
0.0
 11
160.0204468216
 21
1199.9744633888
 31
0.0
  0
LINE
  5
84
330
1F
100
AcDbEntity
  8
THICK_LINE
100
AcDbLine
 10
64.0204468216
 20
239.9744633888
 30
0.0
 11
160.0204468216
 21
239.9744633888
 31
0.0
  0
LINE
  5
85
330
1F
100
AcDbEntity
  8
THICK_LINE
100
AcDbLine
 10
64.0204468216
 20
519.9744633888
 30
0.0
 11
160.0204468216
 21
519.9744633888
 31
0.0
  0
LINE
  5
86
330
1F
100
AcDbEntity
  8
THICK_LINE
100
AcDbLine
 10
64.0204468216
 20
719.9744633888
 30
0.0
 11
160.0204468216
 21
719.9744633888
 31
0.0
  0
LINE
  5
87
330
1F
100
AcDbEntity
  8
THICK_LINE
100
AcDbLine
 10
64.0204468216
 20
919.9744633888
 30
0.0
 11
160.0204468216
 21
919.9744633888
 31
0.0
  0
LINE
  5
88
330
1F
100
AcDbEntity
  8
THICK_LINE
100
AcDbLine
 10
64.0
 20
40.0
 30
0.0
 11
1640.0
 21
40.0
 31
0.0
  0
LINE
  5
89
330
1F
100
AcDbEntity
  8
THIN_LINE
100
AcDbLine
 10
160.0
 20
80.4833941736
 30
0.0
 11
680.0
 21
80.4833941736
 31
0.0
  0
LINE
  5
8A
330
1F
100
AcDbEntity
  8
THICK_LINE
100
AcDbLine
 10
1561.2062895552
 20
104.8320298152
 30
0.0
 11
1639.9812872176
 21
104.8320298152
 31
0.0
  0
LINE
  5
8B
330
1F
100
AcDbEntity
  8
THIN_LINE
100
AcDbLine
 10
160.0
 20
120.5870293472
 30
0.0
 11
680.0
 21
120.5870293472
 31
0.0
  0
LINE
  5
8C
330
1F
100
AcDbEntity
  8
THICK_LINE
100
AcDbLine
 10
160.0
 20
160.6906645208
 30
0.0
 11
1639.9812872176
 21
160.6906645208
 31
0.0
  0
LINE
  5
8D
330
1F
100
AcDbEntity
  8
THICK_LINE
100
AcDbLine
 10
160.0
 20
240.0
 30
0.0
 11
64.0
 21
240.0
 31
0.0
  0
LINE
  5
8E
330
1F
100
AcDbEntity
  8
THICK_LINE
100
AcDbLine
 10
64.0
 20
40.0
 30
0.0
 11
64.0
 21
1200.0
 31
0.0
  0
LINE
  5
8F
330
1F
100
AcDbEntity
  8
THIN_LINE
100
AcDbLine
 10
104.0
 20
40.0
 30
0.0
 11
104.0
 21
1200.0
 31
0.0
  0
LINE
  5
90
330
1F
100
AcDbEntity
  8
THICK_LINE
100
AcDbLine
 10
160.0
 20
40.0
 30
0.0
 11
160.0
 21
2336.0
 31
0.0
  0
LINE
  5
91
330
1F
100
AcDbEntity
  8
THICK_LINE
100
AcDbLine
 10
160.0
 20
520.0
 30
0.0
 11
64.0
 21
520.0
 31
0.0
  0
LINE
  5
92
330
1F
100
AcDbEntity
  8
THICK_LINE
100
AcDbLine
 10
296.0
 20
160.6906645208
 30
0.0
 11
296.0
 21
40.0
 31
0.0
  0
LINE
  5
93
330
1F
100
AcDbEntity
  8
THICK_LINE
100
AcDbLine
 10
160.0
 20
720.0
 30
0.0
 11
64.0
 21
720.0
 31
0.0
  0
LINE
  5
94
330
1F
100
AcDbEntity
  8
THICK_LINE
100
AcDbLine
 10
480.0
 20
40.0
 30
0.0
 11
480.0
 21
160.6906645208
 31
0.0
  0
LINE
  5
95
330
1F
100
AcDbEntity
  8
THICK_LINE
100
AcDbLine
 10
600.0
 20
160.6906645208
 30
0.0
 11
600.0
 21
40.0
 31
0.0
  0
LINE
  5
96
330
1F
100
AcDbEntity
  8
THICK_LINE
100
AcDbLine
 10
160.0
 20
920.0
 30
0.0
 11
64.0
 21
920.0
 31
0.0
  0
LINE
  5
97
330
1F
100
AcDbEntity
  8
THICK_LINE
100
AcDbLine
 10
680.0
 20
160.6906645208
 30
0.0
 11
680.0
 21
40.0
 31
0.0
  0
LINE
  5
98
330
1F
100
AcDbEntity
  8
THICK_LINE
100
AcDbLine
 10
720.0
 20
2336.0
 30
0.0
 11
720.0
 21
2224.0
 31
0.0
  0
LINE
  5
99
330
1F
100
AcDbEntity
  8
THICK_LINE
100
AcDbLine
 10
64.0
 20
1200.0
 30
0.0
 11
160.0
 21
1200.0
 31
0.0
  0
LINE
  5
9A
330
1F
100
AcDbEntity
  8
THICK_LINE
100
AcDbLine
 10
1561.2062895552
 20
160.6906645208
 30
0.0
 11
1561.2062895552
 21
40.379759
 31
0.0
  0
LINE
  5
9B
330
1F
100
AcDbEntity
  8
THICK_LINE
100
AcDbLine
 10
1640.0
 20
2336.0
 30
0.0
 11
1640.0
 21
40.0
 31
0.0
  0
LINE
  5
9C
330
1F
100
AcDbEntity
  8
THICK_LINE
100
AcDbLine
 10
160.0
 20
2224.0
 30
0.0
 11
720.0
 21
2224.0
 31
0.0
  0
LINE
  5
9D
330
1F
100
AcDbEntity
  8
THICK_LINE
100
AcDbLine
 10
160.0
 20
2336.0
 30
0.0
 11
1640.0
 21
2336.0
 31
0.0
  0
INSERT
  5
A4
330
1F
100
AcDbEntity
  8
THICK_LINE
 62
     7
100
AcDbBlockReference
  2
SW_NOTE_0
 10
208.0374124169
 20
289.6243928712
 30
0.0
  0
MTEXT
  5
A5
330
1F
100
AcDbEntity
  8
0
  6
Continuous
 62
     7
370
     0
100
AcDbMText
 10
163.6135560209
 20
78.6483028739
 30
0.0
 40
28.0
 41
0.0
 46
0.0
 71
     1
 72
     1
  1
Изм.
  7
SLDTEXTSTYLE0
 73
     1
 44
1.0
  0
MTEXT
  5
A6
330
1F
100
AcDbEntity
  8
0
  6
Continuous
 62
     7
370
     0
100
AcDbMText
 10
224.5997590327
 20
79.755201368
 30
0.0
 40
28.0
 41
0.0
 46
0.0
 71
     1
 72
     1
  1
Лист
  7
SLDTEXTSTYLE0
 73
     1
 44
1.0
  0
INSERT
  5
B2
330
1F
100
AcDbEntity
  8
0
  6
Continuous
 62
     7
370
     0
100
AcDbBlockReference
  2
SW_NOTE_1
 10
327.2514695738
 20
44.4376471274
 30
0.0
  0
MTEXT
  5
B3
330
1F
100
AcDbEntity
  8
0
  6
Continuous
 62
     7
370
     0
100
AcDbMText
 10
494.7583680679
 20
79.755201368
 30
0.0
 40
28.0
 41
0.0
 46
0.0
 71
     1
 72
     1
  1
Подп.
  7
SLDTEXTSTYLE0
 73
     1
 44
1.0
  0
MTEXT
  5
B4
330
1F
100
AcDbEntity
  8
0
  6
Continuous
 62
     7
370
     0
100
AcDbMText
 10
605.2790635503
 20
78.6483028739
 30
0.0
 40
28.0
 41
0.0
 46
0.0
 71
     1
 72
     1
  1
Дата
  7
SLDTEXTSTYLE0
 73
     1
 44
1.0
  0
MTEXT
  5
B6
330
1F
100
AcDbEntity
  8
0
  6
Continuous
 62
     7
370
     0
100
AcDbMText
 10
1563.8530875112
 20
141.2407253515
 30
0.0
 40
20.0
 41
0.0
 46
0.0
 71
     1
 72
     1
  1
Лист
  7
SLDTEXTSTYLE2
 73
     1
 44
1.0
  0
INSERT
  5
BD
330
1F
100
AcDbEntity
  8
0
  6
Continuous
 62
     7
370
     0
100
AcDbBlockReference
  2
SW_NOTE_2
 10
101.9664649237
 20
41.1371399794
 30
0.0
  0
MTEXT
  5
BE
330
1F
100
AcDbEntity
  8
0
  6
Continuous
 62
     7
370
     0
100
AcDbMText
 10
77.2264788026
 20
269.6249031384
 30
0.0
 40
20.0
 41
0.0
 46
0.0
 71
     1
 72
     1
  1
Подп. и дата
  7
SLDTEXTSTYLE2
 11
-3.491481338843133E-15
 21
1.0
 31
0.0
 73
     1
 44
1.0
  0
INSERT
  5
C4
330
1F
100
AcDbEntity
  8
0
  6
Continuous
 62
     7
370
     0
100
AcDbBlockReference
  2
SW_NOTE_3
 10
104.6671002485
 20
523.4559745267
 30
0.0
  0
INSERT
  5
CB
330
1F
100
AcDbEntity
  8
0
  6
Continuous
 62
     7
370
     0
100
AcDbBlockReference
  2
SW_NOTE_4
 10
101.3464047661
 20
724.014583562
 30
0.0
  0
MTEXT
  5
CC
330
1F
100
AcDbEntity
  8
0
  6
Continuous
 62
     7
370
     0
100
AcDbMText
 10
77.2264788026
 20
959.5869895855
 30
0.0
 40
20.0
 41
0.0
 46
0.0
 71
     1
 72
     1
  1
Подп. и дата
  7
SLDTEXTSTYLE2
 11
-3.491481338843133E-15
 21
1.0
 31
0.0
 73
     1
 44
1.0
  0
MTEXT
  5
CD
330
1F
100
AcDbEntity
  8
0
  6
Continuous
 62
     7
370
     0
100
AcDbMText
 10
1236.5255635638
 20
36.0347816939
 30
0.0
 40
28.0
 41
0.0
 46
0.0
 71
     1
 72
     1
  1
Формат А4
  7
SLDTEXTSTYLE0
 73
     1
 44
1.0
  0
MTEXT
  5
CE
330
1F
100
AcDbEntity
  8
0
  6
Continuous
 62
     7
370
     0
100
AcDbMText
 10
829.042648067
 20
37.7595224035
 30
0.0
 40
28.0
 41
0.0
 46
0.0
 71
     1
 72
     1
  1
Копировал
  7
SLDTEXTSTYLE0
 73
     1
 44
1.0
  0
MTEXT
  5
CF
330
1F
100
AcDbEntity
  8
0
  6
Continuous
 62
     7
370
     0
100
AcDbMText
 10
1585.9759735627
 20
95.9366085923
 30
0.0
 40
40.0
 41
0.0
 46
0.0
 71
     1
 72
     1
  1
1
  7
SLDTEXTSTYLE1
 73
     1
 44
1.0
  0
MTEXT
  5
D0
330
1F
100
AcDbEntity
  8
0
  6
Continuous
 62
     7
370
     0
100
AcDbMText
 10
406.655808585
 20
2301.2553227824
 30
0.0
 40
42.3333333333
 41
0.0
 46
0.0
 71
     2
 72
     1
  1
WELTPLAST
  7
SLDTEXTSTYLE1
 73
     1
 44
1.0
  0
MTEXT
  5
D2
330
1F
100
AcDbEntity
  8
THICK_LINE
100
AcDbMText
 10
1611.3141450306
 20
11.0524996546
 30
0.0
 40
8.0
 41
0.0
 46
0.0
 71
     1
 72
     1
  1
TESIS
  7
SLDTEXTSTYLE3
 73
     1
 44
1.0
  0
MTEXT
  5
D3
330
1F
100
AcDbEntity
  8
THICK_LINE
100
AcDbMText
 10
1025.884496057
 20
127.1246877858
 30
0.0
 40
42.3333333333
 41
0.0
 46
0.0
 71
     1
 72
     1
  1
Огонь ВПП
  7
SLDTEXTSTYLE0
 73
     1
 44
1.0
  0
LINE
  5
D4
330
1F
100
AcDbEntity
  8
0
  6
Continuous
 62
     7
370
    25
100
AcDbLine
 10
1008.509956319
 20
1657.2212122897
 30
0.0
 11
1008.509956319
 21
1669.2212122897
 31
0.0
  0
ARC
  5
D5
330
1F
100
AcDbEntity
  8
0
  6
Continuous
 62
     7
370
    25
100
AcDbCircle
 10
1007.509956319
 20
1669.2212122897
 30
0.0
 40
1.000000000000227
100
AcDbArc
 50
0.0
 51
90.0
  0
ARC
  5
D6
330
1F
100
AcDbEntity
  8
0
  6
Continuous
 62
     7
370
    25
100
AcDbCircle
 10
950.8375717197
 20
1671.2212122897
 30
0.0
 40
1.0
100
AcDbArc
 50
270.0
 51
0.0
  0
ARC
  5
D7
330
1F
100
AcDbEntity
  8
0
  6
Continuous
 62
     7
370
    25
100
AcDbCircle
 10
953.8375717197
 20
1708.2212122897
 30
0.0
 40
2.000000000000227
100
AcDbArc
 50
90.0
 51
180.0
  0
ARC
  5
D8
330
1F
100
AcDbEntity
  8
0
  6
Continuous
 62
     7
370
    25
100
AcDbCircle
 10
1034.8375717197
 20
1708.2212122897
 30
0.0
 40
2.000000000000227
100
AcDbArc
 50
0.0
 51
90.0
  0
LINE
  5
D9
330
1F
100
AcDbEntity
  8
0
  6
Continuous
 62
     7
370
    25
100
AcDbLine
 10
1036.8375717197
 20
1672.4212122897
 30
0.0
 11
1036.8375717197
 21
1708.2212122897
 31
0.0
  0
LINE
  5
DA
330
1F
100
AcDbEntity
  8
0
  6
Continuous
 62
     7
370
    25
100
AcDbLine
 10
951.8375717197
 20
1708.2212122897
 30
0.0
 11
951.8375717197
 21
1671.2212122897
 31
0.0
  0
ARC
  5
DB
330
1F
100
AcDbEntity
  8
0
  6
Continuous
 62
     7
370
    25
100
AcDbCircle
 10
950.4454328134
 20
1669.2212122897
 30
0.0
 40
1.000000000000227
100
AcDbArc
 50
90.0
 51
180.0
  0
LINE
  5
DC
330
1F
100
AcDbEntity
  8
0
  6
Continuous
 62
     7
370
    25
100
AcDbLine
 10
949.4454328134
 20
1669.2212122897
 30
0.0
 11
949.4454328134
 21
1657.2212122897
 31
0.0
  0
LINE
  5
DD
330
1F
100
AcDbEntity
  8
0
  6
Continuous
 62
     7
370
    25
100
AcDbLine
 10
1045.9020952253
 20
1657.2212122897
 30
0.0
 11
1045.9020952253
 21
1669.2212122897
 31
0.0
  0
ARC
  5
DE
330
1F
100
AcDbEntity
  8
0
  6
Continuous
 62
     7
370
    25
100
AcDbCircle
 10
1044.9020952253
 20
1669.2212122897
 30
0.0
 40
1.000000000000227
100
AcDbArc
 50
0.0
 51
90.0
  0
ARC
  5
DF
330
1F
100
AcDbEntity
  8
0
  6
Continuous
 62
     7
370
    25
100
AcDbCircle
 10
949.3375717197
 20
1669.2212122897
 30
0.0
 40
1.000000000000227
100
AcDbArc
 50
90.0
 51
180.0
  0
LINE
  5
E0
330
1F
100
AcDbEntity
  8
0
  6
Continuous
 62
     7
370
    25
100
AcDbLine
 10
948.3375717197
 20
1669.2212122897
 30
0.0
 11
948.3375717197
 21
1657.2212122897
 31
0.0
  0
ARC
  5
E1
330
1F
100
AcDbEntity
  8
0
  6
Continuous
 62
     7
370
    25
100
AcDbCircle
 10
943.7730482141
 20
1669.2212122897
 30
0.0
 40
1.000000000000227
100
AcDbArc
 50
90.0
 51
180.0
  0
LINE
  5
E2
330
1F
100
AcDbEntity
  8
0
  6
Continuous
 62
     7
370
    25
100
AcDbLine
 10
942.7730482141
 20
1669.2212122897
 30
0.0
 11
942.7730482141
 21
1657.2212122897
 31
0.0
  0
LINE
  5
E3
330
1F
100
AcDbEntity
  8
0
  6
Continuous
 62
     7
370
    25
100
AcDbLine
 10
1025.7502185536
 20
1441.0530169339
 30
0.0
 11
1025.7502185536
 21
1442.4530169339
 31
0.0
  0
LINE
  5
E4
330
1F
100
AcDbEntity
  8
0
  6
Continuous
 62
     7
370
    25
100
AcDbLine
 10
1024.1502185536
 20
1435.5530169339
 30
0.0
 11
1024.1502185536
 21
1441.0530169339
 31
0.0
  0
LINE
  5
E5
330
1F
100
AcDbEntity
  8
0
  6
Continuous
 62
     7
370
    25
100
AcDbLine
 10
962.9249248859
 20
1419.9530169339
 30
0.0
 11
962.9249248859
 21
1418.5530169339
 31
0.0
  0
LINE
  5
E6
330
1F
100
AcDbEntity
  8
0
  6
Continuous
 62
     7
370
    25
100
AcDbLine
 10
964.5249248859
 20
1425.4530169339
 30
0.0
 11
964.5249248859
 21
1419.9530169339
 31
0.0
  0
LINE
  5
E7
330
1F
100
AcDbEntity
  8
0
  6
Continuous
 62
     7
370
    25
100
AcDbLine
 10
1003.708536672
 20
1418.5530169339
 30
0.0
 11
1003.708536672
 21
1419.9530169339
 31
0.0
  0
LINE
  5
E8
330
1F
100
AcDbEntity
  8
0
  6
Continuous
 62
     7
370
    25
100
AcDbLine
 10
1002.108536672
 20
1419.9530169339
 30
0.0
 11
1002.108536672
 21
1425.4530169339
 31
0.0
  0
LWPOLYLINE
  5
E9
330
1F
100
AcDbEntity
  8
0
  6
Continuous
 62
     7
370
    25
100
AcDbPolyline
 90
        9
 70
   128
 43
0.0
 10
970.2281187086
 20
1405.062824998
 10
970.310776761
 20
1403.7054235831
 10
970.6258453779
 20
1401.7655816481
 10
971.0860294084
 20
1399.9065390896
 10
971.7607933944
 20
1397.5618725599
 10
972.4337759292
 20
1395.0492553188
 10
972.8282658378
 20
1393.0290682472
 10
973.0202203673
 20
1391.1598319805
 10
973.0298223174
 20
1390.2845155972
  0
LINE
  5
EA
330
1F
100
AcDbEntity
  8
0
  6
Continuous
 62
     7
370
    25
100
AcDbLine
 10
970.2064344069
 20
1414.0530169339
 30
0.0
 11
970.2064344069
 21
1405.0628275465
 31
0.0
  0
LWPOLYLINE
  5
EB
330
1F
100
AcDbEntity
  8
0
  6
Continuous
 62
     7
370
    25
100
AcDbPolyline
 90
        9
 70
   128
 43
0.0
 10
993.5938964874
 20
1390.2847901055
 10
993.5947756512
 20
1390.6828843736
 10
993.7405267316
 20
1392.5625608724
 10
994.0760313491
 20
1394.5024189584
 10
994.6227960591
 20
1396.6820892733
 10
995.4438387462
 20
1399.5344302195
 10
995.9915708467
 20
1401.6912314712
 10
996.3202207853
 20
1403.6820767745
 10
996.4081639868
 20
1405.0626212772
  0
LINE
  5
EC
330
1F
100
AcDbEntity
  8
0
  6
Continuous
 62
     7
370
    25
100
AcDbLine
 10
993.5898403192
 20
1380.284821578
 30
0.0
 11
993.5898403192
 21
1390.284821578
 31
0.0
  0
LINE
  5
ED
330
1F
100
AcDbEntity
  8
0
  6
Continuous
 62
     7
370
    25
100
AcDbLine
 10
973.0436212387
 20
1390.284821578
 30
0.0
 11
973.0436212387
 21
1380.284821578
 31
0.0
  0
LINE
  5
EE
330
1F
100
AcDbEntity
  8
0
  6
Continuous
 62
     7
370
    25
100
AcDbLine
 10
996.4270271509
 20
1405.0628275465
 30
0.0
 11
996.4270271509
 21
1414.0530169339
 31
0.0
  0
LWPOLYLINE
  5
EF
330
1F
100
AcDbEntity
  8
0
  6
Continuous
 62
     7
370
    25
100
AcDbPolyline
 90
        9
 70
   128
 43
0.0
 10
973.0395650315
 20
1470.7212261275
 10
973.0386859067
 20
1470.3231494941
 10
972.8929348263
 20
1468.4434729954
 10
972.5574302088
 20
1466.5036149093
 10
972.0106654988
 20
1464.3239445944
 10
971.1896228117
 20
1461.4716036482
 10
970.6418907111
 20
1459.3148023965
 10
970.3132407726
 20
1457.3239570932
 10
970.225297571
 20
1455.9434125905
  0
LINE
  5
F0
330
1F
100
AcDbEntity
  8
0
  6
Continuous
 62
     7
370
    25
100
AcDbLine
 10
970.2064344069
 20
1455.9432063212
 30
0.0
 11
970.2064344069
 21
1449.2030169339
 31
0.0
  0
LWPOLYLINE
  5
F1
330
1F
100
AcDbEntity
  8
0
  6
Continuous
 62
     7
370
    25
100
AcDbPolyline
 90
        9
 70
   128
 43
0.0
 10
996.4053428493
 20
1455.9432088697
 10
996.3226847969
 20
1457.3006102846
 10
996.00761618
 20
1459.2404522196
 10
995.5474321495
 20
1461.0994947781
 10
994.8726681635
 20
1463.4441613078
 10
994.1996856287
 20
1465.9567785489
 10
993.8051957201
 20
1467.9769656205
 10
993.6132411905
 20
1469.8462018872
 10
993.6036411369
 20
1470.7213453988
  0
LINE
  5
F2
330
1F
100
AcDbEntity
  8
0
  6
Continuous
 62
     7
370
    25
100
AcDbLine
 10
993.5898403192
 20
1470.7212122897
 30
0.0
 11
993.5898403192
 21
1480.7212122897
 31
0.0
  0
LINE
  5
F3
330
1F
100
AcDbEntity
  8
0
  6
Continuous
 62
     7
370
    25
100
AcDbLine
 10
973.0436212387
 20
1480.7212122897
 30
0.0
 11
973.0436212387
 21
1470.7212122897
 31
0.0
  0
LINE
  5
F4
330
1F
100
AcDbEntity
  8
0
  6
Continuous
 62
     7
370
    25
100
AcDbLine
 10
996.4270271509
 20
1446.9530169339
 30
0.0
 11
996.4270271509
 21
1455.9432063212
 31
0.0
  0
ARC
  5
F5
330
1F
100
AcDbEntity
  8
0
  6
Continuous
 62
     7
370
    25
100
AcDbCircle
 10
975.7195285923
 20
1470.7746231032
 30
0.0
 40
19.36179195138416
100
AcDbArc
 50
344.0411826949
 51
359.8419864633
  0
LWPOLYLINE
  5
F6
330
1F
100
AcDbEntity
  8
0
  6
Continuous
 62
     7
370
    25
100
AcDbPolyline
 90
        9
 70
   128
 43
0.0
 10
1018.4470247309
 20
1455.9432088697
 10
1018.3643666785
 20
1457.3006102846
 10
1018.0492980616
 20
1459.2404522196
 10
1017.589114031
 20
1461.0994947781
 10
1016.9143500451
 20
1463.4441613078
 10
1016.2413675103
 20
1465.9567785489
 10
1015.8468776017
 20
1467.9769656205
 10
1015.6549230721
 20
1469.8462018872
 10
1015.6453230185
 20
1470.7213453988
  0
LINE
  5
F7
330
1F
100
AcDbEntity
  8
0
  6
Continuous
 62
     7
370
    25
100
AcDbLine
 10
1015.6315222008
 20
1470.7212122897
 30
0.0
 11
1015.6315222008
 21
1480.7212122897
 31
0.0
  0
LINE
  5
F8
330
1F
100
AcDbEntity
  8
0
  6
Continuous
 62
     7
370
    25
100
AcDbLine
 10
995.0853031203
 20
1480.7212122897
 30
0.0
 11
995.0853031203
 21
1470.7212122897
 31
0.0
  0
LINE
  5
F9
330
1F
100
AcDbEntity
  8
0
  6
Continuous
 62
     7
370
    25
100
AcDbLine
 10
1018.4687090325
 20
1446.9530169339
 30
0.0
 11
1018.4687090325
 21
1455.9432063212
 31
0.0
  0
ARC
  5
FA
330
1F
100
AcDbEntity
  8
0
  6
Continuous
 62
     7
370
    25
100
AcDbCircle
 10
976.0640901294
 20
1390.3324196776
 30
0.0
 40
19.00747443542286
100
AcDbArc
 50
359.8555986729
 51
15.947560311
  0
LWPOLYLINE
  5
FB
330
1F
100
AcDbEntity
  8
0
  6
Continuous
 62
     7
370
    25
100
AcDbPolyline
 90
        9
 70
   128
 43
0.0
 10
1015.635578369
 20
1390.2847901055
 10
1015.6364575328
 20
1390.6828843736
 10
1015.7822086132
 20
1392.5625608724
 10
1016.1177132307
 20
1394.5024189584
 10
1016.6644779407
 20
1396.6820892733
 10
1017.4855206278
 20
1399.5344302195
 10
1018.0332527283
 20
1401.6912314712
 10
1018.3619026668
 20
1403.6820767745
 10
1018.4498458684
 20
1405.0626212772
  0
LINE
  5
FC
330
1F
100
AcDbEntity
  8
0
  6
Continuous
 62
     7
370
    25
100
AcDbLine
 10
1015.6315222008
 20
1380.284821578
 30
0.0
 11
1015.6315222008
 21
1390.284821578
 31
0.0
  0
LINE
  5
FD
330
1F
100
AcDbEntity
  8
0
  6
Continuous
 62
     7
370
    25
100
AcDbLine
 10
995.0853031203
 20
1390.284821578
 30
0.0
 11
995.0853031203
 21
1380.284821578
 31
0.0
  0
LINE
  5
FE
330
1F
100
AcDbEntity
  8
0
  6
Continuous
 62
     7
370
    25
100
AcDbLine
 10
1018.4687090325
 20
1405.0628275465
 30
0.0
 11
1018.4687090325
 21
1414.0530169339
 31
0.0
  0
LWPOLYLINE
  5
FF
330
1F
100
AcDbEntity
  8
0
  6
Continuous
 62
     7
370
    25
100
AcDbPolyline
 90
        3
 70
   128
 43
0.0
 10
980.1441625533
 20
1449.1722055317
 10
979.5129709397
 20
1449.1018531233
 10
978.885708602
 20
1448.7621879816
  0
LWPOLYLINE
  5
100
330
1F
100
AcDbEntity
  8
0
  6
Continuous
 62
     7
370
    25
100
AcDbPolyline
 90
        3
 70
   128
 43
0.0
 10
978.8825956335
 20
1448.761851149
 10
978.3975242148
 20
1448.3651579503
 10
977.0071933668
 20
1447.1357227786
  0
ARC
  5
101
330
1F
100
AcDbEntity
  8
0
  6
Continuous
 62
     7
370
    25
100
AcDbCircle
 10
978.2006605998
 20
1445.7543690312
 30
0.0
 40
1.807145563123555
100
AcDbArc
 50
130.8000868752
 51
184.0171799606
  0
LINE
  5
102
330
1F
100
AcDbEntity
  8
0
  6
Continuous
 62
     7
370
    25
100
AcDbLine
 10
976.3765676062
 20
1445.6278760734
 30
0.0
 11
976.3765676062
 21
1443.2030169339
 31
0.0
  0
LINE
  5
103
330
1F
100
AcDbEntity
  8
0
  6
Continuous
 62
     7
370
    25
100
AcDbLine
 10
969.2904900062
 20
1425.6030169339
 30
0.0
 11
969.2904900062
 21
1425.4530169339
 31
0.0
  0
LINE
  5
104
330
1F
100
AcDbEntity
  8
0
  6
Continuous
 62
     7
370
    25
100
AcDbLine
 10
997.3429715516
 20
1425.4530169339
 30
0.0
 11
997.3429715516
 21
1441.0530169339
 31
0.0
  0
LINE
  5
105
330
1F
100
AcDbEntity
  8
0
  6
Continuous
 62
     7
370
    25
100
AcDbLine
 10
997.3429715516
 20
1442.4530169339
 30
0.0
 11
997.3429715516
 21
1446.9530169339
 31
0.0
  0
LINE
  5
106
330
1F
100
AcDbEntity
  8
0
  6
Continuous
 62
     7
370
    25
100
AcDbLine
 10
1019.3846534332
 20
1414.0530169339
 30
0.0
 11
1019.3846534332
 21
1435.5530169339
 31
0.0
  0
LINE
  5
107
330
1F
100
AcDbEntity
  8
0
  6
Continuous
 62
     7
370
    25
100
AcDbLine
 10
990.8167307789
 20
1480.7212122897
 30
0.0
 11
990.8167307789
 21
1580.7212122897
 31
0.0
  0
LINE
  5
108
330
1F
100
AcDbEntity
  8
0
  6
Continuous
 62
     7
370
    25
100
AcDbLine
 10
975.8167307789
 20
1580.7212122897
 30
0.0
 11
975.8167307789
 21
1480.7212122897
 31
0.0
  0
LINE
  5
109
330
1F
100
AcDbEntity
  8
0
  6
Continuous
 62
     7
370
    25
100
AcDbLine
 10
1012.8584126605
 20
1480.7212122897
 30
0.0
 11
1012.8584126605
 21
1580.7212122897
 31
0.0
  0
LINE
  5
10A
330
1F
100
AcDbEntity
  8
0
  6
Continuous
 62
     7
370
    25
100
AcDbLine
 10
997.8584126605
 20
1580.7212122897
 30
0.0
 11
997.8584126605
 21
1480.7212122897
 31
0.0
  0
LINE
  5
10B
330
1F
100
AcDbEntity
  8
0
  6
Continuous
 62
     7
370
    25
100
AcDbLine
 10
1016.1084126605
 20
1584.7212122897
 30
0.0
 11
1016.1084126605
 21
1587.7212122897
 31
0.0
  0
LINE
  5
10C
330
1F
100
AcDbEntity
  8
0
  6
Continuous
 62
     7
370
    25
100
AcDbLine
 10
994.6084126605
 20
1587.7212122897
 30
0.0
 11
994.6084126605
 21
1584.7212122897
 31
0.0
  0
LINE
  5
10D
330
1F
100
AcDbEntity
  8
0
  6
Continuous
 62
     7
370
    25
100
AcDbLine
 10
1016.1084126605
 20
1590.7212122897
 30
0.0
 11
1016.1084126605
 21
1594.2212122897
 31
0.0
  0
LINE
  5
10E
330
1F
100
AcDbEntity
  8
0
  6
Continuous
 62
     7
370
    25
100
AcDbLine
 10
994.6084126605
 20
1594.2212122897
 30
0.0
 11
994.6084126605
 21
1590.7212122897
 31
0.0
  0
ARC
  5
10F
330
1F
100
AcDbEntity
  8
0
  6
Continuous
 62
     7
370
    25
100
AcDbCircle
 10
1012.1084126605
 20
1584.7212122897
 30
0.0
 40
4.0
100
AcDbArc
 50
270.0
 51
0.0
  0
ARC
  5
110
330
1F
100
AcDbEntity
  8
0
  6
Continuous
 62
     7
370
    25
100
AcDbCircle
 10
998.6084126605
 20
1584.7212122897
 30
0.0
 40
4.0
100
AcDbArc
 50
180.0
 51
270.0
  0
LINE
  5
111
330
1F
100
AcDbEntity
  8
0
  6
Continuous
 62
     7
370
    25
100
AcDbLine
 10
1015.2084126605
 20
1594.2212122897
 30
0.0
 11
1015.2084126605
 21
1597.7212122897
 31
0.0
  0
LINE
  5
112
330
1F
100
AcDbEntity
  8
0
  6
Continuous
 62
     7
370
    25
100
AcDbLine
 10
995.5084126605
 20
1597.7212122897
 30
0.0
 11
995.5084126605
 21
1594.2212122897
 31
0.0
  0
ARC
  5
113
330
1F
100
AcDbEntity
  8
0
  6
Continuous
 62
     7
370
    25
100
AcDbCircle
 10
990.0667307789
 20
1584.7212122897
 30
0.0
 40
4.0
100
AcDbArc
 50
270.0
 51
0.0
  0
ARC
  5
114
330
1F
100
AcDbEntity
  8
0
  6
Continuous
 62
     7
370
    25
100
AcDbCircle
 10
976.5667307789
 20
1584.7212122897
 30
0.0
 40
4.0
100
AcDbArc
 50
180.0
 51
270.0
  0
LINE
  5
115
330
1F
100
AcDbEntity
  8
0
  6
Continuous
 62
     7
370
    25
100
AcDbLine
 10
994.0667307789
 20
1584.7212122897
 30
0.0
 11
994.0667307789
 21
1587.7212122897
 31
0.0
  0
LINE
  5
116
330
1F
100
AcDbEntity
  8
0
  6
Continuous
 62
     7
370
    25
100
AcDbLine
 10
972.5667307789
 20
1587.7212122897
 30
0.0
 11
972.5667307789
 21
1584.7212122897
 31
0.0
  0
LINE
  5
117
330
1F
100
AcDbEntity
  8
0
  6
Continuous
 62
     7
370
    25
100
AcDbLine
 10
994.0667307789
 20
1590.7212122897
 30
0.0
 11
994.0667307789
 21
1594.2212122897
 31
0.0
  0
LINE
  5
118
330
1F
100
AcDbEntity
  8
0
  6
Continuous
 62
     7
370
    25
100
AcDbLine
 10
972.5667307789
 20
1594.2212122897
 30
0.0
 11
972.5667307789
 21
1590.7212122897
 31
0.0
  0
LINE
  5
119
330
1F
100
AcDbEntity
  8
0
  6
Continuous
 62
     7
370
    25
100
AcDbLine
 10
993.1667307789
 20
1594.2212122897
 30
0.0
 11
993.1667307789
 21
1597.7212122897
 31
0.0
  0
LINE
  5
11A
330
1F
100
AcDbEntity
  8
0
  6
Continuous
 62
     7
370
    25
100
AcDbLine
 10
973.4667307789
 20
1597.7212122897
 30
0.0
 11
973.4667307789
 21
1594.2212122897
 31
0.0
  0
LINE
  5
11B
330
1F
100
AcDbEntity
  8
0
  6
Continuous
 62
     7
370
    25
100
AcDbLine
 10
1034.6020952253
 20
1670.6012122897
 30
0.0
 11
1034.6020952253
 21
1670.2212122897
 31
0.0
  0
LINE
  5
11C
330
1F
100
AcDbEntity
  8
0
  6
Continuous
 62
     7
370
    25
100
AcDbLine
 10
1042.2020952253
 20
1670.2212122897
 30
0.0
 11
1042.2020952253
 21
1670.6012122897
 31
0.0
  0
ARC
  5
11D
330
1F
100
AcDbEntity
  8
0
  6
Continuous
 62
     7
370
    25
100
AcDbCircle
 10
1038.4020952253
 20
1668.5359375644
 30
0.0
 40
4.324969328314276
100
AcDbArc
 50
116.059831153
 51
151.4762140417
  0
ARC
  5
11E
330
1F
100
AcDbEntity
  8
0
  6
Continuous
 62
     7
370
    25
100
AcDbCircle
 10
1038.4020952253
 20
1668.5359375644
 30
0.0
 40
4.324969328314129
100
AcDbArc
 50
28.5237859583
 51
63.940168847
  0
LINE
  5
11F
330
1F
100
AcDbEntity
  8
0
  6
Continuous
 62
     7
370
    25
100
AcDbLine
 10
1004.809956319
 20
1600.3412122897
 30
0.0
 11
1004.809956319
 21
1600.7212122897
 31
0.0
  0
LINE
  5
120
330
1F
100
AcDbEntity
  8
0
  6
Continuous
 62
     7
370
    25
100
AcDbLine
 10
997.209956319
 20
1600.7212122897
 30
0.0
 11
997.209956319
 21
1600.3412122897
 31
0.0
  0
ARC
  5
121
330
1F
100
AcDbEntity
  8
0
  6
Continuous
 62
     7
370
    25
100
AcDbCircle
 10
1001.009956319
 20
1602.4064870149
 30
0.0
 40
4.324969328314384
100
AcDbArc
 50
296.059831153
 51
331.4762140417
  0
ARC
  5
122
330
1F
100
AcDbEntity
  8
0
  6
Continuous
 62
     7
370
    25
100
AcDbCircle
 10
1001.009956319
 20
1602.4064870149
 30
0.0
 40
4.324969328314434
100
AcDbArc
 50
208.5237859583
 51
243.940168847
  0
LINE
  5
123
330
1F
100
AcDbEntity
  8
0
  6
Continuous
 62
     7
370
    25
100
AcDbLine
 10
960.7454328134
 20
1600.3412122897
 30
0.0
 11
960.7454328134
 21
1600.7212122897
 31
0.0
  0
LINE
  5
124
330
1F
100
AcDbEntity
  8
0
  6
Continuous
 62
     7
370
    25
100
AcDbLine
 10
953.1454328134
 20
1600.7212122897
 30
0.0
 11
953.1454328134
 21
1600.3412122897
 31
0.0
  0
ARC
  5
125
330
1F
100
AcDbEntity
  8
0
  6
Continuous
 62
     7
370
    25
100
AcDbCircle
 10
956.9454328134
 20
1602.4064870149
 30
0.0
 40
4.324969328314285
100
AcDbArc
 50
296.059831153
 51
331.4762140417
  0
ARC
  5
126
330
1F
100
AcDbEntity
  8
0
  6
Continuous
 62
     7
370
    25
100
AcDbCircle
 10
956.9454328134
 20
1602.4064870149
 30
0.0
 40
4.324969328314185
100
AcDbArc
 50
208.5237859583
 51
243.940168847
  0
ARC
  5
127
330
1F
100
AcDbEntity
  8
0
  6
Continuous
 62
     7
370
    25
100
AcDbCircle
 10
1031.729710626
 20
1602.4064870149
 30
0.0
 40
4.324969328314434
100
AcDbArc
 50
296.059831153
 51
320.4779209961
  0
ARC
  5
128
330
1F
100
AcDbEntity
  8
0
  6
Continuous
 62
     7
370
    25
100
AcDbCircle
 10
1031.729710626
 20
1602.4064870149
 30
0.0
 40
4.324969328314333
100
AcDbArc
 50
208.5237859583
 51
243.940168847
  0
LINE
  5
129
330
1F
100
AcDbEntity
  8
0
  6
Continuous
 62
     7
370
    25
100
AcDbLine
 10
1027.929710626
 20
1600.7212122897
 30
0.0
 11
1027.929710626
 21
1600.3412122897
 31
0.0
  0
LINE
  5
12A
330
1F
100
AcDbEntity
  8
0
  6
Continuous
 62
     7
370
    25
100
AcDbLine
 10
997.209956319
 20
1670.6012122897
 30
0.0
 11
997.209956319
 21
1670.2212122897
 31
0.0
  0
LINE
  5
12B
330
1F
100
AcDbEntity
  8
0
  6
Continuous
 62
     7
370
    25
100
AcDbLine
 10
1004.809956319
 20
1670.2212122897
 30
0.0
 11
1004.809956319
 21
1670.6012122897
 31
0.0
  0
ARC
  5
12C
330
1F
100
AcDbEntity
  8
0
  6
Continuous
 62
     7
370
    25
100
AcDbCircle
 10
1001.009956319
 20
1668.5359375644
 30
0.0
 40
4.324969328314384
100
AcDbArc
 50
116.059831153
 51
151.4762140417
  0
ARC
  5
12D
330
1F
100
AcDbEntity
  8
0
  6
Continuous
 62
     7
370
    25
100
AcDbCircle
 10
1001.009956319
 20
1668.5359375644
 30
0.0
 40
4.324969328314384
100
AcDbArc
 50
28.5237859583
 51
63.940168847
  0
ARC
  5
12E
330
1F
100
AcDbEntity
  8
0
  6
Continuous
 62
     7
370
    25
100
AcDbCircle
 10
956.9454328134
 20
1668.5359375644
 30
0.0
 40
4.324969328314384
100
AcDbArc
 50
116.059831153
 51
151.4762140417
  0
ARC
  5
12F
330
1F
100
AcDbEntity
  8
0
  6
Continuous
 62
     7
370
    25
100
AcDbCircle
 10
956.9454328134
 20
1668.5359375644
 30
0.0
 40
4.324969328314384
100
AcDbArc
 50
28.5237859583
 51
63.940168847
  0
LINE
  5
130
330
1F
100
AcDbEntity
  8
0
  6
Continuous
 62
     7
370
    25
100
AcDbLine
 10
953.1454328134
 20
1670.6012122897
 30
0.0
 11
953.1454328134
 21
1670.2212122897
 31
0.0
  0
LINE
  5
131
330
1F
100
AcDbEntity
  8
0
  6
Continuous
 62
     7
370
    25
100
AcDbLine
 10
960.7454328134
 20
1670.2212122897
 30
0.0
 11
960.7454328134
 21
1670.6012122897
 31
0.0
  0
ARC
  5
132
330
1F
100
AcDbEntity
  8
0
  6
Continuous
 62
     7
370
    25
100
AcDbCircle
 10
1038.4020952253
 20
1602.4064870149
 30
0.0
 40
4.324969328314333
100
AcDbArc
 50
296.059831153
 51
331.4762140417
  0
ARC
  5
133
330
1F
100
AcDbEntity
  8
0
  6
Continuous
 62
     7
370
    25
100
AcDbCircle
 10
1038.4020952253
 20
1602.4064870149
 30
0.0
 40
4.324969328314494
100
AcDbArc
 50
208.5237859583
 51
243.940168847
  0
LINE
  5
134
330
1F
100
AcDbEntity
  8
0
  6
Continuous
 62
     7
370
    25
100
AcDbLine
 10
1042.2020952253
 20
1600.3412122897
 30
0.0
 11
1042.2020952253
 21
1600.7212122897
 31
0.0
  0
LINE
  5
135
330
1F
100
AcDbEntity
  8
0
  6
Continuous
 62
     7
370
    25
100
AcDbLine
 10
1034.6020952253
 20
1600.7212122897
 30
0.0
 11
1034.6020952253
 21
1600.3412122897
 31
0.0
  0
LINE
  5
136
330
1F
100
AcDbEntity
  8
0
  6
Continuous
 62
     7
370
    25
100
AcDbLine
 10
946.4730482141
 20
1600.7212122897
 30
0.0
 11
946.4730482141
 21
1600.3412122897
 31
0.0
  0
ARC
  5
137
330
1F
100
AcDbEntity
  8
0
  6
Continuous
 62
     7
370
    25
100
AcDbCircle
 10
950.2730482141
 20
1602.4064870149
 30
0.0
 40
4.324969328314434
100
AcDbArc
 50
296.059831153
 51
320.477920996
  0
ARC
  5
138
330
1F
100
AcDbEntity
  8
0
  6
Continuous
 62
     7
370
    25
100
AcDbCircle
 10
950.2730482141
 20
1602.4064870149
 30
0.0
 40
4.324969328314384
100
AcDbArc
 50
208.5237859583
 51
243.940168847
  0
LINE
  5
139
330
1F
100
AcDbEntity
  8
0
  6
Continuous
 62
     7
370
    25
100
AcDbLine
 10
946.4730482141
 20
1670.6012122897
 30
0.0
 11
946.4730482141
 21
1670.2212122897
 31
0.0
  0
ARC
  5
13A
330
1F
100
AcDbEntity
  8
0
  6
Continuous
 62
     7
370
    25
100
AcDbCircle
 10
950.2730482141
 20
1668.5359375644
 30
0.0
 40
4.324969328314384
100
AcDbArc
 50
116.059831153
 51
151.4762140417
  0
LINE
  5
13B
330
1F
100
AcDbEntity
  8
0
  6
Continuous
 62
     7
370
    25
100
AcDbLine
 10
1005.0099563191
 20
1602.2212122897
 30
0.0
 11
1005.0099563191
 21
1603.7212122897
 31
0.0
  0
LINE
  5
13C
330
1F
100
AcDbEntity
  8
0
  6
Continuous
 62
     7
370
    25
100
AcDbLine
 10
952.9454328134
 20
1603.7212122897
 30
0.0
 11
952.9454328134
 21
1602.2212122897
 31
0.0
  0
LINE
  5
13D
330
1F
100
AcDbEntity
  8
0
  6
Continuous
 62
     7
370
    25
100
AcDbLine
 10
1042.4020952254
 20
1602.2212122897
 30
0.0
 11
1042.4020952254
 21
1603.7212122897
 31
0.0
  0
LINE
  5
13E
330
1F
100
AcDbEntity
  8
0
  6
Continuous
 62
     7
370
    25
100
AcDbLine
 10
951.8375717197
 20
1603.7212122897
 30
0.0
 11
951.8375717197
 21
1602.2212122897
 31
0.0
  0
LINE
  5
13F
330
1F
100
AcDbEntity
  8
0
  6
Continuous
 62
     7
370
    25
100
AcDbLine
 10
946.2730482141
 20
1603.7212122897
 30
0.0
 11
946.2730482141
 21
1602.2212122897
 31
0.0
  0
LINE
  5
140
330
1F
100
AcDbEntity
  8
0
  6
Continuous
 62
     7
370
    25
100
AcDbLine
 10
1005.0099563191
 20
1600.7212122897
 30
0.0
 11
1005.0099563191
 21
1602.2212122897
 31
0.0
  0
LINE
  5
141
330
1F
100
AcDbEntity
  8
0
  6
Continuous
 62
     7
370
    25
100
AcDbLine
 10
952.9454328135
 20
1602.2212122897
 30
0.0
 11
952.9454328135
 21
1600.7212122897
 31
0.0
  0
LINE
  5
142
330
1F
100
AcDbEntity
  8
0
  6
Continuous
 62
     7
370
    25
100
AcDbLine
 10
1042.4020952254
 20
1600.7212122897
 30
0.0
 11
1042.4020952254
 21
1602.2212122897
 31
0.0
  0
LINE
  5
143
330
1F
100
AcDbEntity
  8
0
  6
Continuous
 62
     7
370
    25
100
AcDbLine
 10
951.8375717198
 20
1602.2212122897
 30
0.0
 11
951.8375717198
 21
1600.7212122897
 31
0.0
  0
LINE
  5
144
330
1F
100
AcDbEntity
  8
0
  6
Continuous
 62
     7
370
    25
100
AcDbLine
 10
946.2730482141
 20
1602.2212122897
 30
0.0
 11
946.2730482141
 21
1600.7212122897
 31
0.0
  0
LINE
  5
145
330
1F
100
AcDbEntity
  8
0
  6
Continuous
 62
     7
370
    25
100
AcDbLine
 10
1005.0099563191
 20
1603.7212122897
 30
0.0
 11
1005.0099563191
 21
1657.2212122897
 31
0.0
  0
LINE
  5
146
330
1F
100
AcDbEntity
  8
0
  6
Continuous
 62
     7
370
    25
100
AcDbLine
 10
952.9454328134
 20
1657.2212122897
 30
0.0
 11
952.9454328134
 21
1603.7212122897
 31
0.0
  0
LINE
  5
147
330
1F
100
AcDbEntity
  8
0
  6
Continuous
 62
     7
370
    25
100
AcDbLine
 10
1042.4020952253
 20
1603.7212122897
 30
0.0
 11
1042.4020952253
 21
1657.2212122897
 31
0.0
  0
LINE
  5
148
330
1F
100
AcDbEntity
  8
0
  6
Continuous
 62
     7
370
    25
100
AcDbLine
 10
951.8375717197
 20
1657.2212122897
 30
0.0
 11
951.8375717197
 21
1603.7212122897
 31
0.0
  0
LINE
  5
149
330
1F
100
AcDbEntity
  8
0
  6
Continuous
 62
     7
370
    25
100
AcDbLine
 10
946.2730482141
 20
1657.2212122897
 30
0.0
 11
946.2730482141
 21
1603.7212122897
 31
0.0
  0
LINE
  5
14A
330
1F
100
AcDbEntity
  8
0
  6
Continuous
 62
     7
370
    25
100
AcDbLine
 10
967.2393607601
 20
1425.4530169339
 30
0.0
 11
967.2393607601
 21
1475.2212122897
 31
0.0
  0
LINE
  5
14B
330
1F
100
AcDbEntity
  8
0
  6
Continuous
 62
     7
370
    25
100
AcDbLine
 10
927.0393607601
 20
1475.2212122897
 30
0.0
 11
927.0393607601
 21
1420.2212122897
 31
0.0
  0
LINE
  5
14C
330
1F
100
AcDbEntity
  8
0
  6
Continuous
 62
     7
370
    25
100
AcDbLine
 10
967.2393607601
 20
1530.2212122897
 30
0.0
 11
967.2393607601
 21
1585.2212122897
 31
0.0
  0
LINE
  5
14D
330
1F
100
AcDbEntity
  8
0
  6
Continuous
 62
     7
370
    25
100
AcDbLine
 10
927.0393607601
 20
1585.2212122897
 30
0.0
 11
927.0393607601
 21
1530.2212122897
 31
0.0
  0
LINE
  5
14E
330
1F
100
AcDbEntity
  8
0
  6
Continuous
 62
     7
370
    25
100
AcDbLine
 10
967.1393607601
 20
1585.2212122897
 30
0.0
 11
967.1393607601
 21
1600.7212122897
 31
0.0
  0
LINE
  5
14F
330
1F
100
AcDbEntity
  8
0
  6
Continuous
 62
     7
370
    25
100
AcDbLine
 10
927.1393607601
 20
1670.2212122897
 30
0.0
 11
927.1393607601
 21
1655.7212122897
 31
0.0
  0
LINE
  5
150
330
1F
100
AcDbEntity
  8
0
  6
Continuous
 62
     7
370
    25
100
AcDbLine
 10
927.1393607601
 20
1605.7212122897
 30
0.0
 11
927.1393607601
 21
1585.2212122897
 31
0.0
  0
LINE
  5
151
330
1F
100
AcDbEntity
  8
0
  6
Continuous
 62
     7
370
    25
100
AcDbLine
 10
967.1393607601
 20
1475.2212122897
 30
0.0
 11
967.1393607601
 21
1530.2212122897
 31
0.0
  0
LINE
  5
152
330
1F
100
AcDbEntity
  8
0
  6
Continuous
 62
     7
370
    25
100
AcDbLine
 10
927.1393607601
 20
1530.2212122897
 30
0.0
 11
927.1393607601
 21
1475.2212122897
 31
0.0
  0
LINE
  5
153
330
1F
100
AcDbEntity
  8
0
  6
Continuous
 62
     7
370
    25
100
AcDbLine
 10
967.1393607601
 20
1270.2212122897
 30
0.0
 11
967.1393607601
 21
1414.0530169339
 31
0.0
  0
LINE
  5
154
330
1F
100
AcDbEntity
  8
0
  6
Continuous
 62
     7
370
    25
100
AcDbLine
 10
927.1393607601
 20
1420.2212122897
 30
0.0
 11
927.1393607601
 21
1270.2212122897
 31
0.0
  0
LINE
  5
155
330
1F
100
AcDbEntity
  8
0
  6
Continuous
 62
     7
370
    25
100
AcDbLine
 10
931.8393607601
 20
1270.2212122897
 30
0.0
 11
931.8393607601
 21
1260.2212122897
 31
0.0
  0
LINE
  5
156
330
1F
100
AcDbEntity
  8
0
  6
Continuous
 62
     7
370
    25
100
AcDbLine
 10
962.4393607601
 20
1260.2212122897
 30
0.0
 11
962.4393607601
 21
1270.2212122897
 31
0.0
  0
LINE
  5
157
330
1F
100
AcDbEntity
  8
0
  6
Continuous
 62
     7
370
    25
100
AcDbLine
 10
993.5179100195
 20
1657.2212122897
 30
0.0
 11
993.5179100195
 21
1669.2212122897
 31
0.0
  0
LINE
  5
158
330
1F
100
AcDbEntity
  8
0
  6
Continuous
 62
     7
370
    25
100
AcDbLine
 10
1008.509956319
 20
1657.2212122897
 30
0.0
 11
993.5179100195
 21
1657.2212122897
 31
0.0
  0
ARC
  5
159
330
1F
100
AcDbEntity
  8
0
  6
Continuous
 62
     7
370
    25
100
AcDbCircle
 10
994.5173800543
 20
1669.2217422552
 30
0.0
 40
0.9994701752622235
100
AcDbArc
 50
90.0304131398
 51
180.0303808869
  0
LINE
  5
15A
330
1F
100
AcDbEntity
  8
0
  6
Continuous
 62
     7
370
    25
100
AcDbLine
 10
994.5168495261
 20
1670.2212122897
 30
0.0
 11
1007.509956319
 21
1670.2212122897
 31
0.0
  0
LINE
  5
15B
330
1F
100
AcDbEntity
  8
0
  6
Continuous
 62
     7
370
    25
100
AcDbLine
 10
953.8375717197
 20
1710.2212122897
 30
0.0
 11
1034.8375717197
 21
1710.2212122897
 31
0.0
  0
ARC
  5
15C
330
1F
100
AcDbEntity
  8
0
  6
Continuous
 62
     7
370
    25
100
AcDbCircle
 10
1032.0769860827
 20
1669.294563232
 30
0.0
 40
0.9307485981771849
100
AcDbArc
 50
355.4799158677
 51
84.62041761
  0
LINE
  5
15D
330
1F
100
AcDbEntity
  8
0
  6
Continuous
 62
     7
370
    25
100
AcDbLine
 10
1033.0048398386
 20
1669.2212122897
 30
0.0
 11
1009.2738198533
 21
1669.2212122897
 31
0.0
  0
LWPOLYLINE
  5
15E
330
1F
100
AcDbEntity
  8
0
  6
Continuous
 62
     7
370
    25
100
AcDbPolyline
 90
        9
 70
   128
 43
0.0
 10
1008.949118807
 20
1670.2212122897
 10
1009.0124648387
 20
1670.2019975701
 10
1009.0733765179
 20
1670.1450918222
 10
1009.129513043
 20
1670.052681902
 10
1009.1787171187
 20
1669.9283190709
 10
1009.2190978601
 20
1669.7767825227
 10
1009.2491034579
 20
1669.603895722
 10
1009.2675808138
 20
1669.4163026117
 10
1009.2738198533
 20
1669.2212122897
  0
LINE
  5
15F
330
1F
100
AcDbEntity
  8
0
  6
Continuous
 62
     7
370
    25
100
AcDbLine
 10
1008.949118807
 20
1670.2212122897
 30
0.0
 11
1032.1642470534
 21
1670.2212122897
 31
0.0
  0
LINE
  5
160
330
1F
100
AcDbEntity
  8
0
  6
Continuous
 62
     7
370
    25
100
AcDbLine
 10
1009.2738198533
 20
1657.2212122897
 30
0.0
 11
1009.2738198533
 21
1669.2212122897
 31
0.0
  0
LINE
  5
161
330
1F
100
AcDbEntity
  8
0
  6
Continuous
 62
     7
370
    25
100
AcDbLine
 10
1033.0048398386
 20
1657.2212122897
 30
0.0
 11
1033.0048398386
 21
1669.2212122897
 31
0.0
  0
LINE
  5
162
330
1F
100
AcDbEntity
  8
0
  6
Continuous
 62
     7
370
    25
100
AcDbLine
 10
1033.0048398386
 20
1657.2212122897
 30
0.0
 11
1009.2738198533
 21
1657.2212122897
 31
0.0
  0
LINE
  5
163
330
1F
100
AcDbEntity
  8
0
  6
Continuous
 62
     7
370
    25
100
AcDbLine
 10
964.1270364584
 20
1657.2212122897
 30
0.0
 11
964.1270364584
 21
1669.2212122897
 31
0.0
  0
LINE
  5
164
330
1F
100
AcDbEntity
  8
0
  6
Continuous
 62
     7
370
    25
100
AcDbLine
 10
992.0927030005
 20
1669.2212122897
 30
0.0
 11
964.1270364584
 21
1669.2212122897
 31
0.0
  0
LINE
  5
165
330
1F
100
AcDbEntity
  8
0
  6
Continuous
 62
     7
370
    25
100
AcDbLine
 10
992.0927030005
 20
1657.2212122897
 30
0.0
 11
992.0927030005
 21
1669.2212122897
 31
0.0
  0
LINE
  5
166
330
1F
100
AcDbEntity
  8
0
  6
Continuous
 62
     7
370
    25
100
AcDbLine
 10
992.0927030005
 20
1657.2212122897
 30
0.0
 11
964.1270364584
 21
1657.2212122897
 31
0.0
  0
LWPOLYLINE
  5
167
330
1F
100
AcDbEntity
  8
0
  6
Continuous
 62
     7
370
    25
100
AcDbPolyline
 90
        9
 70
   128
 43
0.0
 10
964.1270364584
 20
1669.2212122897
 10
964.1396557402
 20
1669.4163026117
 10
964.1770286337
 20
1669.603895722
 10
964.2377189197
 20
1669.7767825227
 10
964.3193943043
 20
1669.9283190709
 10
964.4189160485
 20
1670.052681902
 10
964.5324595874
 20
1670.1450918222
 10
964.6556615064
 20
1670.2019975701
 10
964.7837872249
 20
1670.2212122897
  0
ARC
  5
168
330
1F
100
AcDbEntity
  8
0
  6
Continuous
 62
     7
370
    25
100
AcDbCircle
 10
997.2520981185
 20
1669.4706168932
 30
0.0
 40
5.165419696385887
100
AcDbArc
 50
171.6446763819
 51
182.7675174827
  0
LINE
  5
169
330
1F
100
AcDbEntity
  8
0
  6
Continuous
 62
     7
370
    25
100
AcDbLine
 10
964.7837872249
 20
1670.2212122897
 30
0.0
 11
992.1415044944
 21
1670.2212122897
 31
0.0
  0
LINE
  5
16A
330
1F
100
AcDbEntity
  8
0
  6
Continuous
 62
     7
370
    25
100
AcDbLine
 10
993.5179100195
 20
1669.2212122897
 30
0.0
 11
992.0927030005
 21
1669.2212122897
 31
0.0
  0
LINE
  5
16B
330
1F
100
AcDbEntity
  8
0
  6
Continuous
 62
     7
370
    25
100
AcDbLine
 10
992.1415044944
 20
1670.2212122897
 30
0.0
 11
994.5168495261
 21
1670.2212122897
 31
0.0
  0
LINE
  5
16C
330
1F
100
AcDbEntity
  8
0
  6
Continuous
 62
     7
370
    25
100
AcDbLine
 10
993.5179100195
 20
1657.2212122897
 30
0.0
 11
992.0927030005
 21
1657.2212122897
 31
0.0
  0
LINE
  5
16D
330
1F
100
AcDbEntity
  8
0
  6
Continuous
 62
     7
370
    25
100
AcDbLine
 10
1007.509956319
 20
1670.2212122897
 30
0.0
 11
1008.949118807
 21
1670.2212122897
 31
0.0
  0
LINE
  5
16E
330
1F
100
AcDbEntity
  8
0
  6
Continuous
 62
     7
370
    25
100
AcDbLine
 10
1008.509956319
 20
1657.2212122897
 30
0.0
 11
1009.2738198533
 21
1657.2212122897
 31
0.0
  0
ARC
  5
16F
330
1F
100
AcDbEntity
  8
0
  6
Continuous
 62
     7
370
    25
100
AcDbCircle
 10
961.2296814097
 20
1669.352705088
 30
0.0
 40
0.8892581666563322
100
AcDbArc
 50
351.49660765
 51
77.5980204468
  0
LINE
  5
170
330
1F
100
AcDbEntity
  8
0
  6
Continuous
 62
     7
370
    25
100
AcDbLine
 10
950.4454328134
 20
1670.2212122897
 30
0.0
 11
961.4206665599
 21
1670.2212122897
 31
0.0
  0
LINE
  5
171
330
1F
100
AcDbEntity
  8
0
  6
Continuous
 62
     7
370
    25
100
AcDbLine
 10
962.1091640594
 20
1657.2212122897
 30
0.0
 11
962.1091640594
 21
1669.2212122897
 31
0.0
  0
LINE
  5
172
330
1F
100
AcDbEntity
  8
0
  6
Continuous
 62
     7
370
    25
100
AcDbLine
 10
962.1091640594
 20
1657.2212122897
 30
0.0
 11
949.4454328134
 21
1657.2212122897
 31
0.0
  0
LINE
  5
173
330
1F
100
AcDbEntity
  8
0
  6
Continuous
 62
     7
370
    25
100
AcDbLine
 10
964.1270364584
 20
1669.2212122897
 30
0.0
 11
962.1091640594
 21
1669.2212122897
 31
0.0
  0
LINE
  5
174
330
1F
100
AcDbEntity
  8
0
  6
Continuous
 62
     7
370
    25
100
AcDbLine
 10
961.4206665599
 20
1670.2212122897
 30
0.0
 11
964.7837872249
 21
1670.2212122897
 31
0.0
  0
LINE
  5
175
330
1F
100
AcDbEntity
  8
0
  6
Continuous
 62
     7
370
    25
100
AcDbLine
 10
962.1091640594
 20
1657.2212122897
 30
0.0
 11
964.1270364584
 21
1657.2212122897
 31
0.0
  0
LINE
  5
176
330
1F
100
AcDbEntity
  8
0
  6
Continuous
 62
     7
370
    25
100
AcDbLine
 10
1034.9551233845
 20
1657.2212122897
 30
0.0
 11
1034.9551233845
 21
1669.2212122897
 31
0.0
  0
LINE
  5
177
330
1F
100
AcDbEntity
  8
0
  6
Continuous
 62
     7
370
    25
100
AcDbLine
 10
1045.9020952253
 20
1657.2212122897
 30
0.0
 11
1034.9551233845
 21
1657.2212122897
 31
0.0
  0
LWPOLYLINE
  5
178
330
1F
100
AcDbEntity
  8
0
  6
Continuous
 62
     7
370
    25
100
AcDbPolyline
 90
        9
 70
   128
 43
0.0
 10
1035.4147196299
 20
1670.2212122897
 10
1035.3250568504
 20
1670.2019975701
 10
1035.2388397612
 20
1670.1450918222
 10
1035.1593816367
 20
1670.052681902
 10
1035.0897360082
 20
1669.9283190709
 10
1035.0325793179
 20
1669.7767825227
 10
1034.9901080655
 20
1669.603895722
 10
1034.9639543975
 20
1669.4163026117
 10
1034.9551233845
 20
1669.2212122897
  0
LINE
  5
179
330
1F
100
AcDbEntity
  8
0
  6
Continuous
 62
     7
370
    25
100
AcDbLine
 10
1035.4147196299
 20
1670.2212122897
 30
0.0
 11
1044.9020952253
 21
1670.2212122897
 31
0.0
  0
LINE
  5
17A
330
1F
100
AcDbEntity
  8
0
  6
Continuous
 62
     7
370
    25
100
AcDbLine
 10
1034.9551233845
 20
1669.2212122897
 30
0.0
 11
1033.0048398386
 21
1669.2212122897
 31
0.0
  0
LINE
  5
17B
330
1F
100
AcDbEntity
  8
0
  6
Continuous
 62
     7
370
    25
100
AcDbLine
 10
1032.1642470534
 20
1670.2212122897
 30
0.0
 11
1035.4147196299
 21
1670.2212122897
 31
0.0
  0
LINE
  5
17C
330
1F
100
AcDbEntity
  8
0
  6
Continuous
 62
     7
370
    25
100
AcDbLine
 10
1034.9551233845
 20
1657.2212122897
 30
0.0
 11
1033.0048398386
 21
1657.2212122897
 31
0.0
  0
LINE
  5
17D
330
1F
100
AcDbEntity
  8
0
  6
Continuous
 62
     7
370
    25
100
AcDbLine
 10
949.3375717197
 20
1670.2212122897
 30
0.0
 11
950.4454328134
 21
1670.2212122897
 31
0.0
  0
LINE
  5
17E
330
1F
100
AcDbEntity
  8
0
  6
Continuous
 62
     7
370
    25
100
AcDbLine
 10
949.4454328134
 20
1657.2212122897
 30
0.0
 11
948.3375717197
 21
1657.2212122897
 31
0.0
  0
LWPOLYLINE
  5
17F
330
1F
100
AcDbEntity
  8
0
  6
Continuous
 62
     7
370
    25
100
AcDbPolyline
 90
        9
 70
   128
 43
0.0
 10
948.1443502068
 20
1669.2212122897
 10
948.1498038515
 20
1669.4163026117
 10
948.1659552051
 20
1669.603895722
 10
948.1921835802
 20
1669.7767825227
 10
948.2274810349
 20
1669.9283190709
 10
948.270491108
 20
1670.052681902
 10
948.3195609464
 20
1670.1450918222
 10
948.3728048238
 20
1670.2019975701
 10
948.4281766077
 20
1670.2212122897
  0
LINE
  5
180
330
1F
100
AcDbEntity
  8
0
  6
Continuous
 62
     7
370
    25
100
AcDbLine
 10
948.4281766077
 20
1670.2212122897
 30
0.0
 11
949.3375717197
 21
1670.2212122897
 31
0.0
  0
LINE
  5
181
330
1F
100
AcDbEntity
  8
0
  6
Continuous
 62
     7
370
    25
100
AcDbLine
 10
948.1443502068
 20
1657.2212122897
 30
0.0
 11
948.1443502068
 21
1669.2212122897
 31
0.0
  0
LINE
  5
182
330
1F
100
AcDbEntity
  8
0
  6
Continuous
 62
     7
370
    25
100
AcDbLine
 10
948.1443502068
 20
1657.2212122897
 30
0.0
 11
948.3375717197
 21
1657.2212122897
 31
0.0
  0
LINE
  5
183
330
1F
100
AcDbEntity
  8
0
  6
Continuous
 62
     7
370
    25
100
AcDbLine
 10
943.7730482141
 20
1670.2212122897
 30
0.0
 11
948.4281766077
 21
1670.2212122897
 31
0.0
  0
LINE
  5
184
330
1F
100
AcDbEntity
  8
0
  6
Continuous
 62
     7
370
    25
100
AcDbLine
 10
948.1443502068
 20
1657.2212122897
 30
0.0
 11
942.7730482141
 21
1657.2212122897
 31
0.0
  0
LINE
  5
185
330
1F
100
AcDbEntity
  8
0
  6
Continuous
 62
     7
370
    25
100
AcDbLine
 10
999.5736294144
 20
1442.4530169339
 30
0.0
 11
999.5736294144
 21
1441.0530169339
 31
0.0
  0
LINE
  5
186
330
1F
100
AcDbEntity
  8
0
  6
Continuous
 62
     7
370
    25
100
AcDbLine
 10
999.5736294144
 20
1442.4530169339
 30
0.0
 11
1005.8309522977
 21
1442.4530169339
 31
0.0
  0
LINE
  5
187
330
1F
100
AcDbEntity
  8
0
  6
Continuous
 62
     7
370
    25
100
AcDbLine
 10
1005.8309522977
 20
1442.4530169339
 30
0.0
 11
1008.4821429816
 21
1442.4530169339
 31
0.0
  0
LWPOLYLINE
  5
188
330
1F
100
AcDbEntity
  8
0
  6
Continuous
 62
     7
370
    25
100
AcDbPolyline
 90
        3
 70
   128
 43
0.0
 10
1008.9073940239
 20
1441.9530169339
 10
1008.8986929379
 20
1441.9636843181
 10
1008.4821429816
 20
1442.4530169339
  0
LINE
  5
189
330
1F
100
AcDbEntity
  8
0
  6
Continuous
 62
     7
370
    25
100
AcDbLine
 10
1008.9073940239
 20
1441.9530169339
 30
0.0
 11
1008.9073940239
 21
1441.0530169339
 31
0.0
  0
LINE
  5
18A
330
1F
100
AcDbEntity
  8
0
  6
Continuous
 62
     7
370
    25
100
AcDbLine
 10
999.5736294144
 20
1441.0530169339
 30
0.0
 11
1008.9073940239
 21
1441.0530169339
 31
0.0
  0
LINE
  5
18B
330
1F
100
AcDbEntity
  8
0
  6
Continuous
 62
     7
370
    25
100
AcDbLine
 10
1000.7085041471
 20
1441.0530169339
 30
0.0
 11
1000.7085041471
 21
1435.5530169339
 31
0.0
  0
LINE
  5
18C
330
1F
100
AcDbEntity
  8
0
  6
Continuous
 62
     7
370
    25
100
AcDbLine
 10
1007.7795379422
 20
1441.0530169339
 30
0.0
 11
1007.7795379422
 21
1435.5530169339
 31
0.0
  0
LINE
  5
18D
330
1F
100
AcDbEntity
  8
0
  6
Continuous
 62
     7
370
    25
100
AcDbLine
 10
1000.7085041471
 20
1435.5530169339
 30
0.0
 11
1007.7795379422
 21
1435.5530169339
 31
0.0
  0
LINE
  5
18E
330
1F
100
AcDbEntity
  8
0
  6
Continuous
 62
     7
370
    25
100
AcDbLine
 10
997.3429715516
 20
1446.9530169339
 30
0.0
 11
1002.3240690722
 21
1446.9530169339
 31
0.0
  0
LWPOLYLINE
  5
18F
330
1F
100
AcDbEntity
  8
0
  6
Continuous
 62
     7
370
    25
100
AcDbPolyline
 90
        9
 70
   128
 43
0.0
 10
1005.8309522977
 20
1442.4530169339
 10
1005.7074379737
 20
1443.3539861461
 10
1005.4699112143
 20
1444.2077456344
 10
1005.1263761731
 20
1444.9855254948
 10
1004.6884092605
 20
1445.6611161774
 10
1004.1707690428
 20
1446.2117516933
 10
1003.5908989096
 20
1446.6188767805
 10
1002.968339268
 20
1446.8687721776
 10
1002.3240690722
 20
1446.9530169339
  0
LINE
  5
190
330
1F
100
AcDbEntity
  8
0
  6
Continuous
 62
     7
370
    25
100
AcDbLine
 10
1002.3240690722
 20
1446.9530169339
 30
0.0
 11
1003.0333657801
 21
1446.9530169339
 31
0.0
  0
LWPOLYLINE
  5
191
330
1F
100
AcDbEntity
  8
0
  6
Continuous
 62
     7
370
    25
100
AcDbPolyline
 90
        9
 70
   128
 43
0.0
 10
1003.0333657801
 20
1446.9530169339
 10
1003.6776359759
 20
1446.8687721776
 10
1004.3001956175
 20
1446.6188767805
 10
1004.8800657508
 20
1446.2117516933
 10
1005.3977059685
 20
1445.6611161774
 10
1005.8356728811
 20
1444.9855254948
 10
1006.1792079222
 20
1444.2077456344
 10
1006.4167346816
 20
1443.3539861461
 10
1006.5402490057
 20
1442.4530169339
  0
LWPOLYLINE
  5
192
330
1F
100
AcDbEntity
  8
0
  6
Continuous
 62
     7
370
    25
100
AcDbPolyline
 90
        9
 70
   128
 43
0.0
 10
1009.3153050188
 20
1442.4530169339
 10
1009.1917906948
 20
1443.3539861461
 10
1008.9542639354
 20
1444.2077456344
 10
1008.6107288942
 20
1444.9855254948
 10
1008.1727619816
 20
1445.6611161774
 10
1007.6551217639
 20
1446.2117516933
 10
1007.0752516307
 20
1446.6188767805
 10
1006.4526919891
 20
1446.8687721776
 10
1005.8084217933
 20
1446.9530169339
  0
LWPOLYLINE
  5
193
330
1F
100
AcDbEntity
  8
0
  6
Continuous
 62
     7
370
    25
100
AcDbPolyline
 90
        9
 70
   128
 43
0.0
 10
1006.5177185012
 20
1446.9530169339
 10
1007.161988697
 20
1446.8687721776
 10
1007.7845483386
 20
1446.6188767805
 10
1008.3644184719
 20
1446.2117516933
 10
1008.8820586896
 20
1445.6611161774
 10
1009.3200256022
 20
1444.9855254948
 10
1009.6635606433
 20
1444.2077456344
 10
1009.9010874027
 20
1443.3539861461
 10
1010.0246017268
 20
1442.4530169339
  0
LINE
  5
194
330
1F
100
AcDbEntity
  8
0
  6
Continuous
 62
     7
370
    25
100
AcDbLine
 10
1010.0246017268
 20
1442.4530169339
 30
0.0
 11
1012.6489995462
 21
1442.4530169339
 31
0.0
  0
LWPOLYLINE
  5
195
330
1F
100
AcDbEntity
  8
0
  6
Continuous
 62
     7
370
    25
100
AcDbPolyline
 90
        9
 70
   128
 43
0.0
 10
1012.6489995462
 20
1442.4530169339
 10
1012.5254852221
 20
1443.3539861461
 10
1012.2879584627
 20
1444.2077456344
 10
1011.9444234215
 20
1444.9855254948
 10
1011.5064565089
 20
1445.6611161774
 10
1010.9888162912
 20
1446.2117516933
 10
1010.408946158
 20
1446.6188767805
 10
1009.7863865164
 20
1446.8687721776
 10
1009.1421163206
 20
1446.9530169339
  0
LINE
  5
196
330
1F
100
AcDbEntity
  8
0
  6
Continuous
 62
     7
370
    25
100
AcDbLine
 10
1009.1421163206
 20
1446.9530169339
 30
0.0
 11
1009.8514130286
 21
1446.9530169339
 31
0.0
  0
LWPOLYLINE
  5
197
330
1F
100
AcDbEntity
  8
0
  6
Continuous
 62
     7
370
    25
100
AcDbPolyline
 90
        9
 70
   128
 43
0.0
 10
1009.8514130286
 20
1446.9530169339
 10
1010.4956832244
 20
1446.8687721776
 10
1011.1182428659
 20
1446.6188767805
 10
1011.6981129992
 20
1446.2117516933
 10
1012.2157532169
 20
1445.6611161774
 10
1012.6537201295
 20
1444.9855254948
 10
1012.9972551706
 20
1444.2077456344
 10
1013.23478193
 20
1443.3539861461
 10
1013.3582962541
 20
1442.4530169339
  0
LINE
  5
198
330
1F
100
AcDbEntity
  8
0
  6
Continuous
 62
     7
370
    25
100
AcDbLine
 10
1013.3582962541
 20
1442.4530169339
 30
0.0
 11
1015.9826940735
 21
1442.4530169339
 31
0.0
  0
LWPOLYLINE
  5
199
330
1F
100
AcDbEntity
  8
0
  6
Continuous
 62
     7
370
    25
100
AcDbPolyline
 90
        9
 70
   128
 43
0.0
 10
1015.9826940735
 20
1442.4530169339
 10
1015.8591797494
 20
1443.3539861461
 10
1015.62165299
 20
1444.2077456344
 10
1015.2781179489
 20
1444.9855254948
 10
1014.8401510363
 20
1445.6611161774
 10
1014.3225108186
 20
1446.2117516933
 10
1013.7426406853
 20
1446.6188767805
 10
1013.1200810437
 20
1446.8687721776
 10
1012.4758108479
 20
1446.9530169339
  0
LINE
  5
19A
330
1F
100
AcDbEntity
  8
0
  6
Continuous
 62
     7
370
    25
100
AcDbLine
 10
1012.4758108479
 20
1446.9530169339
 30
0.0
 11
1013.1851075559
 21
1446.9530169339
 31
0.0
  0
LWPOLYLINE
  5
19B
330
1F
100
AcDbEntity
  8
0
  6
Continuous
 62
     7
370
    25
100
AcDbPolyline
 90
        9
 70
   128
 43
0.0
 10
1013.1851075559
 20
1446.9530169339
 10
1013.8293777517
 20
1446.8687721776
 10
1014.4519373933
 20
1446.6188767805
 10
1015.0318075265
 20
1446.2117516933
 10
1015.5494477442
 20
1445.6611161774
 10
1015.9874146568
 20
1444.9855254948
 10
1016.3309496979
 20
1444.2077456344
 10
1016.5684764573
 20
1443.3539861461
 10
1016.6919907814
 20
1442.4530169339
  0
LINE
  5
19C
330
1F
100
AcDbEntity
  8
0
  6
Continuous
 62
     7
370
    25
100
AcDbLine
 10
1016.6919907814
 20
1442.4530169339
 30
0.0
 11
1019.3163886008
 21
1442.4530169339
 31
0.0
  0
LWPOLYLINE
  5
19D
330
1F
100
AcDbEntity
  8
0
  6
Continuous
 62
     7
370
    25
100
AcDbPolyline
 90
        9
 70
   128
 43
0.0
 10
1019.3163886008
 20
1442.4530169339
 10
1019.1928742767
 20
1443.3539861461
 10
1018.9553475173
 20
1444.2077456344
 10
1018.6118124762
 20
1444.9855254948
 10
1018.1738455636
 20
1445.6611161774
 10
1017.6562053459
 20
1446.2117516933
 10
1017.0763352126
 20
1446.6188767805
 10
1016.4537755711
 20
1446.8687721776
 10
1015.8095053753
 20
1446.9530169339
  0
LINE
  5
19E
330
1F
100
AcDbEntity
  8
0
  6
Continuous
 62
     7
370
    25
100
AcDbLine
 10
1015.8095053753
 20
1446.9530169339
 30
0.0
 11
1016.5188020832
 21
1446.9530169339
 31
0.0
  0
LWPOLYLINE
  5
19F
330
1F
100
AcDbEntity
  8
0
  6
Continuous
 62
     7
370
    25
100
AcDbPolyline
 90
        9
 70
   128
 43
0.0
 10
1016.5188020832
 20
1446.9530169339
 10
1017.163072279
 20
1446.8687721776
 10
1017.7856319206
 20
1446.6188767805
 10
1018.3655020538
 20
1446.2117516933
 10
1018.8831422715
 20
1445.6611161774
 10
1019.3211091841
 20
1444.9855254948
 10
1019.6646442253
 20
1444.2077456344
 10
1019.9021709847
 20
1443.3539861461
 10
1020.0256853087
 20
1442.4530169339
  0
LINE
  5
1A0
330
1F
100
AcDbEntity
  8
0
  6
Continuous
 62
     7
370
    25
100
AcDbLine
 10
1020.0256853087
 20
1442.4530169339
 30
0.0
 11
1022.6500831281
 21
1442.4530169339
 31
0.0
  0
LWPOLYLINE
  5
1A1
330
1F
100
AcDbEntity
  8
0
  6
Continuous
 62
     7
370
    25
100
AcDbPolyline
 90
        9
 70
   128
 43
0.0
 10
1022.6500831281
 20
1442.4530169339
 10
1022.526568804
 20
1443.3539861461
 10
1022.2890420446
 20
1444.2077456344
 10
1021.9455070035
 20
1444.9855254948
 10
1021.5075400909
 20
1445.6611161774
 10
1020.9898998732
 20
1446.2117516933
 10
1020.41002974
 20
1446.6188767805
 10
1019.7874700984
 20
1446.8687721776
 10
1019.1431999026
 20
1446.9530169339
  0
LINE
  5
1A2
330
1F
100
AcDbEntity
  8
0
  6
Continuous
 62
     7
370
    25
100
AcDbLine
 10
1019.1431999026
 20
1446.9530169339
 30
0.0
 11
1019.8524966105
 21
1446.9530169339
 31
0.0
  0
LWPOLYLINE
  5
1A3
330
1F
100
AcDbEntity
  8
0
  6
Continuous
 62
     7
370
    25
100
AcDbPolyline
 90
        9
 70
   128
 43
0.0
 10
1019.8524966105
 20
1446.9530169339
 10
1020.4967668063
 20
1446.8687721776
 10
1021.1193264479
 20
1446.6188767805
 10
1021.6991965811
 20
1446.2117516933
 10
1022.2168367988
 20
1445.6611161774
 10
1022.6548037114
 20
1444.9855254948
 10
1022.9983387526
 20
1444.2077456344
 10
1023.235865512
 20
1443.3539861461
 10
1023.3593798361
 20
1442.4530169339
  0
LINE
  5
1A4
330
1F
100
AcDbEntity
  8
0
  6
Continuous
 62
     7
370
    25
100
AcDbLine
 10
1023.3593798361
 20
1442.4530169339
 30
0.0
 11
1024.1925418733
 21
1442.4530169339
 31
0.0
  0
LWPOLYLINE
  5
1A5
330
1F
100
AcDbEntity
  8
0
  6
Continuous
 62
     7
370
    25
100
AcDbPolyline
 90
        3
 70
   128
 43
0.0
 10
1024.1925418733
 20
1442.4530169339
 10
1023.8113099338
 20
1441.9636843181
 10
1023.8026248906
 20
1441.9530169339
  0
LINE
  5
1A6
330
1F
100
AcDbEntity
  8
0
  6
Continuous
 62
     7
370
    25
100
AcDbLine
 10
1023.8026248906
 20
1441.9530169339
 30
0.0
 11
1008.9073940239
 21
1441.9530169339
 31
0.0
  0
LINE
  5
1A7
330
1F
100
AcDbEntity
  8
0
  6
Continuous
 62
     7
370
    25
100
AcDbLine
 10
1005.8084217933
 20
1446.9530169339
 30
0.0
 11
1006.5177185012
 21
1446.9530169339
 31
0.0
  0
LINE
  5
1A8
330
1F
100
AcDbEntity
  8
0
  6
Continuous
 62
     7
370
    25
100
AcDbLine
 10
1008.4821429816
 20
1442.4530169339
 30
0.0
 11
1009.3153050188
 21
1442.4530169339
 31
0.0
  0
LINE
  5
1A9
330
1F
100
AcDbEntity
  8
0
  6
Continuous
 62
     7
370
    25
100
AcDbLine
 10
1023.8026248906
 20
1441.9530169339
 30
0.0
 11
1023.8026248906
 21
1441.0530169339
 31
0.0
  0
LINE
  5
1AA
330
1F
100
AcDbEntity
  8
0
  6
Continuous
 62
     7
370
    25
100
AcDbLine
 10
1008.9073940239
 20
1441.0530169339
 30
0.0
 11
1023.8026248906
 21
1441.0530169339
 31
0.0
  0
LINE
  5
1AB
330
1F
100
AcDbEntity
  8
0
  6
Continuous
 62
     7
370
    25
100
AcDbLine
 10
997.2594145548
 20
1442.4530169339
 30
0.0
 11
999.5736294144
 21
1442.4530169339
 31
0.0
  0
LINE
  5
1AC
330
1F
100
AcDbEntity
  8
0
  6
Continuous
 62
     7
370
    25
100
AcDbLine
 10
997.2594145548
 20
1441.0530169339
 30
0.0
 11
999.5736294144
 21
1441.0530169339
 31
0.0
  0
LINE
  5
1AD
330
1F
100
AcDbEntity
  8
0
  6
Continuous
 62
     7
370
    25
100
AcDbLine
 10
1003.8694785152
 20
1446.9530169339
 30
0.0
 11
1005.8084217933
 21
1446.9530169339
 31
0.0
  0
LINE
  5
1AE
330
1F
100
AcDbEntity
  8
0
  6
Continuous
 62
     7
370
    25
100
AcDbLine
 10
1022.6747688089
 20
1441.0530169339
 30
0.0
 11
1022.6747688089
 21
1435.5530169339
 31
0.0
  0
LINE
  5
1AF
330
1F
100
AcDbEntity
  8
0
  6
Continuous
 62
     7
370
    25
100
AcDbLine
 10
1007.7795379422
 20
1435.5530169339
 30
0.0
 11
1022.6747688089
 21
1435.5530169339
 31
0.0
  0
LINE
  5
1B0
330
1F
100
AcDbEntity
  8
0
  6
Continuous
 62
     7
370
    25
100
AcDbLine
 10
997.3429715516
 20
1435.5530169339
 30
0.0
 11
1000.7085041471
 21
1435.5530169339
 31
0.0
  0
LINE
  5
1B1
330
1F
100
AcDbEntity
  8
0
  6
Continuous
 62
     7
370
    25
100
AcDbLine
 10
1007.2036136802
 20
1446.9530169339
 30
0.0
 11
1009.1421163206
 21
1446.9530169339
 31
0.0
  0
LINE
  5
1B2
330
1F
100
AcDbEntity
  8
0
  6
Continuous
 62
     7
370
    25
100
AcDbLine
 10
999.6577190558
 20
1435.5530169339
 30
0.0
 11
999.6577190558
 21
1431.9530169339
 31
0.0
  0
LINE
  5
1B3
330
1F
100
AcDbEntity
  8
0
  6
Continuous
 62
     7
370
    25
100
AcDbLine
 10
999.6577190558
 20
1431.9530169339
 30
0.0
 11
1001.2536366487
 21
1431.9530169339
 31
0.0
  0
LINE
  5
1B4
330
1F
100
AcDbEntity
  8
0
  6
Continuous
 62
     7
370
    25
100
AcDbLine
 10
999.6577190558
 20
1431.9530169339
 30
0.0
 11
997.3429715516
 21
1431.9530169339
 31
0.0
  0
LINE
  5
1B5
330
1F
100
AcDbEntity
  8
0
  6
Continuous
 62
     7
370
    25
100
AcDbLine
 10
997.3429715516
 20
1425.5530169339
 30
0.0
 11
999.6577190558
 21
1425.5530169339
 31
0.0
  0
LINE
  5
1B6
330
1F
100
AcDbEntity
  8
0
  6
Continuous
 62
     7
370
    25
100
AcDbLine
 10
999.6577190558
 20
1426.5530169339
 30
0.0
 11
997.3429715516
 21
1426.5530169339
 31
0.0
  0
LINE
  5
1B7
330
1F
100
AcDbEntity
  8
0
  6
Continuous
 62
     7
370
    25
100
AcDbLine
 10
999.6577190558
 20
1426.5530169339
 30
0.0
 11
999.6577190558
 21
1425.5530169339
 31
0.0
  0
LINE
  5
1B8
330
1F
100
AcDbEntity
  8
0
  6
Continuous
 62
     7
370
    25
100
AcDbLine
 10
1000.3670157637
 20
1429.3530169339
 30
0.0
 11
1001.2536366487
 21
1429.3530169339
 31
0.0
  0
LINE
  5
1B9
330
1F
100
AcDbEntity
  8
0
  6
Continuous
 62
     7
370
    25
100
AcDbLine
 10
999.6577190558
 20
1425.5530169339
 30
0.0
 11
1001.2536366487
 21
1425.5530169339
 31
0.0
  0
LINE
  5
1BA
330
1F
100
AcDbEntity
  8
0
  6
Continuous
 62
     7
370
    25
100
AcDbLine
 10
1000.3670157637
 20
1426.5530169339
 30
0.0
 11
999.6577190558
 21
1426.5530169339
 31
0.0
  0
LINE
  5
1BB
330
1F
100
AcDbEntity
  8
0
  6
Continuous
 62
     7
370
    25
100
AcDbLine
 10
1000.3670157637
 20
1429.3530169339
 30
0.0
 11
1000.3670157637
 21
1426.5530169339
 31
0.0
  0
LINE
  5
1BC
330
1F
100
AcDbEntity
  8
0
  6
Continuous
 62
     7
370
    25
100
AcDbLine
 10
998.8162136514
 20
1429.3530169339
 30
0.0
 11
998.8162136514
 21
1431.9530169339
 31
0.0
  0
LINE
  5
1BD
330
1F
100
AcDbEntity
  8
0
  6
Continuous
 62
     7
370
    25
100
AcDbLine
 10
1000.3670157637
 20
1429.3530169339
 30
0.0
 11
998.8162136514
 21
1429.3530169339
 31
0.0
  0
LINE
  5
1BE
330
1F
100
AcDbEntity
  8
0
  6
Continuous
 62
     7
370
    25
100
AcDbLine
 10
1017.7294318092
 20
1433.5530169339
 30
0.0
 11
1017.7294318092
 21
1435.5530169339
 31
0.0
  0
LINE
  5
1BF
330
1F
100
AcDbEntity
  8
0
  6
Continuous
 62
     7
370
    25
100
AcDbLine
 10
1017.7294318092
 20
1431.9530169339
 30
0.0
 11
1017.7294318092
 21
1433.5530169339
 31
0.0
  0
LINE
  5
1C0
330
1F
100
AcDbEntity
  8
0
  6
Continuous
 62
     7
370
    25
100
AcDbLine
 10
1014.5375966235
 20
1430.9530169339
 30
0.0
 11
1014.5375966235
 21
1431.9530169339
 31
0.0
  0
LINE
  5
1C1
330
1F
100
AcDbEntity
  8
0
  6
Continuous
 62
     7
370
    25
100
AcDbLine
 10
1007.7992778981
 20
1430.9530169339
 30
0.0
 11
1014.5375966235
 21
1430.9530169339
 31
0.0
  0
LINE
  5
1C2
330
1F
100
AcDbEntity
  8
0
  6
Continuous
 62
     7
370
    25
100
AcDbLine
 10
1007.7992778981
 20
1431.9530169339
 30
0.0
 11
1007.7992778981
 21
1430.9530169339
 31
0.0
  0
LINE
  5
1C3
330
1F
100
AcDbEntity
  8
0
  6
Continuous
 62
     7
370
    25
100
AcDbLine
 10
1005.3876690911
 20
1435.5530169339
 30
0.0
 11
1005.3876690911
 21
1431.9530169339
 31
0.0
  0
LINE
  5
1C4
330
1F
100
AcDbEntity
  8
0
  6
Continuous
 62
     7
370
    25
100
AcDbLine
 10
1005.3876690911
 20
1431.9530169339
 30
0.0
 11
1007.7992778981
 21
1431.9530169339
 31
0.0
  0
LINE
  5
1C5
330
1F
100
AcDbEntity
  8
0
  6
Continuous
 62
     7
370
    25
100
AcDbLine
 10
1014.5375966235
 20
1431.9530169339
 30
0.0
 11
1017.7294318092
 21
1431.9530169339
 31
0.0
  0
LINE
  5
1C6
330
1F
100
AcDbEntity
  8
0
  6
Continuous
 62
     7
370
    25
100
AcDbLine
 10
1005.2114415783
 20
1431.9530169339
 30
0.0
 11
1005.3876690911
 21
1431.9530169339
 31
0.0
  0
LINE
  5
1C7
330
1F
100
AcDbEntity
  8
0
  6
Continuous
 62
     7
370
    25
100
AcDbLine
 10
1010.5373082075
 20
1446.9530169339
 30
0.0
 11
1012.4758108479
 21
1446.9530169339
 31
0.0
  0
LINE
  5
1C8
330
1F
100
AcDbEntity
  8
0
  6
Continuous
 62
     7
370
    25
100
AcDbLine
 10
1007.6230503853
 20
1430.9530169339
 30
0.0
 11
1007.7992778981
 21
1430.9530169339
 31
0.0
  0
LINE
  5
1C9
330
1F
100
AcDbEntity
  8
0
  6
Continuous
 62
     7
370
    25
100
AcDbLine
 10
1013.8710027348
 20
1446.9530169339
 30
0.0
 11
1015.8095053753
 21
1446.9530169339
 31
0.0
  0
LINE
  5
1CA
330
1F
100
AcDbEntity
  8
0
  6
Continuous
 62
     7
370
    25
100
AcDbLine
 10
1017.2046972621
 20
1446.9530169339
 30
0.0
 11
1019.1431999026
 21
1446.9530169339
 31
0.0
  0
LINE
  5
1CB
330
1F
100
AcDbEntity
  8
0
  6
Continuous
 62
     7
370
    25
100
AcDbLine
 10
1025.5494007785
 20
1442.4530169339
 30
0.0
 11
1025.7502185536
 21
1442.4530169339
 31
0.0
  0
LINE
  5
1CC
330
1F
100
AcDbEntity
  8
0
  6
Continuous
 62
     7
370
    25
100
AcDbLine
 10
1024.1925418733
 20
1442.4530169339
 30
0.0
 11
1025.5494007785
 21
1442.4530169339
 31
0.0
  0
LINE
  5
1CD
330
1F
100
AcDbEntity
  8
0
  6
Continuous
 62
     7
370
    25
100
AcDbLine
 10
1023.8026248906
 20
1441.0530169339
 30
0.0
 11
1025.7502185536
 21
1441.0530169339
 31
0.0
  0
LINE
  5
1CE
330
1F
100
AcDbEntity
  8
0
  6
Continuous
 62
     7
370
    25
100
AcDbLine
 10
1022.6747688089
 20
1435.5530169339
 30
0.0
 11
1024.1502185536
 21
1435.5530169339
 31
0.0
  0
LWPOLYLINE
  5
1CF
330
1F
100
AcDbEntity
  8
0
  6
Continuous
 62
     7
370
    25
100
AcDbPolyline
 90
        9
 70
   128
 43
0.0
 10
1024.8401040705
 20
1442.4530169339
 10
1024.7165897465
 20
1443.3539861461
 10
1024.4790629871
 20
1444.2077456344
 10
1024.1355279459
 20
1444.9855254948
 10
1023.6975610333
 20
1445.6611161774
 10
1023.1799208156
 20
1446.2117516933
 10
1022.6000506824
 20
1446.6188767805
 10
1021.9774910408
 20
1446.8687721776
 10
1021.333220845
 20
1446.9530169339
  0
LWPOLYLINE
  5
1D0
330
1F
100
AcDbEntity
  8
0
  6
Continuous
 62
     7
370
    25
100
AcDbPolyline
 90
        9
 70
   128
 43
0.0
 10
1022.0425175529
 20
1446.9530169339
 10
1022.6867877488
 20
1446.8687721776
 10
1023.3093473903
 20
1446.6188767805
 10
1023.8892175236
 20
1446.2117516933
 10
1024.4068577413
 20
1445.6611161774
 10
1024.8448246539
 20
1444.9855254948
 10
1025.188359695
 20
1444.2077456344
 10
1025.4258864544
 20
1443.3539861461
 10
1025.5494007785
 20
1442.4530169339
  0
LINE
  5
1D1
330
1F
100
AcDbEntity
  8
0
  6
Continuous
 62
     7
370
    25
100
AcDbLine
 10
1021.333220845
 20
1446.9530169339
 30
0.0
 11
1022.0425175529
 21
1446.9530169339
 31
0.0
  0
LINE
  5
1D2
330
1F
100
AcDbEntity
  8
0
  6
Continuous
 62
     7
370
    25
100
AcDbLine
 10
1019.8524966105
 20
1446.9530169339
 30
0.0
 11
1021.333220845
 21
1446.9530169339
 31
0.0
  0
LINE
  5
1D3
330
1F
100
AcDbEntity
  8
0
  6
Continuous
 62
     7
370
    25
100
AcDbLine
 10
1018.6605934268
 20
1431.9530169339
 30
0.0
 11
1017.7294318092
 21
1431.9530169339
 31
0.0
  0
LINE
  5
1D4
330
1F
100
AcDbEntity
  8
0
  6
Continuous
 62
     7
370
    25
100
AcDbLine
 10
983.7892704161
 20
1418.5530169339
 30
0.0
 11
977.5319475328
 21
1418.5530169339
 31
0.0
  0
LINE
  5
1D5
330
1F
100
AcDbEntity
  8
0
  6
Continuous
 62
     7
370
    25
100
AcDbLine
 10
977.5319475328
 20
1418.5530169339
 30
0.0
 11
977.5319475328
 21
1419.9530169339
 31
0.0
  0
LINE
  5
1D6
330
1F
100
AcDbEntity
  8
0
  6
Continuous
 62
     7
370
    25
100
AcDbLine
 10
986.8657121423
 20
1419.9530169339
 30
0.0
 11
977.5319475328
 21
1419.9530169339
 31
0.0
  0
LINE
  5
1D7
330
1F
100
AcDbEntity
  8
0
  6
Continuous
 62
     7
370
    25
100
AcDbLine
 10
986.8657121423
 20
1419.0530169339
 30
0.0
 11
986.8657121423
 21
1419.9530169339
 31
0.0
  0
LWPOLYLINE
  5
1D8
330
1F
100
AcDbEntity
  8
0
  6
Continuous
 62
     7
370
    25
100
AcDbPolyline
 90
        3
 70
   128
 43
0.0
 10
986.4404611
 20
1418.5530169339
 10
986.8570110563
 20
1419.0423495497
 10
986.8657121423
 20
1419.0530169339
  0
LINE
  5
1D9
330
1F
100
AcDbEntity
  8
0
  6
Continuous
 62
     7
370
    25
100
AcDbLine
 10
986.4404611
 20
1418.5530169339
 30
0.0
 11
983.7892704161
 21
1418.5530169339
 31
0.0
  0
LINE
  5
1DA
330
1F
100
AcDbEntity
  8
0
  6
Continuous
 62
     7
370
    25
100
AcDbLine
 10
985.7378560606
 20
1419.9530169339
 30
0.0
 11
985.7378560606
 21
1425.4530169339
 31
0.0
  0
LINE
  5
1DB
330
1F
100
AcDbEntity
  8
0
  6
Continuous
 62
     7
370
    25
100
AcDbLine
 10
978.6668222655
 20
1419.9530169339
 30
0.0
 11
978.6668222655
 21
1425.4530169339
 31
0.0
  0
LINE
  5
1DC
330
1F
100
AcDbEntity
  8
0
  6
Continuous
 62
     7
370
    25
100
AcDbLine
 10
985.7378560606
 20
1425.4530169339
 30
0.0
 11
978.6668222655
 21
1425.4530169339
 31
0.0
  0
LINE
  5
1DD
330
1F
100
AcDbEntity
  8
0
  6
Continuous
 62
     7
370
    25
100
AcDbLine
 10
973.8099615641
 20
1414.0530169339
 30
0.0
 11
973.8099615641
 21
1418.5530169339
 31
0.0
  0
LWPOLYLINE
  5
1DE
330
1F
100
AcDbEntity
  8
0
  6
Continuous
 62
     7
370
    25
100
AcDbPolyline
 90
        9
 70
   128
 43
0.0
 10
980.2823871906
 20
1414.0530169339
 10
980.9266573864
 20
1414.1372616901
 10
981.549217028
 20
1414.3871570872
 10
982.1290871612
 20
1414.7942821744
 10
982.6467273789
 20
1415.3449176903
 10
983.0846942915
 20
1416.0205083729
 10
983.4282293327
 20
1416.7982882333
 10
983.6657560921
 20
1417.6520477217
 10
983.7892704161
 20
1418.5530169339
  0
LINE
  5
1DF
330
1F
100
AcDbEntity
  8
0
  6
Continuous
 62
     7
370
    25
100
AcDbLine
 10
973.8099615641
 20
1414.0530169339
 30
0.0
 11
980.2823871906
 21
1414.0530169339
 31
0.0
  0
LWPOLYLINE
  5
1E0
330
1F
100
AcDbEntity
  8
0
  6
Continuous
 62
     7
370
    25
100
AcDbPolyline
 90
        9
 70
   128
 43
0.0
 10
984.4985671241
 20
1418.5530169339
 10
984.3750528
 20
1417.6520477217
 10
984.1375260406
 20
1416.7982882333
 10
983.7939909995
 20
1416.0205083729
 10
983.3560240869
 20
1415.3449176903
 10
982.8383838692
 20
1414.7942821744
 10
982.2585137359
 20
1414.3871570872
 10
981.6359540944
 20
1414.1372616901
 10
980.9916838985
 20
1414.0530169339
  0
LINE
  5
1E1
330
1F
100
AcDbEntity
  8
0
  6
Continuous
 62
     7
370
    25
100
AcDbLine
 10
980.9916838985
 20
1414.0530169339
 30
0.0
 11
980.2823871906
 21
1414.0530169339
 31
0.0
  0
LINE
  5
1E2
330
1F
100
AcDbEntity
  8
0
  6
Continuous
 62
     7
370
    25
100
AcDbLine
 10
1002.1508599917
 20
1418.5530169339
 30
0.0
 11
1001.3176979545
 21
1418.5530169339
 31
0.0
  0
LWPOLYLINE
  5
1E3
330
1F
100
AcDbEntity
  8
0
  6
Continuous
 62
     7
370
    25
100
AcDbPolyline
 90
        9
 70
   128
 43
0.0
 10
1001.3176979545
 20
1418.5530169339
 10
1001.1941836304
 20
1417.6520477217
 10
1000.956656871
 20
1416.7982882333
 10
1000.6131218298
 20
1416.0205083729
 10
1000.1751549173
 20
1415.3449176903
 10
999.6575146996
 20
1414.7942821744
 10
999.0776445663
 20
1414.3871570872
 10
998.4550849247
 20
1414.1372616901
 10
997.8108147289
 20
1414.0530169339
  0
LINE
  5
1E4
330
1F
100
AcDbEntity
  8
0
  6
Continuous
 62
     7
370
    25
100
AcDbLine
 10
997.8108147289
 20
1414.0530169339
 30
0.0
 11
997.101518021
 21
1414.0530169339
 31
0.0
  0
LWPOLYLINE
  5
1E5
330
1F
100
AcDbEntity
  8
0
  6
Continuous
 62
     7
370
    25
100
AcDbPolyline
 90
        9
 70
   128
 43
0.0
 10
997.101518021
 20
1414.0530169339
 10
997.7457882168
 20
1414.1372616901
 10
998.3683478584
 20
1414.3871570872
 10
998.9482179916
 20
1414.7942821744
 10
999.4658582093
 20
1415.3449176903
 10
999.9038251219
 20
1416.0205083729
 10
1000.2473601631
 20
1416.7982882333
 10
1000.4848869225
 20
1417.6520477217
 10
1000.6084012465
 20
1418.5530169339
  0
LINE
  5
1E6
330
1F
100
AcDbEntity
  8
0
  6
Continuous
 62
     7
370
    25
100
AcDbLine
 10
1000.6084012465
 20
1418.5530169339
 30
0.0
 11
997.9840034271
 21
1418.5530169339
 31
0.0
  0
LWPOLYLINE
  5
1E7
330
1F
100
AcDbEntity
  8
0
  6
Continuous
 62
     7
370
    25
100
AcDbPolyline
 90
        9
 70
   128
 43
0.0
 10
997.9840034271
 20
1418.5530169339
 10
997.8604891031
 20
1417.6520477217
 10
997.6229623437
 20
1416.7982882333
 10
997.2794273025
 20
1416.0205083729
 10
996.8414603899
 20
1415.3449176903
 10
996.3238201722
 20
1414.7942821744
 10
995.743950039
 20
1414.3871570872
 10
995.1213903974
 20
1414.1372616901
 10
994.4771202016
 20
1414.0530169339
  0
LINE
  5
1E8
330
1F
100
AcDbEntity
  8
0
  6
Continuous
 62
     7
370
    25
100
AcDbLine
 10
994.4771202016
 20
1414.0530169339
 30
0.0
 11
993.7678234937
 21
1414.0530169339
 31
0.0
  0
LWPOLYLINE
  5
1E9
330
1F
100
AcDbEntity
  8
0
  6
Continuous
 62
     7
370
    25
100
AcDbPolyline
 90
        9
 70
   128
 43
0.0
 10
993.7678234937
 20
1414.0530169339
 10
994.4120936895
 20
1414.1372616901
 10
995.034653331
 20
1414.3871570872
 10
995.6145234643
 20
1414.7942821744
 10
996.132163682
 20
1415.3449176903
 10
996.5701305946
 20
1416.0205083729
 10
996.9136656357
 20
1416.7982882333
 10
997.1511923951
 20
1417.6520477217
 10
997.2747067192
 20
1418.5530169339
  0
LINE
  5
1EA
330
1F
100
AcDbEntity
  8
0
  6
Continuous
 62
     7
370
    25
100
AcDbLine
 10
997.2747067192
 20
1418.5530169339
 30
0.0
 11
994.6503088998
 21
1418.5530169339
 31
0.0
  0
LWPOLYLINE
  5
1EB
330
1F
100
AcDbEntity
  8
0
  6
Continuous
 62
     7
370
    25
100
AcDbPolyline
 90
        9
 70
   128
 43
0.0
 10
994.6503088998
 20
1418.5530169339
 10
994.5267945758
 20
1417.6520477217
 10
994.2892678164
 20
1416.7982882333
 10
993.9457327752
 20
1416.0205083729
 10
993.5077658626
 20
1415.3449176903
 10
992.9901256449
 20
1414.7942821744
 10
992.4102555117
 20
1414.3871570872
 10
991.7876958701
 20
1414.1372616901
 10
991.1434256743
 20
1414.0530169339
  0
LINE
  5
1EC
330
1F
100
AcDbEntity
  8
0
  6
Continuous
 62
     7
370
    25
100
AcDbLine
 10
991.1434256743
 20
1414.0530169339
 30
0.0
 11
990.4341289663
 21
1414.0530169339
 31
0.0
  0
LWPOLYLINE
  5
1ED
330
1F
100
AcDbEntity
  8
0
  6
Continuous
 62
     7
370
    25
100
AcDbPolyline
 90
        9
 70
   128
 43
0.0
 10
990.4341289663
 20
1414.0530169339
 10
991.0783991622
 20
1414.1372616901
 10
991.7009588037
 20
1414.3871570872
 10
992.280828937
 20
1414.7942821744
 10
992.7984691547
 20
1415.3449176903
 10
993.2364360673
 20
1416.0205083729
 10
993.5799711084
 20
1416.7982882333
 10
993.8174978678
 20
1417.6520477217
 10
993.9410121919
 20
1418.5530169339
  0
LINE
  5
1EE
330
1F
100
AcDbEntity
  8
0
  6
Continuous
 62
     7
370
    25
100
AcDbLine
 10
993.9410121919
 20
1418.5530169339
 30
0.0
 11
991.3166143725
 21
1418.5530169339
 31
0.0
  0
LWPOLYLINE
  5
1EF
330
1F
100
AcDbEntity
  8
0
  6
Continuous
 62
     7
370
    25
100
AcDbPolyline
 90
        9
 70
   128
 43
0.0
 10
991.3166143725
 20
1418.5530169339
 10
991.1931000484
 20
1417.6520477217
 10
990.955573289
 20
1416.7982882333
 10
990.6120382479
 20
1416.0205083729
 10
990.1740713353
 20
1415.3449176903
 10
989.6564311176
 20
1414.7942821744
 10
989.0765609843
 20
1414.3871570872
 10
988.4540013428
 20
1414.1372616901
 10
987.809731147
 20
1414.0530169339
  0
LINE
  5
1F0
330
1F
100
AcDbEntity
  8
0
  6
Continuous
 62
     7
370
    25
100
AcDbLine
 10
987.809731147
 20
1414.0530169339
 30
0.0
 11
987.100434439
 21
1414.0530169339
 31
0.0
  0
LWPOLYLINE
  5
1F1
330
1F
100
AcDbEntity
  8
0
  6
Continuous
 62
     7
370
    25
100
AcDbPolyline
 90
        9
 70
   128
 43
0.0
 10
987.100434439
 20
1414.0530169339
 10
987.7447046348
 20
1414.1372616901
 10
988.3672642764
 20
1414.3871570872
 10
988.9471344097
 20
1414.7942821744
 10
989.4647746274
 20
1415.3449176903
 10
989.9027415399
 20
1416.0205083729
 10
990.2462765811
 20
1416.7982882333
 10
990.4838033405
 20
1417.6520477217
 10
990.6073176646
 20
1418.5530169339
  0
LINE
  5
1F2
330
1F
100
AcDbEntity
  8
0
  6
Continuous
 62
     7
370
    25
100
AcDbLine
 10
990.6073176646
 20
1418.5530169339
 30
0.0
 11
987.9829198452
 21
1418.5530169339
 31
0.0
  0
LWPOLYLINE
  5
1F3
330
1F
100
AcDbEntity
  8
0
  6
Continuous
 62
     7
370
    25
100
AcDbPolyline
 90
        9
 70
   128
 43
0.0
 10
987.9829198452
 20
1418.5530169339
 10
987.8594055211
 20
1417.6520477217
 10
987.6218787617
 20
1416.7982882333
 10
987.2783437206
 20
1416.0205083729
 10
986.840376808
 20
1415.3449176903
 10
986.3227365903
 20
1414.7942821744
 10
985.742866457
 20
1414.3871570872
 10
985.1203068155
 20
1414.1372616901
 10
984.4760366196
 20
1414.0530169339
  0
LWPOLYLINE
  5
1F4
330
1F
100
AcDbEntity
  8
0
  6
Continuous
 62
     7
370
    25
100
AcDbPolyline
 90
        9
 70
   128
 43
0.0
 10
983.7667399117
 20
1414.0530169339
 10
984.4110101075
 20
1414.1372616901
 10
985.0335697491
 20
1414.3871570872
 10
985.6134398823
 20
1414.7942821744
 10
986.1310801
 20
1415.3449176903
 10
986.5690470126
 20
1416.0205083729
 10
986.9125820538
 20
1416.7982882333
 10
987.1501088132
 20
1417.6520477217
 10
987.2736231372
 20
1418.5530169339
  0
LINE
  5
1F5
330
1F
100
AcDbEntity
  8
0
  6
Continuous
 62
     7
370
    25
100
AcDbLine
 10
986.8657121423
 20
1419.0530169339
 30
0.0
 11
1001.7609430091
 21
1419.0530169339
 31
0.0
  0
LWPOLYLINE
  5
1F6
330
1F
100
AcDbEntity
  8
0
  6
Continuous
 62
     7
370
    25
100
AcDbPolyline
 90
        3
 70
   128
 43
0.0
 10
1001.7609430091
 20
1419.0530169339
 10
1001.7696280523
 20
1419.0423495497
 10
1002.1508599917
 20
1418.5530169339
  0
LINE
  5
1F7
330
1F
100
AcDbEntity
  8
0
  6
Continuous
 62
     7
370
    25
100
AcDbLine
 10
984.4760366196
 20
1414.0530169339
 30
0.0
 11
983.7667399117
 21
1414.0530169339
 31
0.0
  0
LINE
  5
1F8
330
1F
100
AcDbEntity
  8
0
  6
Continuous
 62
     7
370
    25
100
AcDbLine
 10
987.2736231372
 20
1418.5530169339
 30
0.0
 11
986.4404611
 21
1418.5530169339
 31
0.0
  0
LINE
  5
1F9
330
1F
100
AcDbEntity
  8
0
  6
Continuous
 62
     7
370
    25
100
AcDbLine
 10
1001.7609430091
 20
1419.0530169339
 30
0.0
 11
1001.7609430091
 21
1419.9530169339
 31
0.0
  0
LINE
  5
1FA
330
1F
100
AcDbEntity
  8
0
  6
Continuous
 62
     7
370
    25
100
AcDbLine
 10
1001.7609430091
 20
1419.9530169339
 30
0.0
 11
986.8657121423
 21
1419.9530169339
 31
0.0
  0
LINE
  5
1FB
330
1F
100
AcDbEntity
  8
0
  6
Continuous
 62
     7
370
    25
100
AcDbLine
 10
971.5402120987
 20
1414.0530169339
 30
0.0
 11
971.5402120987
 21
1418.5530169339
 31
0.0
  0
LINE
  5
1FC
330
1F
100
AcDbEntity
  8
0
  6
Continuous
 62
     7
370
    25
100
AcDbLine
 10
970.8353020476
 20
1414.0530169339
 30
0.0
 11
970.8353020476
 21
1418.5530169339
 31
0.0
  0
LINE
  5
1FD
330
1F
100
AcDbEntity
  8
0
  6
Continuous
 62
     7
370
    25
100
AcDbLine
 10
970.8353020476
 20
1418.5530169339
 30
0.0
 11
964.8435666135
 21
1418.5530169339
 31
0.0
  0
LINE
  5
1FE
330
1F
100
AcDbEntity
  8
0
  6
Continuous
 62
     7
370
    25
100
AcDbLine
 10
964.8435666135
 20
1418.5530169339
 30
0.0
 11
964.8435666135
 21
1419.9530169339
 31
0.0
  0
LINE
  5
1FF
330
1F
100
AcDbEntity
  8
0
  6
Continuous
 62
     7
370
    25
100
AcDbLine
 10
971.5402120987
 20
1414.0530169339
 30
0.0
 11
970.8353020476
 21
1414.0530169339
 31
0.0
  0
LINE
  5
200
330
1F
100
AcDbEntity
  8
0
  6
Continuous
 62
     7
370
    25
100
AcDbLine
 10
977.5319475328
 20
1418.5530169339
 30
0.0
 11
971.5402120987
 21
1418.5530169339
 31
0.0
  0
LINE
  5
201
330
1F
100
AcDbEntity
  8
0
  6
Continuous
 62
     7
370
    25
100
AcDbLine
 10
977.5319475328
 20
1419.9530169339
 30
0.0
 11
964.8435666135
 21
1419.9530169339
 31
0.0
  0
LINE
  5
202
330
1F
100
AcDbEntity
  8
0
  6
Continuous
 62
     7
370
    25
100
AcDbLine
 10
981.8277966336
 20
1414.0530169339
 30
0.0
 11
983.7667399117
 21
1414.0530169339
 31
0.0
  0
LINE
  5
203
330
1F
100
AcDbEntity
  8
0
  6
Continuous
 62
     7
370
    25
100
AcDbLine
 10
1000.6330869273
 20
1419.9530169339
 30
0.0
 11
1000.6330869273
 21
1425.4530169339
 31
0.0
  0
LINE
  5
204
330
1F
100
AcDbEntity
  8
0
  6
Continuous
 62
     7
370
    25
100
AcDbLine
 10
1000.6330869273
 20
1425.4530169339
 30
0.0
 11
985.7378560606
 21
1425.4530169339
 31
0.0
  0
LINE
  5
205
330
1F
100
AcDbEntity
  8
0
  6
Continuous
 62
     7
370
    25
100
AcDbLine
 10
965.9784413462
 20
1419.9530169339
 30
0.0
 11
965.9784413462
 21
1425.4530169339
 31
0.0
  0
LINE
  5
206
330
1F
100
AcDbEntity
  8
0
  6
Continuous
 62
     7
370
    25
100
AcDbLine
 10
978.6668222655
 20
1425.4530169339
 30
0.0
 11
965.9784413462
 21
1425.4530169339
 31
0.0
  0
LINE
  5
207
330
1F
100
AcDbEntity
  8
0
  6
Continuous
 62
     7
370
    25
100
AcDbLine
 10
983.0553859575
 20
1429.0530169339
 30
0.0
 11
984.3390026006
 21
1429.0530169339
 31
0.0
  0
LINE
  5
208
330
1F
100
AcDbEntity
  8
0
  6
Continuous
 62
     7
370
    25
100
AcDbLine
 10
984.3390026006
 20
1429.0530169339
 30
0.0
 11
984.3390026006
 21
1427.4530169339
 31
0.0
  0
LINE
  5
209
330
1F
100
AcDbEntity
  8
0
  6
Continuous
 62
     7
370
    25
100
AcDbLine
 10
984.3390026006
 20
1427.4530169339
 30
0.0
 11
984.3390026006
 21
1425.4530169339
 31
0.0
  0
LINE
  5
20A
330
1F
100
AcDbEntity
  8
0
  6
Continuous
 62
     7
370
    25
100
AcDbLine
 10
985.1619317986
 20
1414.0530169339
 30
0.0
 11
987.100434439
 21
1414.0530169339
 31
0.0
  0
LINE
  5
20B
330
1F
100
AcDbEntity
  8
0
  6
Continuous
 62
     7
370
    25
100
AcDbLine
 10
971.5402120987
 20
1414.0530169339
 30
0.0
 11
973.8099615641
 21
1414.0530169339
 31
0.0
  0
LINE
  5
20C
330
1F
100
AcDbEntity
  8
0
  6
Continuous
 62
     7
370
    25
100
AcDbLine
 10
987.5308377863
 20
1430.0530169339
 30
0.0
 11
987.5308377863
 21
1429.0530169339
 31
0.0
  0
LINE
  5
20D
330
1F
100
AcDbEntity
  8
0
  6
Continuous
 62
     7
370
    25
100
AcDbLine
 10
994.2691565118
 20
1430.0530169339
 30
0.0
 11
987.5308377863
 21
1430.0530169339
 31
0.0
  0
LINE
  5
20E
330
1F
100
AcDbEntity
  8
0
  6
Continuous
 62
     7
370
    25
100
AcDbLine
 10
994.2691565118
 20
1429.0530169339
 30
0.0
 11
994.2691565118
 21
1430.0530169339
 31
0.0
  0
LINE
  5
20F
330
1F
100
AcDbEntity
  8
0
  6
Continuous
 62
     7
370
    25
100
AcDbLine
 10
996.6807653188
 20
1425.4530169339
 30
0.0
 11
996.6807653188
 21
1429.0530169339
 31
0.0
  0
LINE
  5
210
330
1F
100
AcDbEntity
  8
0
  6
Continuous
 62
     7
370
    25
100
AcDbLine
 10
996.6807653188
 20
1429.0530169339
 30
0.0
 11
994.2691565118
 21
1429.0530169339
 31
0.0
  0
LINE
  5
211
330
1F
100
AcDbEntity
  8
0
  6
Continuous
 62
     7
370
    25
100
AcDbLine
 10
987.5308377863
 20
1429.0530169339
 30
0.0
 11
984.3390026006
 21
1429.0530169339
 31
0.0
  0
LINE
  5
212
330
1F
100
AcDbEntity
  8
0
  6
Continuous
 62
     7
370
    25
100
AcDbLine
 10
988.4956263259
 20
1414.0530169339
 30
0.0
 11
990.4341289663
 21
1414.0530169339
 31
0.0
  0
LWPOLYLINE
  5
213
330
1F
100
AcDbEntity
  8
0
  6
Continuous
 62
     7
370
    25
100
AcDbPolyline
 90
        9
 70
   128
 43
0.0
 10
963.125742661
 20
1418.5530169339
 10
963.249256985
 20
1417.6520477217
 10
963.4867837444
 20
1416.7982882333
 10
963.8303187856
 20
1416.0205083729
 10
964.2682856982
 20
1415.3449176903
 10
964.7859259159
 20
1414.7942821744
 10
965.3657960491
 20
1414.3871570872
 10
965.9883556907
 20
1414.1372616901
 10
966.6326258865
 20
1414.0530169339
  0
LINE
  5
214
330
1F
100
AcDbEntity
  8
0
  6
Continuous
 62
     7
370
    25
100
AcDbLine
 10
966.6326258865
 20
1414.0530169339
 30
0.0
 11
970.8353020476
 21
1414.0530169339
 31
0.0
  0
LINE
  5
215
330
1F
100
AcDbEntity
  8
0
  6
Continuous
 62
     7
370
    25
100
AcDbLine
 10
987.3546102736
 20
1430.0530169339
 30
0.0
 11
987.5308377863
 21
1430.0530169339
 31
0.0
  0
LINE
  5
216
330
1F
100
AcDbEntity
  8
0
  6
Continuous
 62
     7
370
    25
100
AcDbLine
 10
991.8293208532
 20
1414.0530169339
 30
0.0
 11
993.7678234937
 21
1414.0530169339
 31
0.0
  0
LINE
  5
217
330
1F
100
AcDbEntity
  8
0
  6
Continuous
 62
     7
370
    25
100
AcDbLine
 10
964.8435666135
 20
1418.5530169339
 30
0.0
 11
962.9249248859
 21
1418.5530169339
 31
0.0
  0
LINE
  5
218
330
1F
100
AcDbEntity
  8
0
  6
Continuous
 62
     7
370
    25
100
AcDbLine
 10
964.8435666135
 20
1419.9530169339
 30
0.0
 11
962.9249248859
 21
1419.9530169339
 31
0.0
  0
LINE
  5
219
330
1F
100
AcDbEntity
  8
0
  6
Continuous
 62
     7
370
    25
100
AcDbLine
 10
995.1630153805
 20
1414.0530169339
 30
0.0
 11
997.101518021
 21
1414.0530169339
 31
0.0
  0
LINE
  5
21A
330
1F
100
AcDbEntity
  8
0
  6
Continuous
 62
     7
370
    25
100
AcDbLine
 10
965.9784413462
 20
1425.4530169339
 30
0.0
 11
964.5249248859
 21
1425.4530169339
 31
0.0
  0
LINE
  5
21B
330
1F
100
AcDbEntity
  8
0
  6
Continuous
 62
     7
370
    25
100
AcDbLine
 10
1003.708536672
 20
1418.5530169339
 30
0.0
 11
1003.5077188969
 21
1418.5530169339
 31
0.0
  0
LINE
  5
21C
330
1F
100
AcDbEntity
  8
0
  6
Continuous
 62
     7
370
    25
100
AcDbLine
 10
1003.5077188969
 20
1418.5530169339
 30
0.0
 11
1002.1508599917
 21
1418.5530169339
 31
0.0
  0
LINE
  5
21D
330
1F
100
AcDbEntity
  8
0
  6
Continuous
 62
     7
370
    25
100
AcDbLine
 10
1003.708536672
 20
1419.9530169339
 30
0.0
 11
1001.7609430091
 21
1419.9530169339
 31
0.0
  0
LINE
  5
21E
330
1F
100
AcDbEntity
  8
0
  6
Continuous
 62
     7
370
    25
100
AcDbLine
 10
1002.108536672
 20
1425.4530169339
 30
0.0
 11
1000.6330869273
 21
1425.4530169339
 31
0.0
  0
LWPOLYLINE
  5
21F
330
1F
100
AcDbEntity
  8
0
  6
Continuous
 62
     7
370
    25
100
AcDbPolyline
 90
        9
 70
   128
 43
0.0
 10
1003.5077188969
 20
1418.5530169339
 10
1003.3842045728
 20
1417.6520477217
 10
1003.1466778134
 20
1416.7982882333
 10
1002.8031427723
 20
1416.0205083729
 10
1002.3651758597
 20
1415.3449176903
 10
1001.847535642
 20
1414.7942821744
 10
1001.2676655087
 20
1414.3871570872
 10
1000.6451058672
 20
1414.1372616901
 10
1000.0008356714
 20
1414.0530169339
  0
LWPOLYLINE
  5
220
330
1F
100
AcDbEntity
  8
0
  6
Continuous
 62
     7
370
    25
100
AcDbPolyline
 90
        9
 70
   128
 43
0.0
 10
999.2915389634
 20
1414.0530169339
 10
999.9358091592
 20
1414.1372616901
 10
1000.5583688008
 20
1414.3871570872
 10
1001.138238934
 20
1414.7942821744
 10
1001.6558791517
 20
1415.3449176903
 10
1002.0938460643
 20
1416.0205083729
 10
1002.4373811055
 20
1416.7982882333
 10
1002.6749078649
 20
1417.6520477217
 10
1002.798422189
 20
1418.5530169339
  0
LINE
  5
221
330
1F
100
AcDbEntity
  8
0
  6
Continuous
 62
     7
370
    25
100
AcDbLine
 10
1000.0008356714
 20
1414.0530169339
 30
0.0
 11
999.2915389634
 21
1414.0530169339
 31
0.0
  0
LINE
  5
222
330
1F
100
AcDbEntity
  8
0
  6
Continuous
 62
     7
370
    25
100
AcDbLine
 10
997.8108147289
 20
1414.0530169339
 30
0.0
 11
999.2915389634
 21
1414.0530169339
 31
0.0
  0
LINE
  5
223
330
1F
100
AcDbEntity
  8
0
  6
Continuous
 62
     7
370
    25
100
AcDbLine
 10
997.4763449965
 20
1425.4530169339
 30
0.0
 11
997.4763449965
 21
1425.5530169339
 31
0.0
  0
LINE
  5
224
330
1F
100
AcDbEntity
  8
0
  6
Continuous
 62
     7
370
    25
100
AcDbLine
 10
997.4763449965
 20
1426.5530169339
 30
0.0
 11
997.4763449965
 21
1429.0530169339
 31
0.0
  0
LINE
  5
225
330
1F
100
AcDbEntity
  8
0
  6
Continuous
 62
     7
370
    25
100
AcDbLine
 10
997.4763449965
 20
1429.0530169339
 30
0.0
 11
997.3429715516
 21
1429.0530169339
 31
0.0
  0
LWPOLYLINE
  5
226
330
1F
100
AcDbEntity
  8
0
  6
Continuous
 62
     7
370
    25
100
AcDbPolyline
 90
        6
 70
   128
 43
0.0
 10
981.8637021066
 20
1405.0869833429
 10
982.1111782979
 20
1402.8257155724
 10
983.1613889181
 20
1398.7297869033
 10
984.2303762906
 20
1394.6360640819
 10
984.5740170187
 20
1392.4820881205
 10
984.7008889384
 20
1390.284821578
  0
LINE
  5
227
330
1F
100
AcDbEntity
  8
0
  6
Continuous
 62
     7
370
    25
100
AcDbLine
 10
984.7008889384
 20
1390.284821578
 30
0.0
 11
981.8724754204
 21
1390.284821578
 31
0.0
  0
LWPOLYLINE
  5
228
330
1F
100
AcDbEntity
  8
0
  6
Continuous
 62
     7
370
    25
100
AcDbPolyline
 90
        6
 70
   128
 43
0.0
 10
981.8724754204
 20
1390.284821578
 10
981.8724754203
 20
1390.284881578
 10
981.4577723881
 20
1394.0805993139
 10
980.439613234
 20
1397.9690180913
 10
979.3277000702
 20
1402.3263218241
 10
979.0352885886
 20
1405.0530169339
  0
ARC
  5
229
330
1F
100
AcDbEntity
  8
0
  6
Continuous
 62
     7
370
    25
100
AcDbCircle
 10
978.963596745
 20
1528.8021171977
 30
0.0
 40
123.7491210305227
100
AcDbArc
 50
270.0331932886
 51
271.3428702339
  0
LINE
  5
22A
330
1F
100
AcDbEntity
  8
0
  6
Continuous
 62
     7
370
    25
100
AcDbLine
 10
980.9916838985
 20
1414.0530169339
 30
0.0
 11
981.8277966336
 21
1414.0530169339
 31
0.0
  0
LINE
  5
22B
330
1F
100
AcDbEntity
  8
0
  6
Continuous
 62
     7
370
    25
100
AcDbLine
 10
981.8637021066
 20
1414.0530169339
 30
0.0
 11
981.8637021066
 21
1405.0869833429
 31
0.0
  0
LINE
  5
22C
330
1F
100
AcDbEntity
  8
0
  6
Continuous
 62
     7
370
    25
100
AcDbLine
 10
979.0352885886
 20
1414.0530169339
 30
0.0
 11
979.0352885886
 21
1405.0530169339
 31
0.0
  0
LWPOLYLINE
  5
22D
330
1F
100
AcDbEntity
  8
0
  6
Continuous
 62
     7
370
    25
100
AcDbPolyline
 90
        6
 70
   128
 43
0.0
 10
970.7878409911
 20
1405.0530169339
 10
970.7878423644
 20
1405.0529569651
 10
971.0802524726
 20
1402.3263218241
 10
972.1921656364
 20
1397.9690180913
 10
973.2103247905
 20
1394.0805993139
 10
973.6250278228
 20
1390.284821578
  0
LINE
  5
22E
330
1F
100
AcDbEntity
  8
0
  6
Continuous
 62
     7
370
    25
100
AcDbLine
 10
970.7878409911
 20
1405.0530169339
 30
0.0
 11
979.0352885886
 21
1405.0530169339
 31
0.0
  0
LINE
  5
22F
330
1F
100
AcDbEntity
  8
0
  6
Continuous
 62
     7
370
    25
100
AcDbLine
 10
973.6250278228
 20
1390.284821578
 30
0.0
 11
981.8724754204
 21
1390.284821578
 31
0.0
  0
LINE
  5
230
330
1F
100
AcDbEntity
  8
0
  6
Continuous
 62
     7
370
    25
100
AcDbLine
 10
995.8368472531
 20
1414.0530169339
 30
0.0
 11
995.8368472531
 21
1405.0869833429
 31
0.0
  0
LWPOLYLINE
  5
231
330
1F
100
AcDbEntity
  8
0
  6
Continuous
 62
     7
370
    25
100
AcDbPolyline
 90
        6
 70
   128
 43
0.0
 10
992.9996604213
 20
1390.284821578
 10
993.126532341
 20
1392.4820881205
 10
993.4701730692
 20
1394.6360640819
 10
994.5391604416
 20
1398.7297869033
 10
995.5893710618
 20
1402.8257155724
 10
995.8368472531
 20
1405.0869833429
  0
LINE
  5
232
330
1F
100
AcDbEntity
  8
0
  6
Continuous
 62
     7
370
    25
100
AcDbLine
 10
992.9996604213
 20
1380.284821578
 30
0.0
 11
992.9996604213
 21
1390.284821578
 31
0.0
  0
LINE
  5
233
330
1F
100
AcDbEntity
  8
0
  6
Continuous
 62
     7
370
    25
100
AcDbLine
 10
992.9996604213
 20
1380.284821578
 30
0.0
 11
984.7008889384
 21
1380.284821578
 31
0.0
  0
LINE
  5
234
330
1F
100
AcDbEntity
  8
0
  6
Continuous
 62
     7
370
    25
100
AcDbLine
 10
984.7008889384
 20
1390.284821578
 30
0.0
 11
984.7008889384
 21
1380.284821578
 31
0.0
  0
LINE
  5
235
330
1F
100
AcDbEntity
  8
0
  6
Continuous
 62
     7
370
    25
100
AcDbLine
 10
984.4760366196
 20
1414.0530169339
 30
0.0
 11
985.1619317986
 21
1414.0530169339
 31
0.0
  0
LINE
  5
236
330
1F
100
AcDbEntity
  8
0
  6
Continuous
 62
     7
370
    25
100
AcDbLine
 10
987.809731147
 20
1414.0530169339
 30
0.0
 11
988.4956263259
 21
1414.0530169339
 31
0.0
  0
LINE
  5
237
330
1F
100
AcDbEntity
  8
0
  6
Continuous
 62
     7
370
    25
100
AcDbLine
 10
991.1434256743
 20
1414.0530169339
 30
0.0
 11
991.8293208532
 21
1414.0530169339
 31
0.0
  0
LINE
  5
238
330
1F
100
AcDbEntity
  8
0
  6
Continuous
 62
     7
370
    25
100
AcDbLine
 10
994.4771202016
 20
1414.0530169339
 30
0.0
 11
995.1630153805
 21
1414.0530169339
 31
0.0
  0
LINE
  5
239
330
1F
100
AcDbEntity
  8
0
  6
Continuous
 62
     7
370
    25
100
AcDbLine
 10
970.7878409911
 20
1414.0530169339
 30
0.0
 11
970.7878409911
 21
1405.0530169339
 31
0.0
  0
LINE
  5
23A
330
1F
100
AcDbEntity
  8
0
  6
Continuous
 62
     7
370
    25
100
AcDbLine
 10
984.7008889384
 20
1380.284821578
 30
0.0
 11
981.8724754204
 21
1380.284821578
 31
0.0
  0
LINE
  5
23B
330
1F
100
AcDbEntity
  8
0
  6
Continuous
 62
     7
370
    25
100
AcDbLine
 10
981.8724754204
 20
1380.284821578
 30
0.0
 11
981.8724754204
 21
1390.284821578
 31
0.0
  0
LINE
  5
23C
330
1F
100
AcDbEntity
  8
0
  6
Continuous
 62
     7
370
    25
100
AcDbLine
 10
973.6250278228
 20
1390.284821578
 30
0.0
 11
973.6250278228
 21
1380.284821578
 31
0.0
  0
LINE
  5
23D
330
1F
100
AcDbEntity
  8
0
  6
Continuous
 62
     7
370
    25
100
AcDbLine
 10
973.6250278228
 20
1380.284821578
 30
0.0
 11
981.8724754204
 21
1380.284821578
 31
0.0
  0
LWPOLYLINE
  5
23E
330
1F
100
AcDbEntity
  8
0
  6
Continuous
 62
     7
370
    25
100
AcDbPolyline
 90
        4
 70
   128
 43
0.0
 10
970.2321723722
 20
1405.0630578758
 10
970.218009296
 20
1405.0601626857
 10
970.4011807294
 20
1405.0548408359
 10
970.7878409911
 20
1405.0530169339
  0
ARC
  5
23F
330
1F
100
AcDbEntity
  8
0
  6
Continuous
 62
     7
370
    25
100
AcDbCircle
 10
995.7313342257
 20
1395.9358307484
 30
0.0
 40
9.15176085817508
100
AcDbArc
 50
85.8008870919
 51
89.3394074449
  0
LINE
  5
240
330
1F
100
AcDbEntity
  8
0
  6
Continuous
 62
     7
370
    25
100
AcDbLine
 10
993.5898403192
 20
1380.284821578
 30
0.0
 11
992.9996604213
 21
1380.284821578
 31
0.0
  0
LINE
  5
241
330
1F
100
AcDbEntity
  8
0
  6
Continuous
 62
     7
370
    25
100
AcDbLine
 10
973.6250278228
 20
1380.284821578
 30
0.0
 11
973.0436212387
 21
1380.284821578
 31
0.0
  0
LWPOLYLINE
  5
242
330
1F
100
AcDbEntity
  8
0
  6
Continuous
 62
     7
370
    25
100
AcDbPolyline
 90
        6
 70
   128
 43
0.0
 10
979.0352885886
 20
1455.9530169339
 10
979.0352899619
 20
1455.9530769026
 10
979.3277000702
 20
1458.6797120436
 10
980.439613234
 20
1463.0370157764
 10
981.4577723881
 20
1466.9254345538
 10
981.8724754204
 20
1470.7212122897
  0
LINE
  5
243
330
1F
100
AcDbEntity
  8
0
  6
Continuous
 62
     7
370
    25
100
AcDbLine
 10
981.8724754204
 20
1470.7212122897
 30
0.0
 11
984.7008889384
 21
1470.7212122897
 31
0.0
  0
LWPOLYLINE
  5
244
330
1F
100
AcDbEntity
  8
0
  6
Continuous
 62
     7
370
    25
100
AcDbPolyline
 90
        6
 70
   128
 43
0.0
 10
984.7008889384
 20
1470.7212122897
 10
984.5740170187
 20
1468.5239457472
 10
984.2303762906
 20
1466.3699697858
 10
983.1613889181
 20
1462.2762469644
 10
982.1111782979
 20
1458.1803182953
 10
981.8637021066
 20
1455.9190505249
  0
ARC
  5
245
330
1F
100
AcDbEntity
  8
0
  6
Continuous
 62
     7
370
    25
100
AcDbCircle
 10
978.9635967406
 20
1332.2039162972
 30
0.0
 40
123.7491214034053
100
AcDbArc
 50
88.6571297681
 51
89.9668067094
  0
LINE
  5
246
330
1F
100
AcDbEntity
  8
0
  6
Continuous
 62
     7
370
    25
100
AcDbLine
 10
979.0352885886
 20
1455.9530169339
 30
0.0
 11
970.7878409911
 21
1455.9530169339
 31
0.0
  0
LWPOLYLINE
  5
247
330
1F
100
AcDbEntity
  8
0
  6
Continuous
 62
     7
370
    25
100
AcDbPolyline
 90
        6
 70
   128
 43
0.0
 10
973.6250278228
 20
1470.7212122897
 10
973.6250278227
 20
1470.7211522897
 10
973.2103247905
 20
1466.9254345538
 10
972.1921656364
 20
1463.0370157764
 10
971.0802524726
 20
1458.6797120436
 10
970.7878409911
 20
1455.9530169339
  0
LINE
  5
248
330
1F
100
AcDbEntity
  8
0
  6
Continuous
 62
     7
370
    25
100
AcDbLine
 10
981.8724754204
 20
1470.7212122897
 30
0.0
 11
973.6250278228
 21
1470.7212122897
 31
0.0
  0
LINE
  5
249
330
1F
100
AcDbEntity
  8
0
  6
Continuous
 62
     7
370
    25
100
AcDbLine
 10
995.8368472531
 20
1446.9530169339
 30
0.0
 11
995.8368472531
 21
1455.9190505249
 31
0.0
  0
LINE
  5
24A
330
1F
100
AcDbEntity
  8
0
  6
Continuous
 62
     7
370
    25
100
AcDbLine
 10
984.7008889384
 20
1480.7212122897
 30
0.0
 11
984.7008889384
 21
1470.7212122897
 31
0.0
  0
LINE
  5
24B
330
1F
100
AcDbEntity
  8
0
  6
Continuous
 62
     7
370
    25
100
AcDbLine
 10
992.9996604213
 20
1480.7212122897
 30
0.0
 11
984.7008889384
 21
1480.7212122897
 31
0.0
  0
LINE
  5
24C
330
1F
100
AcDbEntity
  8
0
  6
Continuous
 62
     7
370
    25
100
AcDbLine
 10
992.9996604213
 20
1470.7212122897
 30
0.0
 11
992.9996604213
 21
1480.7212122897
 31
0.0
  0
LWPOLYLINE
  5
24D
330
1F
100
AcDbEntity
  8
0
  6
Continuous
 62
     7
370
    25
100
AcDbPolyline
 90
        6
 70
   128
 43
0.0
 10
995.8368472531
 20
1455.9190505249
 10
995.5893710618
 20
1458.1803182953
 10
994.5391604416
 20
1462.2762469644
 10
993.4701730692
 20
1466.3699697858
 10
993.126532341
 20
1468.5239457472
 10
992.9996604213
 20
1470.7212122897
  0
LINE
  5
24E
330
1F
100
AcDbEntity
  8
0
  6
Continuous
 62
     7
370
    25
100
AcDbLine
 10
976.8769175957
 20
1446.9530169339
 30
0.0
 11
972.8868434966
 21
1446.9530169339
 31
0.0
  0
LINE
  5
24F
330
1F
100
AcDbEntity
  8
0
  6
Continuous
 62
     7
370
    25
100
AcDbLine
 10
981.8724754204
 20
1470.7212122897
 30
0.0
 11
981.8724754204
 21
1480.7212122897
 31
0.0
  0
LINE
  5
250
330
1F
100
AcDbEntity
  8
0
  6
Continuous
 62
     7
370
    25
100
AcDbLine
 10
981.8724754204
 20
1480.7212122897
 30
0.0
 11
984.7008889384
 21
1480.7212122897
 31
0.0
  0
LINE
  5
251
330
1F
100
AcDbEntity
  8
0
  6
Continuous
 62
     7
370
    25
100
AcDbLine
 10
973.6250278228
 20
1480.7212122897
 30
0.0
 11
973.6250278228
 21
1470.7212122897
 31
0.0
  0
LINE
  5
252
330
1F
100
AcDbEntity
  8
0
  6
Continuous
 62
     7
370
    25
100
AcDbLine
 10
981.8724754204
 20
1480.7212122897
 30
0.0
 11
973.6250278228
 21
1480.7212122897
 31
0.0
  0
LWPOLYLINE
  5
253
330
1F
100
AcDbEntity
  8
0
  6
Continuous
 62
     7
370
    25
100
AcDbPolyline
 90
        4
 70
   128
 43
0.0
 10
970.7878409911
 20
1455.9530169339
 10
970.4011807294
 20
1455.9511930318
 10
970.218009296
 20
1455.945871182
 10
970.2320101796
 20
1455.943009147
  0
ARC
  5
254
330
1F
100
AcDbEntity
  8
0
  6
Continuous
 62
     7
370
    25
100
AcDbCircle
 10
995.7307609156
 20
1465.0918344232
 30
0.0
 40
9.173397339979951
100
AcDbArc
 50
270.6626154597
 51
274.1917657913
  0
LINE
  5
255
330
1F
100
AcDbEntity
  8
0
  6
Continuous
 62
     7
370
    25
100
AcDbLine
 10
992.9996604213
 20
1480.7212122897
 30
0.0
 11
993.5898403192
 21
1480.7212122897
 31
0.0
  0
LINE
  5
256
330
1F
100
AcDbEntity
  8
0
  6
Continuous
 62
     7
370
    25
100
AcDbLine
 10
973.0436212387
 20
1480.7212122897
 30
0.0
 11
973.6250278228
 21
1480.7212122897
 31
0.0
  0
LWPOLYLINE
  5
257
330
1F
100
AcDbEntity
  8
0
  6
Continuous
 62
     7
370
    25
100
AcDbPolyline
 90
        6
 70
   128
 43
0.0
 10
1001.0769704702
 20
1455.9530169339
 10
1001.0769718435
 20
1455.9530769026
 10
1001.3693819517
 20
1458.6797120436
 10
1002.4812951156
 20
1463.0370157764
 10
1003.4994542697
 20
1466.9254345538
 10
1003.914157302
 20
1470.7212122897
  0
LINE
  5
258
330
1F
100
AcDbEntity
  8
0
  6
Continuous
 62
     7
370
    25
100
AcDbLine
 10
1003.914157302
 20
1470.7212122897
 30
0.0
 11
1006.74257082
 21
1470.7212122897
 31
0.0
  0
LWPOLYLINE
  5
259
330
1F
100
AcDbEntity
  8
0
  6
Continuous
 62
     7
370
    25
100
AcDbPolyline
 90
        6
 70
   128
 43
0.0
 10
1006.74257082
 20
1470.7212122897
 10
1006.6156989003
 20
1468.5239457472
 10
1006.2720581721
 20
1466.3699697858
 10
1005.2030707997
 20
1462.2762469644
 10
1004.1528601795
 20
1458.1803182953
 10
1003.9053839882
 20
1455.9190505249
  0
ARC
  5
25A
330
1F
100
AcDbEntity
  8
0
  6
Continuous
 62
     7
370
    25
100
AcDbCircle
 10
1001.0052786219
 20
1332.2039162757
 30
0.0
 40
123.7491214248482
100
AcDbArc
 50
88.6571297682
 51
89.9668067093
  0
LINE
  5
25B
330
1F
100
AcDbEntity
  8
0
  6
Continuous
 62
     7
370
    25
100
AcDbLine
 10
1003.8694785152
 20
1446.9530169339
 30
0.0
 11
1003.0333657801
 21
1446.9530169339
 31
0.0
  0
LINE
  5
25C
330
1F
100
AcDbEntity
  8
0
  6
Continuous
 62
     7
370
    25
100
AcDbLine
 10
1001.0769704702
 20
1446.9530169339
 30
0.0
 11
1001.0769704702
 21
1455.9530169339
 31
0.0
  0
LINE
  5
25D
330
1F
100
AcDbEntity
  8
0
  6
Continuous
 62
     7
370
    25
100
AcDbLine
 10
1003.9053839882
 20
1446.9530169339
 30
0.0
 11
1003.9053839882
 21
1455.9190505249
 31
0.0
  0
LINE
  5
25E
330
1F
100
AcDbEntity
  8
0
  6
Continuous
 62
     7
370
    25
100
AcDbLine
 10
995.6667097044
 20
1470.7212122897
 30
0.0
 11
1003.914157302
 21
1470.7212122897
 31
0.0
  0
LINE
  5
25F
330
1F
100
AcDbEntity
  8
0
  6
Continuous
 62
     7
370
    25
100
AcDbLine
 10
1001.0769704702
 20
1455.9530169339
 30
0.0
 11
996.4047455938
 21
1455.9530169339
 31
0.0
  0
LINE
  5
260
330
1F
100
AcDbEntity
  8
0
  6
Continuous
 62
     7
370
    25
100
AcDbLine
 10
1017.8785291347
 20
1446.9530169339
 30
0.0
 11
1017.8785291347
 21
1455.9190505249
 31
0.0
  0
LINE
  5
261
330
1F
100
AcDbEntity
  8
0
  6
Continuous
 62
     7
370
    25
100
AcDbLine
 10
1006.74257082
 20
1480.7212122897
 30
0.0
 11
1006.74257082
 21
1470.7212122897
 31
0.0
  0
LINE
  5
262
330
1F
100
AcDbEntity
  8
0
  6
Continuous
 62
     7
370
    25
100
AcDbLine
 10
1006.74257082
 20
1480.7212122897
 30
0.0
 11
1015.0413423029
 21
1480.7212122897
 31
0.0
  0
LINE
  5
263
330
1F
100
AcDbEntity
  8
0
  6
Continuous
 62
     7
370
    25
100
AcDbLine
 10
1015.0413423029
 20
1470.7212122897
 30
0.0
 11
1015.0413423029
 21
1480.7212122897
 31
0.0
  0
LWPOLYLINE
  5
264
330
1F
100
AcDbEntity
  8
0
  6
Continuous
 62
     7
370
    25
100
AcDbPolyline
 90
        6
 70
   128
 43
0.0
 10
1017.8785291347
 20
1455.9190505249
 10
1017.6310529434
 20
1458.1803182953
 10
1016.5808423232
 20
1462.2762469644
 10
1015.5118549508
 20
1466.3699697858
 10
1015.1682142226
 20
1468.5239457472
 10
1015.0413423029
 20
1470.7212122897
  0
LINE
  5
265
330
1F
100
AcDbEntity
  8
0
  6
Continuous
 62
     7
370
    25
100
AcDbLine
 10
1017.2046972621
 20
1446.9530169339
 30
0.0
 11
1016.5188020832
 21
1446.9530169339
 31
0.0
  0
LINE
  5
266
330
1F
100
AcDbEntity
  8
0
  6
Continuous
 62
     7
370
    25
100
AcDbLine
 10
1013.8710027348
 20
1446.9530169339
 30
0.0
 11
1013.1851075559
 21
1446.9530169339
 31
0.0
  0
LINE
  5
267
330
1F
100
AcDbEntity
  8
0
  6
Continuous
 62
     7
370
    25
100
AcDbLine
 10
1010.5373082075
 20
1446.9530169339
 30
0.0
 11
1009.8514130286
 21
1446.9530169339
 31
0.0
  0
LINE
  5
268
330
1F
100
AcDbEntity
  8
0
  6
Continuous
 62
     7
370
    25
100
AcDbLine
 10
1007.2036136802
 20
1446.9530169339
 30
0.0
 11
1006.5177185012
 21
1446.9530169339
 31
0.0
  0
LINE
  5
269
330
1F
100
AcDbEntity
  8
0
  6
Continuous
 62
     7
370
    25
100
AcDbLine
 10
1003.914157302
 20
1470.7212122897
 30
0.0
 11
1003.914157302
 21
1480.7212122897
 31
0.0
  0
LINE
  5
26A
330
1F
100
AcDbEntity
  8
0
  6
Continuous
 62
     7
370
    25
100
AcDbLine
 10
1003.914157302
 20
1480.7212122897
 30
0.0
 11
1006.74257082
 21
1480.7212122897
 31
0.0
  0
LINE
  5
26B
330
1F
100
AcDbEntity
  8
0
  6
Continuous
 62
     7
370
    25
100
AcDbLine
 10
995.6667097044
 20
1480.7212122897
 30
0.0
 11
995.6667097044
 21
1470.7212122897
 31
0.0
  0
LINE
  5
26C
330
1F
100
AcDbEntity
  8
0
  6
Continuous
 62
     7
370
    25
100
AcDbLine
 10
995.6667097044
 20
1480.7212122897
 30
0.0
 11
1003.914157302
 21
1480.7212122897
 31
0.0
  0
ARC
  5
26D
330
1F
100
AcDbEntity
  8
0
  6
Continuous
 62
     7
370
    25
100
AcDbCircle
 10
1017.7724427973
 20
1465.0918344198
 30
0.0
 40
9.173397336596288
100
AcDbArc
 50
270.6626154591
 51
274.1917657919
  0
LINE
  5
26E
330
1F
100
AcDbEntity
  8
0
  6
Continuous
 62
     7
370
    25
100
AcDbLine
 10
1015.0413423029
 20
1480.7212122897
 30
0.0
 11
1015.6315222008
 21
1480.7212122897
 31
0.0
  0
LINE
  5
26F
330
1F
100
AcDbEntity
  8
0
  6
Continuous
 62
     7
370
    25
100
AcDbLine
 10
995.0853031203
 20
1480.7212122897
 30
0.0
 11
995.6667097044
 21
1480.7212122897
 31
0.0
  0
LWPOLYLINE
  5
270
330
1F
100
AcDbEntity
  8
0
  6
Continuous
 62
     7
370
    25
100
AcDbPolyline
 90
        6
 70
   128
 43
0.0
 10
1003.9053839882
 20
1405.0869833429
 10
1004.1528601795
 20
1402.8257155724
 10
1005.2030707997
 20
1398.7297869033
 10
1006.2720581721
 20
1394.6360640819
 10
1006.6156989003
 20
1392.4820881205
 10
1006.74257082
 20
1390.284821578
  0
LINE
  5
271
330
1F
100
AcDbEntity
  8
0
  6
Continuous
 62
     7
370
    25
100
AcDbLine
 10
1006.74257082
 20
1390.284821578
 30
0.0
 11
1003.914157302
 21
1390.284821578
 31
0.0
  0
LWPOLYLINE
  5
272
330
1F
100
AcDbEntity
  8
0
  6
Continuous
 62
     7
370
    25
100
AcDbPolyline
 90
        6
 70
   128
 43
0.0
 10
1003.914157302
 20
1390.284821578
 10
1003.9141573019
 20
1390.284881578
 10
1003.4994542697
 20
1394.0805993139
 10
1002.4812951156
 20
1397.9690180913
 10
1001.3693819517
 20
1402.3263218241
 10
1001.0769704702
 20
1405.0530169339
  0
ARC
  5
273
330
1F
100
AcDbEntity
  8
0
  6
Continuous
 62
     7
370
    25
100
AcDbCircle
 10
1001.0052786266
 20
1528.802117194
 30
0.0
 40
123.7491210267933
100
AcDbArc
 50
270.0331932886
 51
271.3428702339
  0
LINE
  5
274
330
1F
100
AcDbEntity
  8
0
  6
Continuous
 62
     7
370
    25
100
AcDbLine
 10
1001.0769704702
 20
1414.0530169339
 30
0.0
 11
1001.5881163268
 21
1414.0530169339
 31
0.0
  0
LINE
  5
275
330
1F
100
AcDbEntity
  8
0
  6
Continuous
 62
     7
370
    25
100
AcDbLine
 10
1003.9053839882
 20
1414.0530169339
 30
0.0
 11
1003.9053839882
 21
1405.0869833429
 31
0.0
  0
LINE
  5
276
330
1F
100
AcDbEntity
  8
0
  6
Continuous
 62
     7
370
    25
100
AcDbLine
 10
1001.0769704702
 20
1414.0530169339
 30
0.0
 11
1001.0769704702
 21
1405.0530169339
 31
0.0
  0
LINE
  5
277
330
1F
100
AcDbEntity
  8
0
  6
Continuous
 62
     7
370
    25
100
AcDbLine
 10
1003.914157302
 20
1390.284821578
 30
0.0
 11
995.6667097044
 21
1390.284821578
 31
0.0
  0
LINE
  5
278
330
1F
100
AcDbEntity
  8
0
  6
Continuous
 62
     7
370
    25
100
AcDbLine
 10
996.4075521727
 20
1405.0530169339
 30
0.0
 11
1001.0769704702
 21
1405.0530169339
 31
0.0
  0
LINE
  5
279
330
1F
100
AcDbEntity
  8
0
  6
Continuous
 62
     7
370
    25
100
AcDbLine
 10
1017.8785291347
 20
1414.0530169339
 30
0.0
 11
1017.8785291347
 21
1405.0869833429
 31
0.0
  0
LWPOLYLINE
  5
27A
330
1F
100
AcDbEntity
  8
0
  6
Continuous
 62
     7
370
    25
100
AcDbPolyline
 90
        6
 70
   128
 43
0.0
 10
1015.0413423029
 20
1390.284821578
 10
1015.1682142226
 20
1392.4820881205
 10
1015.5118549508
 20
1394.6360640819
 10
1016.5808423232
 20
1398.7297869033
 10
1017.6310529434
 20
1402.8257155724
 10
1017.8785291347
 20
1405.0869833429
  0
LINE
  5
27B
330
1F
100
AcDbEntity
  8
0
  6
Continuous
 62
     7
370
    25
100
AcDbLine
 10
1015.0413423029
 20
1380.284821578
 30
0.0
 11
1015.0413423029
 21
1390.284821578
 31
0.0
  0
LINE
  5
27C
330
1F
100
AcDbEntity
  8
0
  6
Continuous
 62
     7
370
    25
100
AcDbLine
 10
1006.74257082
 20
1380.284821578
 30
0.0
 11
1015.0413423029
 21
1380.284821578
 31
0.0
  0
LINE
  5
27D
330
1F
100
AcDbEntity
  8
0
  6
Continuous
 62
     7
370
    25
100
AcDbLine
 10
1006.74257082
 20
1390.284821578
 30
0.0
 11
1006.74257082
 21
1380.284821578
 31
0.0
  0
LINE
  5
27E
330
1F
100
AcDbEntity
  8
0
  6
Continuous
 62
     7
370
    25
100
AcDbLine
 10
1000.0008356714
 20
1414.0530169339
 30
0.0
 11
1001.0769704702
 21
1414.0530169339
 31
0.0
  0
LINE
  5
27F
330
1F
100
AcDbEntity
  8
0
  6
Continuous
 62
     7
370
    25
100
AcDbLine
 10
1003.914157302
 20
1380.284821578
 30
0.0
 11
1003.914157302
 21
1390.284821578
 31
0.0
  0
LINE
  5
280
330
1F
100
AcDbEntity
  8
0
  6
Continuous
 62
     7
370
    25
100
AcDbLine
 10
1006.74257082
 20
1380.284821578
 30
0.0
 11
1003.914157302
 21
1380.284821578
 31
0.0
  0
LINE
  5
281
330
1F
100
AcDbEntity
  8
0
  6
Continuous
 62
     7
370
    25
100
AcDbLine
 10
995.6667097044
 20
1390.284821578
 30
0.0
 11
995.6667097044
 21
1380.284821578
 31
0.0
  0
LINE
  5
282
330
1F
100
AcDbEntity
  8
0
  6
Continuous
 62
     7
370
    25
100
AcDbLine
 10
1003.914157302
 20
1380.284821578
 30
0.0
 11
995.6667097044
 21
1380.284821578
 31
0.0
  0
ARC
  5
283
330
1F
100
AcDbEntity
  8
0
  6
Continuous
 62
     7
370
    25
100
AcDbCircle
 10
1017.7730161072
 20
1395.9358307466
 30
0.0
 40
9.151760860047695
100
AcDbArc
 50
85.8008870922
 51
89.3394074445
  0
LINE
  5
284
330
1F
100
AcDbEntity
  8
0
  6
Continuous
 62
     7
370
    25
100
AcDbLine
 10
1015.6315222008
 20
1380.284821578
 30
0.0
 11
1015.0413423029
 21
1380.284821578
 31
0.0
  0
LINE
  5
285
330
1F
100
AcDbEntity
  8
0
  6
Continuous
 62
     7
370
    25
100
AcDbLine
 10
995.6667097044
 20
1380.284821578
 30
0.0
 11
995.0853031203
 21
1380.284821578
 31
0.0
  0
ARC
  5
286
330
1F
100
AcDbEntity
  8
0
  6
Continuous
 62
     7
370
    25
100
AcDbCircle
 10
977.8237349934
 20
1445.64282347
 30
0.0
 40
1.020378247364341
100
AcDbArc
 50
131.5347531417
 51
180.8393489139
  0
ELLIPSE
  5
287
330
1F
100
AcDbEntity
  8
0
  6
Continuous
 62
     7
370
    25
100
AcDbEllipse
 10
983.6806827084
 20
1444.5355982256
 30
0.0
 11
11.62602773607034
 21
7.608452227045518
 31
0.0
210
0.0
220
0.0
230
1.0
 40
0.3906778
 41
1.709536242206791
 42
1.896232789965647
  0
LWPOLYLINE
  5
288
330
1F
100
AcDbEntity
  8
0
  6
Continuous
 62
     7
370
    25
100
AcDbPolyline
 90
        3
 70
   128
 43
0.0
 10
979.8344905784
 20
1448.2030169339
 10
979.4714416243
 20
1448.150869048
 10
979.1289671062
 20
1447.9817722086
  0
LINE
  5
289
330
1F
100
AcDbEntity
  8
0
  6
Continuous
 62
     7
370
    25
100
AcDbLine
 10
981.9467866799
 20
1448.2030169339
 30
0.0
 11
979.8344905784
 21
1448.2030169339
 31
0.0
  0
LINE
  5
28A
330
1F
100
AcDbEntity
  8
0
  6
Continuous
 62
     7
370
    25
100
AcDbLine
 10
981.9467866799
 20
1425.6030169339
 30
0.0
 11
981.9467866799
 21
1448.2030169339
 31
0.0
  0
LINE
  5
28B
330
1F
100
AcDbEntity
  8
0
  6
Continuous
 62
     7
370
    25
100
AcDbLine
 10
981.9467866799
 20
1425.6030169339
 30
0.0
 11
975.1691222131
 21
1425.6030169339
 31
0.0
  0
LINE
  5
28C
330
1F
100
AcDbEntity
  8
0
  6
Continuous
 62
     7
370
    25
100
AcDbLine
 10
975.1691222131
 20
1425.6030169339
 30
0.0
 11
975.1691222131
 21
1443.2030169339
 31
0.0
  0
LINE
  5
28D
330
1F
100
AcDbEntity
  8
0
  6
Continuous
 62
     7
370
    25
100
AcDbLine
 10
975.1691222131
 20
1443.2030169339
 30
0.0
 11
976.8034662332
 21
1443.2030169339
 31
0.0
  0
LINE
  5
28E
330
1F
100
AcDbEntity
  8
0
  6
Continuous
 62
     7
370
    25
100
AcDbLine
 10
976.8034662332
 20
1445.6278760734
 30
0.0
 11
976.8034662332
 21
1443.2030169339
 31
0.0
  0
LWPOLYLINE
  5
28F
330
1F
100
AcDbEntity
  8
0
  6
Continuous
 62
     7
370
    25
100
AcDbPolyline
 90
        9
 70
   128
 43
0.0
 10
979.8344905784
 20
1448.2030169339
 10
979.8406492037
 20
1448.3981072559
 10
979.858888407
 20
1448.5857003662
 10
979.888507266
 20
1448.7585871669
 10
979.9283675445
 20
1448.910123715
 10
979.9769374344
 20
1449.0344865462
 10
980.0323504221
 20
1449.1268964664
 10
980.0924770175
 20
1449.1838022143
 10
980.1550065892
 20
1449.2030169339
  0
LINE
  5
290
330
1F
100
AcDbEntity
  8
0
  6
Continuous
 62
     7
370
    25
100
AcDbLine
 10
980.1550065892
 20
1449.2030169339
 30
0.0
 11
980.6570047466
 21
1449.2030169339
 31
0.0
  0
LWPOLYLINE
  5
291
330
1F
100
AcDbEntity
  8
0
  6
Continuous
 62
     7
370
    25
100
AcDbPolyline
 90
        7
 70
   128
 43
0.0
 10
980.6570047466
 20
1449.2030169339
 10
981.3619147977
 20
1449.0563844947
 10
981.6011547756
 20
1448.9048129258
 10
981.8078159502
 20
1448.6728436405
 10
981.9053880235
 20
1448.4658003344
 10
981.9448472366
 20
1448.2604492681
 10
981.9467866799
 20
1448.2030169339
  0
LWPOLYLINE
  5
292
330
1F
100
AcDbEntity
  8
0
  6
Continuous
 62
     7
370
    25
100
AcDbPolyline
 90
        7
 70
   128
 43
0.0
 10
977.1471484927
 20
1446.4066313481
 10
977.0497775818
 20
1446.572684577
 10
976.9814040971
 20
1446.7312356627
 10
976.9451170944
 20
1446.8751214026
 10
976.9425559894
 20
1446.9978411616
 10
976.9738364907
 20
1447.0938505659
 10
977.0072444354
 20
1447.1357706996
  0
LINE
  5
293
330
1F
100
AcDbEntity
  8
0
  6
Continuous
 62
     7
370
    25
100
AcDbLine
 10
972.2789910037
 20
1443.2030169339
 30
0.0
 11
972.2789910037
 21
1425.6030169339
 31
0.0
  0
LINE
  5
294
330
1F
100
AcDbEntity
  8
0
  6
Continuous
 62
     7
370
    25
100
AcDbLine
 10
972.2789910037
 20
1443.2030169339
 30
0.0
 11
975.1691222131
 21
1443.2030169339
 31
0.0
  0
LINE
  5
295
330
1F
100
AcDbEntity
  8
0
  6
Continuous
 62
     7
370
    25
100
AcDbLine
 10
972.2789910037
 20
1425.6030169339
 30
0.0
 11
975.1691222131
 21
1425.6030169339
 31
0.0
  0
LINE
  5
296
330
1F
100
AcDbEntity
  8
0
  6
Continuous
 62
     7
370
    25
100
AcDbLine
 10
969.3999926627
 20
1448.2030169339
 30
0.0
 11
968.9059507351
 21
1448.2030169339
 31
0.0
  0
LWPOLYLINE
  5
297
330
1F
100
AcDbEntity
  8
0
  6
Continuous
 62
     7
370
    25
100
AcDbPolyline
 90
        3
 70
   128
 43
0.0
 10
969.6592903575
 20
1447.9817722086
 10
969.5414911693
 20
1448.1385283062
 10
969.3999926627
 20
1448.2030169339
  0
ELLIPSE
  5
298
330
1F
100
AcDbEntity
  8
0
  6
Continuous
 62
     7
370
    25
100
AcDbEllipse
 10
980.790551499
 20
1444.5355982256
 30
0.0
 11
11.62602773607034
 21
-7.608452227045291
 31
0.0
210
0.0
220
0.0
230
1.0
 40
0.3906778
 41
3.774749174078844
 42
3.961445721837688
  0
ARC
  5
299
330
1F
100
AcDbEntity
  8
0
  6
Continuous
 62
     7
370
    25
100
AcDbCircle
 10
969.5720205498
 20
1445.6555358627
 30
0.0
 40
1.342527584793491
100
AcDbArc
 50
358.8194646072
 51
34.0187189626
  0
LINE
  5
29A
330
1F
100
AcDbEntity
  8
0
  6
Continuous
 62
     7
370
    25
100
AcDbLine
 10
970.9142631702
 20
1443.2030169339
 30
0.0
 11
970.9142631702
 21
1445.6278760734
 31
0.0
  0
LINE
  5
29B
330
1F
100
AcDbEntity
  8
0
  6
Continuous
 62
     7
370
    25
100
AcDbLine
 10
970.9142631702
 20
1443.2030169339
 30
0.0
 11
972.2789910037
 21
1443.2030169339
 31
0.0
  0
LINE
  5
29C
330
1F
100
AcDbEntity
  8
0
  6
Continuous
 62
     7
370
    25
100
AcDbLine
 10
968.9059507351
 20
1448.2030169339
 30
0.0
 11
968.9059507351
 21
1425.6030169339
 31
0.0
  0
LINE
  5
29D
330
1F
100
AcDbEntity
  8
0
  6
Continuous
 62
     7
370
    25
100
AcDbLine
 10
972.2789910037
 20
1425.6030169339
 30
0.0
 11
968.9059507351
 21
1425.6030169339
 31
0.0
  0
ARC
  5
29E
330
1F
100
AcDbEntity
  8
0
  6
Continuous
 62
     7
370
    25
100
AcDbCircle
 10
969.8333931665
 20
1445.6861060241
 30
0.0
 40
2.609453863626918
100
AcDbArc
 50
358.7213388149
 51
35.0686310437
  0
LINE
  5
29F
330
1F
100
AcDbEntity
  8
0
  6
Continuous
 62
     7
370
    25
100
AcDbLine
 10
972.4421972486
 20
1445.6278760734
 30
0.0
 11
970.9142631702
 21
1445.6278760734
 31
0.0
  0
ARC
  5
2A0
330
1F
100
AcDbEntity
  8
0
  6
Continuous
 62
     7
370
    25
100
AcDbCircle
 10
971.9011058858
 20
1445.8491019176
 30
0.0
 40
1.338015403226268
100
AcDbArc
 50
87.085496876
 51
155.3745976296
  0
LINE
  5
2A1
330
1F
100
AcDbEntity
  8
0
  6
Continuous
 62
     7
370
    25
100
AcDbLine
 10
972.4421972486
 20
1445.6278760734
 30
0.0
 11
972.4421972486
 21
1443.2030169339
 31
0.0
  0
ELLIPSE
  5
2A2
330
1F
100
AcDbEntity
  8
0
  6
Continuous
 62
     7
370
    25
100
AcDbEllipse
 10
981.2327612005
 20
1445.3143535004
 30
0.0
 11
10.5446907703739
 21
-7.777269132721586
 31
0.0
210
0.0
220
0.0
230
1.0
 40
0.4027135399
 41
3.813162043109981
 42
3.999858590868856
  0
ARC
  5
2A3
330
1F
100
AcDbEntity
  8
0
  6
Continuous
 62
     7
370
    25
100
AcDbCircle
 10
970.797291508
 20
1447.574167089
 30
0.0
 40
1.208796323613851
100
AcDbArc
 50
78.9437685446
 51
160.2936759186
  0
LINE
  5
2A4
330
1F
100
AcDbEntity
  8
0
  6
Continuous
 62
     7
370
    25
100
AcDbLine
 10
973.3116385543
 20
1445.6278760734
 30
0.0
 11
972.4421972486
 21
1445.6278760734
 31
0.0
  0
ARC
  5
2A5
330
1F
100
AcDbEntity
  8
0
  6
Continuous
 62
     7
370
    25
100
AcDbCircle
 10
970.7743259169
 20
1445.6601310505
 30
0.0
 40
2.537517645860417
100
AcDbArc
 50
359.2716804029
 51
30.6310724168
  0
LINE
  5
2A6
330
1F
100
AcDbEntity
  8
0
  6
Continuous
 62
     7
370
    25
100
AcDbLine
 10
973.3116385543
 20
1445.6278760734
 30
0.0
 11
973.3116385543
 21
1443.2030169339
 31
0.0
  0
LWPOLYLINE
  5
2A7
330
1F
100
AcDbEntity
  8
0
  6
Continuous
 62
     7
370
    25
100
AcDbPolyline
 90
        3
 70
   128
 43
0.0
 10
970.3492058991
 20
1449.2030169339
 10
970.7279551724
 20
1449.0740396786
 10
971.0291051542
 20
1448.7605274834
  0
ARC
  5
2A8
330
1F
100
AcDbEntity
  8
0
  6
Continuous
 62
     7
370
    25
100
AcDbCircle
 10
970.3752786055
 20
1448.2277654918
 30
0.0
 40
0.9755998981017504
100
AcDbArc
 50
91.5314002361
 51
181.4536082364
  0
LINE
  5
2A9
330
1F
100
AcDbEntity
  8
0
  6
Continuous
 62
     7
370
    25
100
AcDbLine
 10
970.3492058991
 20
1449.2030169339
 30
0.0
 11
970.4932438614
 21
1449.2030169339
 31
0.0
  0
LINE
  5
2AA
330
1F
100
AcDbEntity
  8
0
  6
Continuous
 62
     7
370
    25
100
AcDbLine
 10
970.1957326683
 20
1449.2030169339
 30
0.0
 11
970.3492058991
 21
1449.2030169339
 31
0.0
  0
ARC
  5
2AB
330
1F
100
AcDbEntity
  8
0
  6
Continuous
 62
     7
370
    25
100
AcDbCircle
 10
970.0254622638
 20
1448.0908599077
 30
0.0
 40
1.125115665814031
100
AcDbArc
 50
81.2956474969
 51
174.2789749308
  0
LINE
  5
2AC
330
1F
100
AcDbEntity
  8
0
  6
Continuous
 62
     7
370
    25
100
AcDbLine
 10
1019.5081569002
 20
1434.1530169339
 30
0.0
 11
1019.5081569002
 21
1415.4530169339
 31
0.0
  0
LINE
  5
2AD
330
1F
100
AcDbEntity
  8
0
  6
Continuous
 62
     7
370
    25
100
AcDbLine
 10
1019.5081569002
 20
1415.4530169339
 30
0.0
 11
1019.3846534332
 21
1415.4530169339
 31
0.0
  0
LINE
  5
2AE
330
1F
100
AcDbEntity
  8
0
  6
Continuous
 62
     7
370
    25
100
AcDbLine
 10
1019.5081569002
 20
1434.1530169339
 30
0.0
 11
1019.3846534332
 21
1434.1530169339
 31
0.0
  0
LINE
  5
2AF
330
1F
100
AcDbEntity
  8
0
  6
Continuous
 62
     7
370
    25
100
AcDbLine
 10
1019.3846534332
 20
1435.4030169339
 30
0.0
 11
1020.6569411981
 21
1435.4030169339
 31
0.0
  0
LINE
  5
2B0
330
1F
100
AcDbEntity
  8
0
  6
Continuous
 62
     7
370
    25
100
AcDbLine
 10
1020.6569411981
 20
1435.4030169339
 30
0.0
 11
1020.6569411981
 21
1412.8030169339
 31
0.0
  0
LWPOLYLINE
  5
2B1
330
1F
100
AcDbEntity
  8
0
  6
Continuous
 62
     7
370
    25
100
AcDbPolyline
 90
        7
 70
   128
 43
0.0
 10
1019.3671592648
 20
1411.8030169339
 10
1020.0720693159
 20
1411.949649373
 10
1020.3113092938
 20
1412.1012209419
 10
1020.5179704684
 20
1412.3331902272
 10
1020.6155425417
 20
1412.5402335333
 10
1020.6550017548
 20
1412.7455845996
 10
1020.6569411981
 20
1412.8030169339
  0
LINE
  5
2B2
330
1F
100
AcDbEntity
  8
0
  6
Continuous
 62
     7
370
    25
100
AcDbLine
 10
1019.3671592648
 20
1411.8030169339
 30
0.0
 11
1019.0394235707
 21
1411.8030169339
 31
0.0
  0
ARC
  5
2B3
330
1F
100
AcDbEntity
  8
0
  6
Continuous
 62
     7
370
    25
100
AcDbCircle
 10
1019.0489949009
 20
1412.8717860284
 30
0.0
 40
1.068811951524201
100
AcDbArc
 50
237.1169481186
 51
269.4869030493
  0
LINE
  5
2B4
330
1F
100
AcDbEntity
  8
0
  6
Continuous
 62
     7
370
    25
100
AcDbLine
 10
981.9467866799
 20
1446.9530169339
 30
0.0
 11
982.9215058489
 21
1446.9530169339
 31
0.0
  0
LINE
  5
2B5
330
1F
100
AcDbEntity
  8
0
  6
Continuous
 62
     7
370
    25
100
AcDbLine
 10
982.9215058489
 20
1446.9530169339
 30
0.0
 11
982.9215058489
 21
1425.4530169339
 31
0.0
  0
LINE
  5
2B6
330
1F
100
AcDbEntity
  8
0
  6
Continuous
 62
     7
370
    25
100
AcDbLine
 10
996.7527916538
 20
1425.4530169339
 30
0.0
 11
996.7527916538
 21
1446.9530169339
 31
0.0
  0
LINE
  5
2B7
330
1F
100
AcDbEntity
  8
0
  6
Continuous
 62
     7
370
    25
100
AcDbLine
 10
996.7527916538
 20
1446.9530169339
 30
0.0
 11
982.9215058489
 21
1446.9530169339
 31
0.0
  0
LINE
  5
2B8
330
1F
100
AcDbEntity
  8
0
  6
Continuous
 62
     7
370
    25
100
AcDbLine
 10
996.7527916538
 20
1446.9530169339
 30
0.0
 11
997.3429715516
 21
1446.9530169339
 31
0.0
  0
LINE
  5
2B9
330
1F
100
AcDbEntity
  8
0
  6
Continuous
 62
     7
370
    25
100
AcDbLine
 10
1004.9631877305
 20
1435.5530169339
 30
0.0
 11
1004.9631877305
 21
1414.0530169339
 31
0.0
  0
LINE
  5
2BA
330
1F
100
AcDbEntity
  8
0
  6
Continuous
 62
     7
370
    25
100
AcDbLine
 10
1004.9631877305
 20
1414.0530169339
 30
0.0
 11
1002.1347742125
 21
1414.0530169339
 31
0.0
  0
LINE
  5
2BB
330
1F
100
AcDbEntity
  8
0
  6
Continuous
 62
     7
370
    25
100
AcDbLine
 10
1018.7944735354
 20
1414.0530169339
 30
0.0
 11
1018.7944735354
 21
1435.5530169339
 31
0.0
  0
LINE
  5
2BC
330
1F
100
AcDbEntity
  8
0
  6
Continuous
 62
     7
370
    25
100
AcDbLine
 10
1004.9631877305
 20
1414.0530169339
 30
0.0
 11
1018.7944735354
 21
1414.0530169339
 31
0.0
  0
LINE
  5
2BD
330
1F
100
AcDbEntity
  8
0
  6
Continuous
 62
     7
370
    25
100
AcDbLine
 10
1001.5881163268
 20
1414.0530169339
 30
0.0
 11
1002.1347742125
 21
1414.0530169339
 31
0.0
  0
LINE
  5
2BE
330
1F
100
AcDbEntity
  8
0
  6
Continuous
 62
     7
370
    25
100
AcDbLine
 10
1019.3846534332
 20
1414.0530169339
 30
0.0
 11
1018.7944735354
 21
1414.0530169339
 31
0.0
  0
LINE
  5
2BF
330
1F
100
AcDbEntity
  8
0
  6
Continuous
 62
     7
370
    25
100
AcDbLine
 10
975.8167307789
 20
1580.7212122897
 30
0.0
 11
990.8167307789
 21
1580.7212122897
 31
0.0
  0
LINE
  5
2C0
330
1F
100
AcDbEntity
  8
0
  6
Continuous
 62
     7
370
    25
100
AcDbLine
 10
997.8584126605
 20
1580.7212122897
 30
0.0
 11
1012.8584126605
 21
1580.7212122897
 31
0.0
  0
LINE
  5
2C1
330
1F
100
AcDbEntity
  8
0
  6
Continuous
 62
     7
370
    25
100
AcDbLine
 10
999.3715639808
 20
1590.7212122897
 30
0.0
 11
999.3715639808
 21
1587.7212122897
 31
0.0
  0
LINE
  5
2C2
330
1F
100
AcDbEntity
  8
0
  6
Continuous
 62
     7
370
    25
100
AcDbLine
 10
1012.0664434778
 20
1590.7212122897
 30
0.0
 11
1012.0664434778
 21
1587.7212122897
 31
0.0
  0
LINE
  5
2C3
330
1F
100
AcDbEntity
  8
0
  6
Continuous
 62
     7
370
    25
100
AcDbLine
 10
1012.0664434778
 20
1590.7212122897
 30
0.0
 11
999.3715639808
 21
1590.7212122897
 31
0.0
  0
LINE
  5
2C4
330
1F
100
AcDbEntity
  8
0
  6
Continuous
 62
     7
370
    25
100
AcDbLine
 10
1012.0664434778
 20
1587.7212122897
 30
0.0
 11
999.3715639808
 21
1587.7212122897
 31
0.0
  0
LINE
  5
2C5
330
1F
100
AcDbEntity
  8
0
  6
Continuous
 62
     7
370
    25
100
AcDbLine
 10
999.3715639808
 20
1598.5212122897
 30
0.0
 11
999.3715639808
 21
1597.7212122897
 31
0.0
  0
LINE
  5
2C6
330
1F
100
AcDbEntity
  8
0
  6
Continuous
 62
     7
370
    25
100
AcDbLine
 10
1012.0664434778
 20
1600.7212122897
 30
0.0
 11
1012.0664434778
 21
1597.7212122897
 31
0.0
  0
LINE
  5
2C7
330
1F
100
AcDbEntity
  8
0
  6
Continuous
 62
     7
370
    25
100
AcDbLine
 10
1012.0664434778
 20
1597.7212122897
 30
0.0
 11
999.3715639808
 21
1597.7212122897
 31
0.0
  0
LINE
  5
2C8
330
1F
100
AcDbEntity
  8
0
  6
Continuous
 62
     7
370
    25
100
AcDbLine
 10
1015.2000800251
 20
1594.2212122897
 30
0.0
 11
994.6084126605
 21
1594.2212122897
 31
0.0
  0
LINE
  5
2C9
330
1F
100
AcDbEntity
  8
0
  6
Continuous
 62
     7
370
    25
100
AcDbLine
 10
1016.1084126605
 20
1594.2212122897
 30
0.0
 11
1015.2000800251
 21
1594.2212122897
 31
0.0
  0
LINE
  5
2CA
330
1F
100
AcDbEntity
  8
0
  6
Continuous
 62
     7
370
    25
100
AcDbLine
 10
999.3715639808
 20
1597.7212122897
 30
0.0
 11
996.0116102759
 21
1597.7212122897
 31
0.0
  0
LINE
  5
2CB
330
1F
100
AcDbEntity
  8
0
  6
Continuous
 62
     7
370
    25
100
AcDbLine
 10
999.3715639808
 20
1590.7212122897
 30
0.0
 11
996.0116102759
 21
1590.7212122897
 31
0.0
  0
LINE
  5
2CC
330
1F
100
AcDbEntity
  8
0
  6
Continuous
 62
     7
370
    25
100
AcDbLine
 10
999.3715639808
 20
1587.7212122897
 30
0.0
 11
996.0116102759
 21
1587.7212122897
 31
0.0
  0
LINE
  5
2CD
330
1F
100
AcDbEntity
  8
0
  6
Continuous
 62
     7
370
    25
100
AcDbLine
 10
1018.0532921574
 20
1590.7212122897
 30
0.0
 11
1018.0532921574
 21
1587.7212122897
 31
0.0
  0
LINE
  5
2CE
330
1F
100
AcDbEntity
  8
0
  6
Continuous
 62
     7
370
    25
100
AcDbLine
 10
1018.0532921574
 20
1590.7212122897
 30
0.0
 11
1012.0664434778
 21
1590.7212122897
 31
0.0
  0
LINE
  5
2CF
330
1F
100
AcDbEntity
  8
0
  6
Continuous
 62
     7
370
    25
100
AcDbLine
 10
1018.0532921574
 20
1587.7212122897
 30
0.0
 11
1012.0664434778
 21
1587.7212122897
 31
0.0
  0
LINE
  5
2D0
330
1F
100
AcDbEntity
  8
0
  6
Continuous
 62
     7
370
    25
100
AcDbLine
 10
1018.0532921574
 20
1600.7212122897
 30
0.0
 11
1018.0532921574
 21
1597.7212122897
 31
0.0
  0
LINE
  5
2D1
330
1F
100
AcDbEntity
  8
0
  6
Continuous
 62
     7
370
    25
100
AcDbLine
 10
1018.0532921574
 20
1597.7212122897
 30
0.0
 11
1012.0664434778
 21
1597.7212122897
 31
0.0
  0
LINE
  5
2D2
330
1F
100
AcDbEntity
  8
0
  6
Continuous
 62
     7
370
    25
100
AcDbLine
 10
977.3298820993
 20
1600.7212122897
 30
0.0
 11
977.3298820993
 21
1597.7212122897
 31
0.0
  0
LINE
  5
2D3
330
1F
100
AcDbEntity
  8
0
  6
Continuous
 62
     7
370
    25
100
AcDbLine
 10
990.0247615962
 20
1600.7212122897
 30
0.0
 11
990.0247615962
 21
1597.7212122897
 31
0.0
  0
LINE
  5
2D4
330
1F
100
AcDbEntity
  8
0
  6
Continuous
 62
     7
370
    25
100
AcDbLine
 10
990.0247615962
 20
1597.7212122897
 30
0.0
 11
977.3298820993
 21
1597.7212122897
 31
0.0
  0
LINE
  5
2D5
330
1F
100
AcDbEntity
  8
0
  6
Continuous
 62
     7
370
    25
100
AcDbLine
 10
977.3298820993
 20
1590.7212122897
 30
0.0
 11
977.3298820993
 21
1587.7212122897
 31
0.0
  0
LINE
  5
2D6
330
1F
100
AcDbEntity
  8
0
  6
Continuous
 62
     7
370
    25
100
AcDbLine
 10
990.0247615962
 20
1590.7212122897
 30
0.0
 11
990.0247615962
 21
1587.7212122897
 31
0.0
  0
LINE
  5
2D7
330
1F
100
AcDbEntity
  8
0
  6
Continuous
 62
     7
370
    25
100
AcDbLine
 10
990.0247615962
 20
1587.7212122897
 30
0.0
 11
977.3298820993
 21
1587.7212122897
 31
0.0
  0
LINE
  5
2D8
330
1F
100
AcDbEntity
  8
0
  6
Continuous
 62
     7
370
    25
100
AcDbLine
 10
990.0247615962
 20
1590.7212122897
 30
0.0
 11
977.3298820993
 21
1590.7212122897
 31
0.0
  0
LINE
  5
2D9
330
1F
100
AcDbEntity
  8
0
  6
Continuous
 62
     7
370
    25
100
AcDbLine
 10
993.1583981435
 20
1594.2212122897
 30
0.0
 11
972.5667307789
 21
1594.2212122897
 31
0.0
  0
LINE
  5
2DA
330
1F
100
AcDbEntity
  8
0
  6
Continuous
 62
     7
370
    25
100
AcDbLine
 10
994.0667307789
 20
1594.2212122897
 30
0.0
 11
993.1583981435
 21
1594.2212122897
 31
0.0
  0
LINE
  5
2DB
330
1F
100
AcDbEntity
  8
0
  6
Continuous
 62
     7
370
    25
100
AcDbLine
 10
970.621851282
 20
1600.7212122897
 30
0.0
 11
970.621851282
 21
1597.7212122897
 31
0.0
  0
LINE
  5
2DC
330
1F
100
AcDbEntity
  8
0
  6
Continuous
 62
     7
370
    25
100
AcDbLine
 10
977.3298820993
 20
1597.7212122897
 30
0.0
 11
970.621851282
 21
1597.7212122897
 31
0.0
  0
LINE
  5
2DD
330
1F
100
AcDbEntity
  8
0
  6
Continuous
 62
     7
370
    25
100
AcDbLine
 10
970.621851282
 20
1590.7212122897
 30
0.0
 11
970.621851282
 21
1587.7212122897
 31
0.0
  0
LINE
  5
2DE
330
1F
100
AcDbEntity
  8
0
  6
Continuous
 62
     7
370
    25
100
AcDbLine
 10
977.3298820993
 20
1587.7212122897
 30
0.0
 11
970.621851282
 21
1587.7212122897
 31
0.0
  0
LINE
  5
2DF
330
1F
100
AcDbEntity
  8
0
  6
Continuous
 62
     7
370
    25
100
AcDbLine
 10
977.3298820993
 20
1590.7212122897
 30
0.0
 11
970.621851282
 21
1590.7212122897
 31
0.0
  0
LINE
  5
2E0
330
1F
100
AcDbEntity
  8
0
  6
Continuous
 62
     7
370
    25
100
AcDbLine
 10
996.0116102759
 20
1590.7212122897
 30
0.0
 11
996.0116102759
 21
1587.7212122897
 31
0.0
  0
LINE
  5
2E1
330
1F
100
AcDbEntity
  8
0
  6
Continuous
 62
     7
370
    25
100
AcDbLine
 10
996.0116102759
 20
1587.7212122897
 30
0.0
 11
990.0247615962
 21
1587.7212122897
 31
0.0
  0
LINE
  5
2E2
330
1F
100
AcDbEntity
  8
0
  6
Continuous
 62
     7
370
    25
100
AcDbLine
 10
996.0116102759
 20
1590.7212122897
 30
0.0
 11
990.0247615962
 21
1590.7212122897
 31
0.0
  0
LINE
  5
2E3
330
1F
100
AcDbEntity
  8
0
  6
Continuous
 62
     7
370
    25
100
AcDbLine
 10
996.0116102759
 20
1600.7212122897
 30
0.0
 11
996.0116102759
 21
1597.7212122897
 31
0.0
  0
LINE
  5
2E4
330
1F
100
AcDbEntity
  8
0
  6
Continuous
 62
     7
370
    25
100
AcDbLine
 10
996.0116102759
 20
1597.7212122897
 30
0.0
 11
990.0247615962
 21
1597.7212122897
 31
0.0
  0
LINE
  5
2E5
330
1F
100
AcDbEntity
  8
0
  6
Continuous
 62
     7
370
    25
100
AcDbLine
 10
1034.6020952253
 20
1670.6012122897
 30
0.0
 11
1042.2020952253
 21
1670.6012122897
 31
0.0
  0
LINE
  5
2E6
330
1F
100
AcDbEntity
  8
0
  6
Continuous
 62
     7
370
    25
100
AcDbLine
 10
1036.5020952253
 20
1672.4212122897
 30
0.0
 11
1040.3020952253
 21
1672.4212122897
 31
0.0
  0
LINE
  5
2E7
330
1F
100
AcDbEntity
  8
0
  6
Continuous
 62
     7
370
    25
100
AcDbLine
 10
999.4811821061
 20
1600.3412122897
 30
0.0
 11
997.209956319
 21
1600.3412122897
 31
0.0
  0
LINE
  5
2E8
330
1F
100
AcDbEntity
  8
0
  6
Continuous
 62
     7
370
    25
100
AcDbLine
 10
1004.809956319
 20
1600.3412122897
 30
0.0
 11
999.4811821061
 21
1600.3412122897
 31
0.0
  0
LINE
  5
2E9
330
1F
100
AcDbEntity
  8
0
  6
Continuous
 62
     7
370
    25
100
AcDbLine
 10
1000.2455692126
 20
1598.5212122897
 30
0.0
 11
999.109956319
 21
1598.5212122897
 31
0.0
  0
LINE
  5
2EA
330
1F
100
AcDbEntity
  8
0
  6
Continuous
 62
     7
370
    25
100
AcDbLine
 10
1002.909956319
 20
1598.5212122897
 30
0.0
 11
1000.2455692126
 21
1598.5212122897
 31
0.0
  0
LINE
  5
2EB
330
1F
100
AcDbEntity
  8
0
  6
Continuous
 62
     7
370
    25
100
AcDbLine
 10
955.4166586006
 20
1600.3412122897
 30
0.0
 11
953.1454328134
 21
1600.3412122897
 31
0.0
  0
LINE
  5
2EC
330
1F
100
AcDbEntity
  8
0
  6
Continuous
 62
     7
370
    25
100
AcDbLine
 10
960.7454328134
 20
1600.3412122897
 30
0.0
 11
955.4166586006
 21
1600.3412122897
 31
0.0
  0
LINE
  5
2ED
330
1F
100
AcDbEntity
  8
0
  6
Continuous
 62
     7
370
    25
100
AcDbLine
 10
956.181045707
 20
1598.5212122897
 30
0.0
 11
955.0454328134
 21
1598.5212122897
 31
0.0
  0
LINE
  5
2EE
330
1F
100
AcDbEntity
  8
0
  6
Continuous
 62
     7
370
    25
100
AcDbLine
 10
958.8454328134
 20
1598.5212122897
 30
0.0
 11
956.181045707
 21
1598.5212122897
 31
0.0
  0
LINE
  5
2EF
330
1F
100
AcDbEntity
  8
0
  6
Continuous
 62
     7
370
    25
100
AcDbLine
 10
1030.9653235196
 20
1598.5212122897
 30
0.0
 11
1029.829710626
 21
1598.5212122897
 31
0.0
  0
LINE
  5
2F0
330
1F
100
AcDbEntity
  8
0
  6
Continuous
 62
     7
370
    25
100
AcDbLine
 10
1033.629710626
 20
1598.5212122897
 30
0.0
 11
1030.9653235196
 21
1598.5212122897
 31
0.0
  0
LINE
  5
2F1
330
1F
100
AcDbEntity
  8
0
  6
Continuous
 62
     7
370
    25
100
AcDbLine
 10
1030.2009364131
 20
1600.3412122897
 30
0.0
 11
1027.929710626
 21
1600.3412122897
 31
0.0
  0
LINE
  5
2F2
330
1F
100
AcDbEntity
  8
0
  6
Continuous
 62
     7
370
    25
100
AcDbLine
 10
1034.6020952253
 20
1600.3412122897
 30
0.0
 11
1030.2009364131
 21
1600.3412122897
 31
0.0
  0
LINE
  5
2F3
330
1F
100
AcDbEntity
  8
0
  6
Continuous
 62
     7
370
    25
100
AcDbLine
 10
997.209956319
 20
1670.6012122897
 30
0.0
 11
1004.809956319
 21
1670.6012122897
 31
0.0
  0
LINE
  5
2F4
330
1F
100
AcDbEntity
  8
0
  6
Continuous
 62
     7
370
    25
100
AcDbLine
 10
999.109956319
 20
1672.4212122897
 30
0.0
 11
1002.909956319
 21
1672.4212122897
 31
0.0
  0
LINE
  5
2F5
330
1F
100
AcDbEntity
  8
0
  6
Continuous
 62
     7
370
    25
100
AcDbLine
 10
955.0454328134
 20
1672.4212122897
 30
0.0
 11
958.8454328134
 21
1672.4212122897
 31
0.0
  0
LINE
  5
2F6
330
1F
100
AcDbEntity
  8
0
  6
Continuous
 62
     7
370
    25
100
AcDbLine
 10
953.1454328134
 20
1670.6012122897
 30
0.0
 11
960.7454328134
 21
1670.6012122897
 31
0.0
  0
LINE
  5
2F7
330
1F
100
AcDbEntity
  8
0
  6
Continuous
 62
     7
370
    25
100
AcDbLine
 10
1037.6377081189
 20
1598.5212122897
 30
0.0
 11
1036.5020952253
 21
1598.5212122897
 31
0.0
  0
LINE
  5
2F8
330
1F
100
AcDbEntity
  8
0
  6
Continuous
 62
     7
370
    25
100
AcDbLine
 10
1040.3020952253
 20
1598.5212122897
 30
0.0
 11
1037.6377081189
 21
1598.5212122897
 31
0.0
  0
LINE
  5
2F9
330
1F
100
AcDbEntity
  8
0
  6
Continuous
 62
     7
370
    25
100
AcDbLine
 10
1036.8733210124
 20
1600.3412122897
 30
0.0
 11
1034.6020952253
 21
1600.3412122897
 31
0.0
  0
LINE
  5
2FA
330
1F
100
AcDbEntity
  8
0
  6
Continuous
 62
     7
370
    25
100
AcDbLine
 10
1042.2020952253
 20
1600.3412122897
 30
0.0
 11
1036.8733210124
 21
1600.3412122897
 31
0.0
  0
LINE
  5
2FB
330
1F
100
AcDbEntity
  8
0
  6
Continuous
 62
     7
370
    25
100
AcDbLine
 10
948.7442740012
 20
1600.3412122897
 30
0.0
 11
946.4730482141
 21
1600.3412122897
 31
0.0
  0
LINE
  5
2FC
330
1F
100
AcDbEntity
  8
0
  6
Continuous
 62
     7
370
    25
100
AcDbLine
 10
953.1454328134
 20
1600.3412122897
 30
0.0
 11
948.7442740012
 21
1600.3412122897
 31
0.0
  0
LINE
  5
2FD
330
1F
100
AcDbEntity
  8
0
  6
Continuous
 62
     7
370
    25
100
AcDbLine
 10
949.5086611077
 20
1598.5212122897
 30
0.0
 11
948.3730482141
 21
1598.5212122897
 31
0.0
  0
LINE
  5
2FE
330
1F
100
AcDbEntity
  8
0
  6
Continuous
 62
     7
370
    25
100
AcDbLine
 10
952.1730482141
 20
1598.5212122897
 30
0.0
 11
949.5086611077
 21
1598.5212122897
 31
0.0
  0
LINE
  5
2FF
330
1F
100
AcDbEntity
  8
0
  6
Continuous
 62
     7
370
    25
100
AcDbLine
 10
946.4730482141
 20
1670.6012122897
 30
0.0
 11
951.6221735295
 21
1670.6012122897
 31
0.0
  0
LINE
  5
300
330
1F
100
AcDbEntity
  8
0
  6
Continuous
 62
     7
370
    25
100
AcDbLine
 10
948.3730482141
 20
1672.4212122897
 30
0.0
 11
951.8375717197
 21
1672.4212122897
 31
0.0
  0
LINE
  5
301
330
1F
100
AcDbEntity
  8
0
  6
Continuous
 62
     7
370
    25
100
AcDbLine
 10
997.0141982927
 20
1602.2212122897
 30
0.0
 11
997.0141982927
 21
1603.7212122897
 31
0.0
  0
LINE
  5
302
330
1F
100
AcDbEntity
  8
0
  6
Continuous
 62
     7
370
    25
100
AcDbLine
 10
1005.0099563191
 20
1602.2212122897
 30
0.0
 11
997.0141982927
 21
1602.2212122897
 31
0.0
  0
LINE
  5
303
330
1F
100
AcDbEntity
  8
0
  6
Continuous
 62
     7
370
    25
100
AcDbLine
 10
1005.0099563191
 20
1603.7212122897
 30
0.0
 11
997.0141982927
 21
1603.7212122897
 31
0.0
  0
LINE
  5
304
330
1F
100
AcDbEntity
  8
0
  6
Continuous
 62
     7
370
    25
100
AcDbLine
 10
996.7107886477
 20
1602.2212122897
 30
0.0
 11
996.7107886477
 21
1603.7212122897
 31
0.0
  0
LINE
  5
305
330
1F
100
AcDbEntity
  8
0
  6
Continuous
 62
     7
370
    25
100
AcDbLine
 10
997.0141982927
 20
1602.2212122897
 30
0.0
 11
996.8811202618
 21
1602.2212122897
 31
0.0
  0
LINE
  5
306
330
1F
100
AcDbEntity
  8
0
  6
Continuous
 62
     7
370
    25
100
AcDbLine
 10
997.0141982927
 20
1603.7212122897
 30
0.0
 11
996.8811202618
 21
1603.7212122897
 31
0.0
  0
LINE
  5
307
330
1F
100
AcDbEntity
  8
0
  6
Continuous
 62
     7
370
    25
100
AcDbLine
 10
1030.8616465049
 20
1602.2212122897
 30
0.0
 11
1030.8616465049
 21
1603.7212122897
 31
0.0
  0
LINE
  5
308
330
1F
100
AcDbEntity
  8
0
  6
Continuous
 62
     7
370
    25
100
AcDbLine
 10
1006.6938861194
 20
1602.2212122897
 30
0.0
 11
1006.6938861194
 21
1603.7212122897
 31
0.0
  0
LINE
  5
309
330
1F
100
AcDbEntity
  8
0
  6
Continuous
 62
     7
370
    25
100
AcDbLine
 10
1029.9768958253
 20
1602.2212122897
 30
0.0
 11
1008.1373661911
 21
1602.2212122897
 31
0.0
  0
LINE
  5
30A
330
1F
100
AcDbEntity
  8
0
  6
Continuous
 62
     7
370
    25
100
AcDbLine
 10
1030.0627650904
 20
1603.7212122897
 30
0.0
 11
1008.137366191
 21
1603.7212122897
 31
0.0
  0
LINE
  5
30B
330
1F
100
AcDbEntity
  8
0
  6
Continuous
 62
     7
370
    25
100
AcDbLine
 10
993.7798994754
 20
1602.2212122897
 30
0.0
 11
993.7798994754
 21
1603.7212122897
 31
0.0
  0
LINE
  5
30C
330
1F
100
AcDbEntity
  8
0
  6
Continuous
 62
     7
370
    25
100
AcDbLine
 10
965.2995590421
 20
1602.2212122897
 30
0.0
 11
965.2995590421
 21
1603.7212122897
 31
0.0
  0
LINE
  5
30D
330
1F
100
AcDbEntity
  8
0
  6
Continuous
 62
     7
370
    25
100
AcDbLine
 10
992.2635082292
 20
1602.2212122897
 30
0.0
 11
966.4256641414
 21
1602.2212122897
 31
0.0
  0
LINE
  5
30E
330
1F
100
AcDbEntity
  8
0
  6
Continuous
 62
     7
370
    25
100
AcDbLine
 10
992.2635082292
 20
1603.7212122897
 30
0.0
 11
966.4256641413
 21
1603.7212122897
 31
0.0
  0
LINE
  5
30F
330
1F
100
AcDbEntity
  8
0
  6
Continuous
 62
     7
370
    25
100
AcDbLine
 10
959.6994228112
 20
1602.2212122897
 30
0.0
 11
959.6994228112
 21
1603.7212122897
 31
0.0
  0
LINE
  5
310
330
1F
100
AcDbEntity
  8
0
  6
Continuous
 62
     7
370
    25
100
AcDbLine
 10
959.6994228112
 20
1602.2212122897
 30
0.0
 11
952.9454328134
 21
1602.2212122897
 31
0.0
  0
LINE
  5
311
330
1F
100
AcDbEntity
  8
0
  6
Continuous
 62
     7
370
    25
100
AcDbLine
 10
959.6994228112
 20
1603.7212122897
 30
0.0
 11
952.9454328134
 21
1603.7212122897
 31
0.0
  0
LINE
  5
312
330
1F
100
AcDbEntity
  8
0
  6
Continuous
 62
     7
370
    25
100
AcDbLine
 10
961.3997348095
 20
1602.2212122897
 30
0.0
 11
961.3997348095
 21
1603.7212122897
 31
0.0
  0
LINE
  5
313
330
1F
100
AcDbEntity
  8
0
  6
Continuous
 62
     7
370
    25
100
AcDbLine
 10
960.4451940022
 20
1602.2212122897
 30
0.0
 11
959.6994228112
 21
1602.2212122897
 31
0.0
  0
LINE
  5
314
330
1F
100
AcDbEntity
  8
0
  6
Continuous
 62
     7
370
    25
100
AcDbLine
 10
960.4451940042
 20
1603.7212122897
 30
0.0
 11
959.6994228112
 21
1603.7212122897
 31
0.0
  0
LINE
  5
315
330
1F
100
AcDbEntity
  8
0
  6
Continuous
 62
     7
370
    25
100
AcDbLine
 10
1036.5637102436
 20
1602.2212122897
 30
0.0
 11
1036.5637102436
 21
1603.7212122897
 31
0.0
  0
LINE
  5
316
330
1F
100
AcDbEntity
  8
0
  6
Continuous
 62
     7
370
    25
100
AcDbLine
 10
1042.4020952254
 20
1602.2212122897
 30
0.0
 11
1036.5637102436
 21
1602.2212122897
 31
0.0
  0
LINE
  5
317
330
1F
100
AcDbEntity
  8
0
  6
Continuous
 62
     7
370
    25
100
AcDbLine
 10
1042.4020952254
 20
1603.7212122897
 30
0.0
 11
1036.5637102436
 21
1603.7212122897
 31
0.0
  0
LINE
  5
318
330
1F
100
AcDbEntity
  8
0
  6
Continuous
 62
     7
370
    25
100
AcDbLine
 10
1034.5599886004
 20
1602.2212122897
 30
0.0
 11
1034.5599886004
 21
1603.7212122897
 31
0.0
  0
LINE
  5
319
330
1F
100
AcDbEntity
  8
0
  6
Continuous
 62
     7
370
    25
100
AcDbLine
 10
1036.5637102436
 20
1602.2212122897
 30
0.0
 11
1035.6848610218
 21
1602.2212122897
 31
0.0
  0
LINE
  5
31A
330
1F
100
AcDbEntity
  8
0
  6
Continuous
 62
     7
370
    25
100
AcDbLine
 10
1036.5637102436
 20
1603.7212122897
 30
0.0
 11
1035.6848610199
 21
1603.7212122897
 31
0.0
  0
LINE
  5
31B
330
1F
100
AcDbEntity
  8
0
  6
Continuous
 62
     7
370
    25
100
AcDbLine
 10
952.9454328134
 20
1602.2212122897
 30
0.0
 11
951.8375717197
 21
1602.2212122897
 31
0.0
  0
LINE
  5
31C
330
1F
100
AcDbEntity
  8
0
  6
Continuous
 62
     7
370
    25
100
AcDbLine
 10
952.9454328134
 20
1603.7212122897
 30
0.0
 11
951.8375717197
 21
1603.7212122897
 31
0.0
  0
LINE
  5
31D
330
1F
100
AcDbEntity
  8
0
  6
Continuous
 62
     7
370
    25
100
AcDbLine
 10
951.1414642534
 20
1602.2212122897
 30
0.0
 11
951.1414642534
 21
1603.7212122897
 31
0.0
  0
LINE
  5
31E
330
1F
100
AcDbEntity
  8
0
  6
Continuous
 62
     7
370
    25
100
AcDbLine
 10
949.1377426101
 20
1602.2212122897
 30
0.0
 11
949.1377426101
 21
1603.7212122897
 31
0.0
  0
LINE
  5
31F
330
1F
100
AcDbEntity
  8
0
  6
Continuous
 62
     7
370
    25
100
AcDbLine
 10
950.0165918319
 20
1602.2212122897
 30
0.0
 11
949.1377426101
 21
1602.2212122897
 31
0.0
  0
LINE
  5
320
330
1F
100
AcDbEntity
  8
0
  6
Continuous
 62
     7
370
    25
100
AcDbLine
 10
950.0165918343
 20
1603.7212122897
 30
0.0
 11
949.1377426101
 21
1603.7212122897
 31
0.0
  0
LINE
  5
321
330
1F
100
AcDbEntity
  8
0
  6
Continuous
 62
     7
370
    25
100
AcDbLine
 10
949.1377426101
 20
1602.2212122897
 30
0.0
 11
946.2730482141
 21
1602.2212122897
 31
0.0
  0
LINE
  5
322
330
1F
100
AcDbEntity
  8
0
  6
Continuous
 62
     7
370
    25
100
AcDbLine
 10
949.1377426101
 20
1603.7212122897
 30
0.0
 11
946.2730482141
 21
1603.7212122897
 31
0.0
  0
LINE
  5
323
330
1F
100
AcDbEntity
  8
0
  6
Continuous
 62
     7
370
    25
100
AcDbLine
 10
997.0141982927
 20
1600.7212122897
 30
0.0
 11
997.0141982927
 21
1602.2212122897
 31
0.0
  0
LINE
  5
324
330
1F
100
AcDbEntity
  8
0
  6
Continuous
 62
     7
370
    25
100
AcDbLine
 10
1005.0099563191
 20
1600.7212122897
 30
0.0
 11
997.0141982927
 21
1600.7212122897
 31
0.0
  0
LINE
  5
325
330
1F
100
AcDbEntity
  8
0
  6
Continuous
 62
     7
370
    25
100
AcDbLine
 10
992.2635082292
 20
1600.7212122897
 30
0.0
 11
992.2635082292
 21
1602.2212122897
 31
0.0
  0
LINE
  5
326
330
1F
100
AcDbEntity
  8
0
  6
Continuous
 62
     7
370
    25
100
AcDbLine
 10
966.4256641414
 20
1600.7212122897
 30
0.0
 11
966.4256641414
 21
1602.2212122897
 31
0.0
  0
LINE
  5
327
330
1F
100
AcDbEntity
  8
0
  6
Continuous
 62
     7
370
    25
100
AcDbLine
 10
992.2635082292
 20
1600.7212122897
 30
0.0
 11
966.4256641414
 21
1600.7212122897
 31
0.0
  0
LINE
  5
328
330
1F
100
AcDbEntity
  8
0
  6
Continuous
 62
     7
370
    25
100
AcDbLine
 10
997.0141982927
 20
1600.7212122897
 30
0.0
 11
992.2635082292
 21
1600.7212122897
 31
0.0
  0
LINE
  5
329
330
1F
100
AcDbEntity
  8
0
  6
Continuous
 62
     7
370
    25
100
AcDbLine
 10
996.8811202618
 20
1602.2212122897
 30
0.0
 11
992.2635082292
 21
1602.2212122897
 31
0.0
  0
LINE
  5
32A
330
1F
100
AcDbEntity
  8
0
  6
Continuous
 62
     7
370
    25
100
AcDbLine
 10
1008.1373661911
 20
1600.7212122897
 30
0.0
 11
1008.1373661911
 21
1602.2212122897
 31
0.0
  0
LINE
  5
32B
330
1F
100
AcDbEntity
  8
0
  6
Continuous
 62
     7
370
    25
100
AcDbLine
 10
1008.1373661911
 20
1600.7212122897
 30
0.0
 11
1005.0099563191
 21
1600.7212122897
 31
0.0
  0
LINE
  5
32C
330
1F
100
AcDbEntity
  8
0
  6
Continuous
 62
     7
370
    25
100
AcDbLine
 10
1008.1373661911
 20
1602.2212122897
 30
0.0
 11
1005.0099563191
 21
1602.2212122897
 31
0.0
  0
LINE
  5
32D
330
1F
100
AcDbEntity
  8
0
  6
Continuous
 62
     7
370
    25
100
AcDbLine
 10
1030.0627650905
 20
1600.7212122897
 30
0.0
 11
1030.0627650905
 21
1602.2212122897
 31
0.0
  0
LINE
  5
32E
330
1F
100
AcDbEntity
  8
0
  6
Continuous
 62
     7
370
    25
100
AcDbLine
 10
1030.0627650905
 20
1600.7212122897
 30
0.0
 11
1008.1373661911
 21
1600.7212122897
 31
0.0
  0
LINE
  5
32F
330
1F
100
AcDbEntity
  8
0
  6
Continuous
 62
     7
370
    25
100
AcDbLine
 10
1030.0627650905
 20
1602.2212122897
 30
0.0
 11
1008.1373661911
 21
1602.2212122897
 31
0.0
  0
LINE
  5
330
330
1F
100
AcDbEntity
  8
0
  6
Continuous
 62
     7
370
    25
100
AcDbLine
 10
959.6994228113
 20
1600.7212122897
 30
0.0
 11
959.6994228113
 21
1602.2212122897
 31
0.0
  0
LINE
  5
331
330
1F
100
AcDbEntity
  8
0
  6
Continuous
 62
     7
370
    25
100
AcDbLine
 10
966.4256641414
 20
1600.7212122897
 30
0.0
 11
959.6994228113
 21
1600.7212122897
 31
0.0
  0
LINE
  5
332
330
1F
100
AcDbEntity
  8
0
  6
Continuous
 62
     7
370
    25
100
AcDbLine
 10
966.4256641414
 20
1602.2212122897
 30
0.0
 11
960.4451940022
 21
1602.2212122897
 31
0.0
  0
LINE
  5
333
330
1F
100
AcDbEntity
  8
0
  6
Continuous
 62
     7
370
    25
100
AcDbLine
 10
959.6994228113
 20
1600.7212122897
 30
0.0
 11
952.9454328135
 21
1600.7212122897
 31
0.0
  0
LINE
  5
334
330
1F
100
AcDbEntity
  8
0
  6
Continuous
 62
     7
370
    25
100
AcDbLine
 10
1036.5637102436
 20
1600.7212122897
 30
0.0
 11
1036.5637102436
 21
1602.2212122897
 31
0.0
  0
LINE
  5
335
330
1F
100
AcDbEntity
  8
0
  6
Continuous
 62
     7
370
    25
100
AcDbLine
 10
1036.5637102436
 20
1600.7212122897
 30
0.0
 11
1030.0627650905
 21
1600.7212122897
 31
0.0
  0
LINE
  5
336
330
1F
100
AcDbEntity
  8
0
  6
Continuous
 62
     7
370
    25
100
AcDbLine
 10
1035.729710626
 20
1602.2212122897
 30
0.0
 11
1030.0627650905
 21
1602.2212122897
 31
0.0
  0
LINE
  5
337
330
1F
100
AcDbEntity
  8
0
  6
Continuous
 62
     7
370
    25
100
AcDbLine
 10
1042.4020952254
 20
1600.7212122897
 30
0.0
 11
1036.5637102436
 21
1600.7212122897
 31
0.0
  0
LINE
  5
338
330
1F
100
AcDbEntity
  8
0
  6
Continuous
 62
     7
370
    25
100
AcDbLine
 10
952.9454328135
 20
1600.7212122897
 30
0.0
 11
951.8375717198
 21
1600.7212122897
 31
0.0
  0
LINE
  5
339
330
1F
100
AcDbEntity
  8
0
  6
Continuous
 62
     7
370
    25
100
AcDbLine
 10
949.1377426102
 20
1600.7212122897
 30
0.0
 11
949.1377426102
 21
1602.2212122897
 31
0.0
  0
LINE
  5
33A
330
1F
100
AcDbEntity
  8
0
  6
Continuous
 62
     7
370
    25
100
AcDbLine
 10
951.8375717198
 20
1600.7212122897
 30
0.0
 11
949.1377426102
 21
1600.7212122897
 31
0.0
  0
LINE
  5
33B
330
1F
100
AcDbEntity
  8
0
  6
Continuous
 62
     7
370
    25
100
AcDbLine
 10
951.8375717197
 20
1602.2212122897
 30
0.0
 11
950.0165918319
 21
1602.2212122897
 31
0.0
  0
LINE
  5
33C
330
1F
100
AcDbEntity
  8
0
  6
Continuous
 62
     7
370
    25
100
AcDbLine
 10
949.1377426102
 20
1600.7212122897
 30
0.0
 11
946.2730482141
 21
1600.7212122897
 31
0.0
  0
LINE
  5
33D
330
1F
100
AcDbEntity
  8
0
  6
Continuous
 62
     7
370
    25
100
AcDbLine
 10
996.8811202618
 20
1603.7212122897
 30
0.0
 11
992.2635082292
 21
1603.7212122897
 31
0.0
  0
LINE
  5
33E
330
1F
100
AcDbEntity
  8
0
  6
Continuous
 62
     7
370
    25
100
AcDbLine
 10
1005.0099563191
 20
1603.7212122897
 30
0.0
 11
1008.137366191
 21
1603.7212122897
 31
0.0
  0
LINE
  5
33F
330
1F
100
AcDbEntity
  8
0
  6
Continuous
 62
     7
370
    25
100
AcDbLine
 10
960.4451940042
 20
1603.7212122897
 30
0.0
 11
966.4256641413
 21
1603.7212122897
 31
0.0
  0
LINE
  5
340
330
1F
100
AcDbEntity
  8
0
  6
Continuous
 62
     7
370
    25
100
AcDbLine
 10
1035.729710626
 20
1603.7212122897
 30
0.0
 11
1030.0627650904
 21
1603.7212122897
 31
0.0
  0
LINE
  5
341
330
1F
100
AcDbEntity
  8
0
  6
Continuous
 62
     7
370
    25
100
AcDbLine
 10
950.0165918343
 20
1603.7212122897
 30
0.0
 11
951.8375717197
 21
1603.7212122897
 31
0.0
  0
LINE
  5
342
330
1F
100
AcDbEntity
  8
0
  6
Continuous
 62
     7
370
    25
100
AcDbLine
 10
922.8013869108
 20
1605.7212122897
 30
0.0
 11
921.5679988034
 21
1605.7212122897
 31
0.0
  0
ARC
  5
343
330
1F
100
AcDbEntity
  8
0
  6
Continuous
 62
     7
370
    25
100
AcDbCircle
 10
922.1718957532
 20
1610.2458228448
 30
0.0
 40
4.564733530168876
100
AcDbArc
 50
174.0221510785
 51
262.3976982193
  0
LINE
  5
344
330
1F
100
AcDbEntity
  8
0
  6
Continuous
 62
     7
370
    25
100
AcDbLine
 10
917.6319841817
 20
1610.7212122897
 30
0.0
 11
918.8653722891
 21
1610.7212122897
 31
0.0
  0
ARC
  5
345
330
1F
100
AcDbEntity
  8
0
  6
Continuous
 62
     7
370
    25
100
AcDbCircle
 10
923.4052838606
 20
1610.2458228448
 30
0.0
 40
4.564733530168651
100
AcDbArc
 50
174.0221510785
 51
262.3976982193
  0
LINE
  5
346
330
1F
100
AcDbEntity
  8
0
  6
Continuous
 62
     7
370
    25
100
AcDbLine
 10
917.6319841817
 20
1610.7212122897
 30
0.0
 11
917.6319841817
 21
1650.7212122897
 31
0.0
  0
LINE
  5
347
330
1F
100
AcDbEntity
  8
0
  6
Continuous
 62
     7
370
    25
100
AcDbLine
 10
918.8653722891
 20
1650.7212122897
 30
0.0
 11
917.6319841817
 21
1650.7212122897
 31
0.0
  0
LINE
  5
348
330
1F
100
AcDbEntity
  8
0
  6
Continuous
 62
     7
370
    25
100
AcDbLine
 10
918.8653722891
 20
1610.7212122897
 30
0.0
 11
918.8653722891
 21
1650.7212122897
 31
0.0
  0
ARC
  5
349
330
1F
100
AcDbEntity
  8
0
  6
Continuous
 62
     7
370
    25
100
AcDbCircle
 10
922.1718957532
 20
1651.1966017346
 30
0.0
 40
4.564733530169216
100
AcDbArc
 50
97.6023017807
 51
185.9778489215
  0
LINE
  5
34A
330
1F
100
AcDbEntity
  8
0
  6
Continuous
 62
     7
370
    25
100
AcDbLine
 10
921.5679988034
 20
1655.7212122897
 30
0.0
 11
922.8013869108
 21
1655.7212122897
 31
0.0
  0
ARC
  5
34B
330
1F
100
AcDbEntity
  8
0
  6
Continuous
 62
     7
370
    25
100
AcDbCircle
 10
923.4052838606
 20
1651.1966017346
 30
0.0
 40
4.564733530169216
100
AcDbArc
 50
97.6023017807
 51
185.9778489215
  0
LINE
  5
34C
330
1F
100
AcDbEntity
  8
0
  6
Continuous
 62
     7
370
    25
100
AcDbLine
 10
934.4153280152
 20
1655.7212122897
 30
0.0
 11
934.4153280152
 21
1605.7212122897
 31
0.0
  0
LINE
  5
34D
330
1F
100
AcDbEntity
  8
0
  6
Continuous
 62
     7
370
    25
100
AcDbLine
 10
934.4153280152
 20
1605.7212122897
 30
0.0
 11
922.8013869108
 21
1605.7212122897
 31
0.0
  0
LINE
  5
34E
330
1F
100
AcDbEntity
  8
0
  6
Continuous
 62
     7
370
    25
100
AcDbLine
 10
922.8013869108
 20
1655.7212122897
 30
0.0
 11
934.4153280152
 21
1655.7212122897
 31
0.0
  0
LWPOLYLINE
  5
34F
330
1F
100
AcDbEntity
  8
0
  6
Continuous
 62
     7
370
    25
100
AcDbPolyline
 90
       19
 70
   128
 43
0.0
 10
924.1370637893
 20
1630.7212122897
 10
924.2866073469
 20
1631.7985757411
 10
924.7172008597
 20
1632.7459932602
 10
925.3769083951
 20
1633.4491923116
 10
926.1861594882
 20
1633.8233567117
 10
927.0473465137
 20
1633.8233567117
 10
927.8565976068
 20
1633.4491923116
 10
928.5163051422
 20
1632.7459932602
 10
928.946898655
 20
1631.7985757411
 10
929.0964422126
 20
1630.7212122897
 10
928.946898655
 20
1629.6438488382
 10
928.5163051422
 20
1628.6964313192
 10
927.8565976068
 20
1627.9932322677
 10
927.0473465137
 20
1627.6190678677
 10
926.1861594882
 20
1627.6190678677
 10
925.3769083951
 20
1627.9932322677
 10
924.7172008597
 20
1628.6964313192
 10
924.2866073469
 20
1629.6438488382
 10
924.1370637893
 20
1630.7212122897
  0
ARC
  5
350
330
1F
100
AcDbEntity
  8
0
  6
Continuous
 62
     7
370
    25
100
AcDbCircle
 10
924.5518972483
 20
1630.7212122897
 30
0.0
 40
3.377270817359972
100
AcDbArc
 50
295.3912033417
 51
64.6087966593
  0
LINE
  5
351
330
1F
100
AcDbEntity
  8
0
  6
Continuous
 62
     7
370
    25
100
AcDbLine
 10
946.2730482141
 20
1605.7212122897
 30
0.0
 11
934.8482303001
 21
1605.7212122897
 31
0.0
  0
LINE
  5
352
330
1F
100
AcDbEntity
  8
0
  6
Continuous
 62
     7
370
    25
100
AcDbLine
 10
934.8482303001
 20
1655.7212122897
 30
0.0
 11
934.8482303001
 21
1605.7212122897
 31
0.0
  0
LINE
  5
353
330
1F
100
AcDbEntity
  8
0
  6
Continuous
 62
     7
370
    25
100
AcDbLine
 10
934.8482303001
 20
1655.7212122897
 30
0.0
 11
946.2730482141
 21
1655.7212122897
 31
0.0
  0
LINE
  5
354
330
1F
100
AcDbEntity
  8
0
  6
Continuous
 62
     7
370
    25
100
AcDbLine
 10
934.8482303001
 20
1655.7212122897
 30
0.0
 11
934.4153280152
 21
1655.7212122897
 31
0.0
  0
LINE
  5
355
330
1F
100
AcDbEntity
  8
0
  6
Continuous
 62
     7
370
    25
100
AcDbLine
 10
934.4153280152
 20
1605.7212122897
 30
0.0
 11
934.8482303001
 21
1605.7212122897
 31
0.0
  0
ARC
  5
356
330
1F
100
AcDbEntity
  8
0
  6
Continuous
 62
     7
370
    25
100
AcDbCircle
 10
915.2427729604
 20
1651.1966017346
 30
0.0
 40
4.5647335301689
100
AcDbArc
 50
97.6023017807
 51
185.9778489215
  0
LINE
  5
357
330
1F
100
AcDbEntity
  8
0
  6
Continuous
 62
     7
370
    25
100
AcDbLine
 10
921.5679988034
 20
1655.7212122897
 30
0.0
 11
914.6388760106
 21
1655.7212122897
 31
0.0
  0
LINE
  5
358
330
1F
100
AcDbEntity
  8
0
  6
Continuous
 62
     7
370
    25
100
AcDbLine
 10
914.6388760106
 20
1605.7212122897
 30
0.0
 11
921.5679988034
 21
1605.7212122897
 31
0.0
  0
ARC
  5
359
330
1F
100
AcDbEntity
  8
0
  6
Continuous
 62
     7
370
    25
100
AcDbCircle
 10
915.2427729604
 20
1610.2458228448
 30
0.0
 40
4.564733530168471
100
AcDbArc
 50
174.0221510785
 51
262.3976982193
  0
LINE
  5
35A
330
1F
100
AcDbEntity
  8
0
  6
Continuous
 62
     7
370
    25
100
AcDbLine
 10
910.7028613889
 20
1650.7212122897
 30
0.0
 11
910.7028613889
 21
1610.7212122897
 31
0.0
  0
ARC
  5
35B
330
1F
100
AcDbEntity
  8
0
  6
Continuous
 62
     7
370
    25
100
AcDbCircle
 10
919.1119005194
 20
1630.5229037881
 30
0.0
 40
3.143608820387256
100
AcDbArc
 50
176.3832046808
 51
241.9157174712
  0
ARC
  5
35C
330
1F
100
AcDbEntity
  8
0
  6
Continuous
 62
     7
370
    25
100
AcDbCircle
 10
919.1119005194
 20
1630.9195207913
 30
0.0
 40
3.143608820386738
100
AcDbArc
 50
118.0842825288
 51
183.6167953192
  0
LINE
  5
35D
330
1F
100
AcDbEntity
  8
0
  6
Continuous
 62
     7
370
    25
100
AcDbLine
 10
913.4054879032
 20
1655.7212122897
 30
0.0
 11
914.6388760106
 21
1655.7212122897
 31
0.0
  0
LINE
  5
35E
330
1F
100
AcDbEntity
  8
0
  6
Continuous
 62
     7
370
    25
100
AcDbLine
 10
910.7028613889
 20
1650.7212122897
 30
0.0
 11
909.4694732815
 21
1650.7212122897
 31
0.0
  0
ARC
  5
35F
330
1F
100
AcDbEntity
  8
0
  6
Continuous
 62
     7
370
    25
100
AcDbCircle
 10
914.009384853
 20
1651.1966017346
 30
0.0
 40
4.564733530168674
100
AcDbArc
 50
97.6023017807
 51
185.9778489215
  0
LINE
  5
360
330
1F
100
AcDbEntity
  8
0
  6
Continuous
 62
     7
370
    25
100
AcDbLine
 10
909.4694732815
 20
1610.7212122897
 30
0.0
 11
910.7028613889
 21
1610.7212122897
 31
0.0
  0
LINE
  5
361
330
1F
100
AcDbEntity
  8
0
  6
Continuous
 62
     7
370
    25
100
AcDbLine
 10
914.6388760106
 20
1605.7212122897
 30
0.0
 11
913.4054879032
 21
1605.7212122897
 31
0.0
  0
ARC
  5
362
330
1F
100
AcDbEntity
  8
0
  6
Continuous
 62
     7
370
    25
100
AcDbCircle
 10
914.009384853
 20
1610.2458228448
 30
0.0
 40
4.564733530168246
100
AcDbArc
 50
174.0221510785
 51
262.3976982194
  0
LINE
  5
363
330
1F
100
AcDbEntity
  8
0
  6
Continuous
 62
     7
370
    25
100
AcDbLine
 10
909.4694732815
 20
1650.7212122897
 30
0.0
 11
909.4694732815
 21
1610.7212122897
 31
0.0
  0
LINE
  5
364
330
1F
100
AcDbEntity
  8
0
  6
Continuous
 62
     7
370
    25
100
AcDbLine
 10
927.210956038
 20
1628.5922335333
 30
0.0
 11
927.210956038
 21
1632.850191046
 31
0.0
  0
LINE
  5
365
330
1F
100
AcDbEntity
  8
0
  6
Continuous
 62
     7
370
    25
100
AcDbLine
 10
927.0393607601
 20
1420.2212122897
 30
0.0
 11
964.5249248859
 21
1420.2212122897
 31
0.0
  0
LINE
  5
366
330
1F
100
AcDbEntity
  8
0
  6
Continuous
 62
     7
370
    25
100
AcDbLine
 10
967.2294071661
 20
1475.2212122897
 30
0.0
 11
967.2393607601
 21
1475.2212122897
 31
0.0
  0
LINE
  5
367
330
1F
100
AcDbEntity
  8
0
  6
Continuous
 62
     7
370
    25
100
AcDbLine
 10
927.0393607601
 20
1475.2212122897
 30
0.0
 11
967.2294071661
 21
1475.2212122897
 31
0.0
  0
LINE
  5
368
330
1F
100
AcDbEntity
  8
0
  6
Continuous
 62
     7
370
    25
100
AcDbLine
 10
967.2294071661
 20
1585.2212122897
 30
0.0
 11
967.2393607601
 21
1585.2212122897
 31
0.0
  0
LINE
  5
369
330
1F
100
AcDbEntity
  8
0
  6
Continuous
 62
     7
370
    25
100
AcDbLine
 10
927.0393607601
 20
1585.2212122897
 30
0.0
 11
967.2294071661
 21
1585.2212122897
 31
0.0
  0
LINE
  5
36A
330
1F
100
AcDbEntity
  8
0
  6
Continuous
 62
     7
370
    25
100
AcDbLine
 10
967.2294071661
 20
1530.2212122897
 30
0.0
 11
967.2393607601
 21
1530.2212122897
 31
0.0
  0
LINE
  5
36B
330
1F
100
AcDbEntity
  8
0
  6
Continuous
 62
     7
370
    25
100
AcDbLine
 10
927.0393607601
 20
1530.2212122897
 30
0.0
 11
967.2294071661
 21
1530.2212122897
 31
0.0
  0
LINE
  5
36C
330
1F
100
AcDbEntity
  8
0
  6
Continuous
 62
     7
370
    25
100
AcDbLine
 10
927.1393607601
 20
1670.2212122897
 30
0.0
 11
943.7730482141
 21
1670.2212122897
 31
0.0
  0
CIRCLE
  5
36D
330
1F
100
AcDbEntity
  8
0
  6
Continuous
 62
     7
370
    25
100
AcDbCircle
 10
946.5108686131
 20
1300.2257513314
 30
0.0
 40
4.195461043346553
  0
LINE
  5
36E
330
1F
100
AcDbEntity
  8
0
  6
Continuous
 62
     7
370
    25
100
AcDbLine
 10
967.1294566865
 20
1270.2212122897
 30
0.0
 11
967.1393607601
 21
1270.2212122897
 31
0.0
  0
LINE
  5
36F
330
1F
100
AcDbEntity
  8
0
  6
Continuous
 62
     7
370
    25
100
AcDbLine
 10
927.1393607601
 20
1270.2212122897
 30
0.0
 11
967.1294566865
 21
1270.2212122897
 31
0.0
  0
ARC
  5
370
330
1F
100
AcDbEntity
  8
0
  6
Continuous
 62
     7
370
    25
100
AcDbCircle
 10
947.4854034545
 20
1300.2025442526
 30
0.0
 40
4.156454892719425
100
AcDbArc
 50
96.2959435539
 51
261.0102012836
  0
ARC
  5
371
330
1F
100
AcDbEntity
  8
0
  6
Continuous
 62
     7
370
    25
100
AcDbCircle
 10
947.5463457506
 20
1300.2221388094
 30
0.0
 40
4.10869307789237
100
AcDbArc
 50
96.8598468547
 51
266.0665405589
  0
ARC
  5
372
330
1F
100
AcDbEntity
  8
0
  6
Continuous
 62
     7
370
    25
100
AcDbCircle
 10
946.6174640657
 20
1300.1933563573
 30
0.0
 40
4.122342567243801
100
AcDbArc
 50
89.4504191636
 51
270.5622729026
  0
ARC
  5
373
330
1F
100
AcDbEntity
  8
0
  6
Continuous
 62
     7
370
    25
100
AcDbCircle
 10
946.6825399977
 20
1300.1930843585
 30
0.0
 40
4.122050114107133
100
AcDbArc
 50
89.4697629079
 51
270.5325345559
  0
ARC
  5
374
330
1F
100
AcDbEntity
  8
0
  6
Continuous
 62
     7
370
    25
100
AcDbCircle
 10
947.4689673573
 20
1300.2254941283
 30
0.0
 40
4.1001493950416
100
AcDbArc
 50
95.1394461373
 51
265.2203575615
  0
LINE
  5
375
330
1F
100
AcDbEntity
  8
0
  6
Continuous
 62
     7
370
    25
100
AcDbLine
 10
927.8393607601
 20
1260.2212122897
 30
0.0
 11
927.8393607601
 21
560.2212122897
 31
0.0
  0
LINE
  5
376
330
1F
100
AcDbEntity
  8
0
  6
Continuous
 62
     7
370
    25
100
AcDbLine
 10
977.8393607601
 20
1260.2212122897
 30
0.0
 11
977.8393607601
 21
610.2212122897
 31
0.0
  0
LINE
  5
377
330
1F
100
AcDbEntity
  8
0
  6
Continuous
 62
     7
370
    25
100
AcDbLine
 10
927.8393607601
 20
560.2212122897
 30
0.0
 11
977.8393607601
 21
610.2212122897
 31
0.0
  0
LINE
  5
378
330
1F
100
AcDbEntity
  8
0
  6
Continuous
 62
     7
370
    25
100
AcDbLine
 10
927.8393607601
 20
1260.2212122897
 30
0.0
 11
977.8393607601
 21
1260.2212122897
 31
0.0
  0
LINE
  5
379
330
1F
100
AcDbEntity
  8
0
  6
Continuous
 62
     8
370
    25
100
AcDbLine
 10
1008.509956319
 20
1669.2212122897
 30
0.0
 11
993.5179100195
 21
1669.2212122897
 31
0.0
  0
LINE
  5
37A
330
1F
100
AcDbEntity
  8
0
  6
Continuous
 62
     8
370
    25
100
AcDbLine
 10
978.4684668189
 20
1671.2212122897
 30
0.0
 11
997.6195788562
 21
1671.2212122897
 31
0.0
  0
LINE
  5
37B
330
1F
100
AcDbEntity
  8
0
  6
Continuous
 62
     8
370
    25
100
AcDbLine
 10
1004.4003337819
 20
1671.2212122897
 30
0.0
 11
1035.0117177624
 21
1671.2212122897
 31
0.0
  0
LINE
  5
37C
330
1F
100
AcDbEntity
  8
0
  6
Continuous
 62
     8
370
    25
100
AcDbLine
 10
951.8375717197
 20
1671.2212122897
 30
0.0
 11
953.5550553505
 21
1671.2212122897
 31
0.0
  0
LINE
  5
37D
330
1F
100
AcDbEntity
  8
0
  6
Continuous
 62
     8
370
    25
100
AcDbLine
 10
960.3358102763
 20
1671.2212122897
 30
0.0
 11
978.4684668189
 21
1671.2212122897
 31
0.0
  0
LINE
  5
37E
330
1F
100
AcDbEntity
  8
0
  6
Continuous
 62
     8
370
    25
100
AcDbLine
 10
1036.8375717197
 20
1708.2212122897
 30
0.0
 11
951.8375717197
 21
1708.2212122897
 31
0.0
  0
LINE
  5
37F
330
1F
100
AcDbEntity
  8
0
  6
Continuous
 62
     8
370
    25
100
AcDbLine
 10
1009.2738198533
 20
1669.2212122897
 30
0.0
 11
1008.509956319
 21
1669.2212122897
 31
0.0
  0
LINE
  5
380
330
1F
100
AcDbEntity
  8
0
  6
Continuous
 62
     8
370
    25
100
AcDbLine
 10
962.1091640594
 20
1669.2212122897
 30
0.0
 11
949.4454328134
 21
1669.2212122897
 31
0.0
  0
LINE
  5
381
330
1F
100
AcDbEntity
  8
0
  6
Continuous
 62
     8
370
    25
100
AcDbLine
 10
1045.9020952253
 20
1669.2212122897
 30
0.0
 11
1034.9551233845
 21
1669.2212122897
 31
0.0
  0
LINE
  5
382
330
1F
100
AcDbEntity
  8
0
  6
Continuous
 62
     8
370
    25
100
AcDbLine
 10
949.4454328134
 20
1669.2212122897
 30
0.0
 11
948.3375717197
 21
1669.2212122897
 31
0.0
  0
LINE
  5
383
330
1F
100
AcDbEntity
  8
0
  6
Continuous
 62
     8
370
    25
100
AcDbLine
 10
948.3375717197
 20
1669.2212122897
 30
0.0
 11
948.1443502068
 21
1669.2212122897
 31
0.0
  0
LINE
  5
384
330
1F
100
AcDbEntity
  8
0
  6
Continuous
 62
     8
370
    25
100
AcDbLine
 10
948.1443502068
 20
1669.2212122897
 30
0.0
 11
942.7730482141
 21
1669.2212122897
 31
0.0
  0
LINE
  5
385
330
1F
100
AcDbEntity
  8
0
  6
Continuous
 62
     8
370
    25
100
AcDbLine
 10
1018.6605934268
 20
1433.5530169339
 30
0.0
 11
1017.7294318092
 21
1433.5530169339
 31
0.0
  0
LINE
  5
386
330
1F
100
AcDbEntity
  8
0
  6
Continuous
 62
     8
370
    25
100
AcDbLine
 10
983.0553859575
 20
1427.4530169339
 30
0.0
 11
984.3390026006
 21
1427.4530169339
 31
0.0
  0
LINE
  5
387
330
1F
100
AcDbEntity
  8
0
  6
Continuous
 62
     8
370
    25
100
AcDbLine
 10
977.2679688055
 20
1425.4530169339
 30
0.0
 11
977.2679688055
 21
1425.6030169339
 31
0.0
  0
LINE
  5
388
330
1F
100
AcDbEntity
  8
0
  6
Continuous
 62
     8
370
    25
100
AcDbLine
 10
970.9237783459
 20
1425.6030169339
 30
0.0
 11
970.9237783459
 21
1425.4530169339
 31
0.0
  0
LINE
  5
389
330
1F
100
AcDbEntity
  8
0
  6
Continuous
 62
     8
370
    25
100
AcDbLine
 10
973.6250278228
 20
1390.284821578
 30
0.0
 11
973.0436586645
 21
1390.284821578
 31
0.0
  0
LINE
  5
38A
330
1F
100
AcDbEntity
  8
0
  6
Continuous
 62
     8
370
    25
100
AcDbLine
 10
993.58983759
 20
1390.284821578
 30
0.0
 11
992.9996604213
 21
1390.284821578
 31
0.0
  0
LINE
  5
38B
330
1F
100
AcDbEntity
  8
0
  6
Continuous
 62
     8
370
    25
100
AcDbLine
 10
979.0352885886
 20
1448.7625621444
 30
0.0
 11
979.0352885886
 21
1455.9530169339
 31
0.0
  0
LINE
  5
38C
330
1F
100
AcDbEntity
  8
0
  6
Continuous
 62
     8
370
    25
100
AcDbLine
 10
981.8637021066
 20
1448.5542558704
 30
0.0
 11
981.8637021066
 21
1455.9190505249
 31
0.0
  0
LINE
  5
38D
330
1F
100
AcDbEntity
  8
0
  6
Continuous
 62
     8
370
    25
100
AcDbLine
 10
970.7878409911
 20
1449.145628863
 30
0.0
 11
970.7878409911
 21
1455.9530169339
 31
0.0
  0
LINE
  5
38E
330
1F
100
AcDbEntity
  8
0
  6
Continuous
 62
     8
370
    25
100
AcDbLine
 10
973.0436289363
 20
1470.7212122897
 30
0.0
 11
973.6250278228
 21
1470.7212122897
 31
0.0
  0
LINE
  5
38F
330
1F
100
AcDbEntity
  8
0
  6
Continuous
 62
     8
370
    25
100
AcDbLine
 10
992.9996604213
 20
1470.7212122897
 30
0.0
 11
993.5898306978
 21
1470.7212122897
 31
0.0
  0
ARC
  5
390
330
1F
100
AcDbEntity
  8
0
  6
Continuous
 62
     8
370
    25
100
AcDbCircle
 10
975.31371132
 20
1470.9448304934
 30
0.0
 40
20.35422679291156
100
AcDbArc
 50
341.3889250573
 51
359.3705171322
  0
LINE
  5
391
330
1F
100
AcDbEntity
  8
0
  6
Continuous
 62
     8
370
    25
100
AcDbLine
 10
995.0853108179
 20
1470.7212122897
 30
0.0
 11
995.6667097044
 21
1470.7212122897
 31
0.0
  0
LINE
  5
392
330
1F
100
AcDbEntity
  8
0
  6
Continuous
 62
     8
370
    25
100
AcDbLine
 10
1015.0413423029
 20
1470.7212122897
 30
0.0
 11
1015.6315125794
 21
1470.7212122897
 31
0.0
  0
LWPOLYLINE
  5
393
330
1F
100
AcDbEntity
  8
0
  6
Continuous
 62
     8
370
    25
100
AcDbPolyline
 90
        3
 70
   128
 43
0.0
 10
994.5973664749
 20
1396.5807145709
 10
995.2520066721
 20
1394.0805993139
 10
995.6667097044
 20
1390.284821578
  0
LINE
  5
394
330
1F
100
AcDbEntity
  8
0
  6
Continuous
 62
     8
370
    25
100
AcDbLine
 10
995.6667097044
 20
1390.284821578
 30
0.0
 11
995.0853405461
 21
1390.284821578
 31
0.0
  0
LINE
  5
395
330
1F
100
AcDbEntity
  8
0
  6
Continuous
 62
     8
370
    25
100
AcDbLine
 10
1015.6315194716
 20
1390.284821578
 30
0.0
 11
1015.0413423029
 21
1390.284821578
 31
0.0
  0
LWPOLYLINE
  5
396
330
1F
100
AcDbEntity
  8
0
  6
Continuous
 62
     8
370
    25
100
AcDbPolyline
 90
        7
 70
   128
 43
0.0
 10
979.1289671062
 20
1447.9817722086
 10
979.0145279002
 20
1448.1626197252
 10
978.9254570025
 20
1448.3341754821
 10
978.8663307843
 20
1448.4876251207
 10
978.8401870901
 20
1448.6150845563
 10
978.8483691559
 20
1448.7100050538
 10
978.8825826842
 20
1448.7618407609
  0
LINE
  5
397
330
1F
100
AcDbEntity
  8
0
  6
Continuous
 62
     8
370
    25
100
AcDbLine
 10
976.8034662332
 20
1445.6278760734
 30
0.0
 11
976.3765962209
 21
1445.6278760734
 31
0.0
  0
LINE
  5
398
330
1F
100
AcDbEntity
  8
0
  6
Continuous
 62
     8
370
    25
100
AcDbLine
 10
971.9691382712
 20
1447.1853866229
 30
0.0
 11
972.7153081844
 21
1447.1853866229
 31
0.0
  0
LINE
  5
399
330
1F
100
AcDbEntity
  8
0
  6
Continuous
 62
     8
370
    25
100
AcDbLine
 10
971.3369580947
 20
1448.7605274834
 30
0.0
 11
971.0291051542
 21
1448.7605274834
 31
0.0
  0
LINE
  5
39A
330
1F
100
AcDbEntity
  8
0
  6
Continuous
 62
     8
370
    25
100
AcDbLine
 10
1002.1347742125
 20
1414.0530169339
 30
0.0
 11
1002.1347742125
 21
1415.0735997696
 31
0.0
  0
LINE
  5
39B
330
1F
100
AcDbEntity
  8
0
  6
Continuous
 62
     8
370
    25
100
AcDbLine
 10
1002.1347742125
 20
1419.9530169339
 30
0.0
 11
1002.1347742125
 21
1435.5530169339
 31
0.0
  0
LINE
  5
39C
330
1F
100
AcDbEntity
  8
0
  6
Continuous
 62
     8
370
    25
100
AcDbLine
 10
1015.2000800251
 20
1584.7212122897
 30
0.0
 11
1016.1084126605
 21
1584.7212122897
 31
0.0
  0
LINE
  5
39D
330
1F
100
AcDbEntity
  8
0
  6
Continuous
 62
     8
370
    25
100
AcDbLine
 10
994.6084126605
 20
1584.7212122897
 30
0.0
 11
1015.2000800251
 21
1584.7212122897
 31
0.0
  0
LINE
  5
39E
330
1F
100
AcDbEntity
  8
0
  6
Continuous
 62
     8
370
    25
100
AcDbLine
 10
993.1583981435
 20
1584.7212122897
 30
0.0
 11
994.0667307789
 21
1584.7212122897
 31
0.0
  0
LINE
  5
39F
330
1F
100
AcDbEntity
  8
0
  6
Continuous
 62
     8
370
    25
100
AcDbLine
 10
972.5667307789
 20
1584.7212122897
 30
0.0
 11
993.1583981435
 21
1584.7212122897
 31
0.0
  0
LINE
  5
3A0
330
1F
100
AcDbEntity
  8
0
  6
Continuous
 62
     8
370
    25
100
AcDbLine
 10
997.0141982926
 20
1603.7212122897
 30
0.0
 11
997.0141982926
 21
1657.2212122897
 31
0.0
  0
LINE
  5
3A1
330
1F
100
AcDbEntity
  8
0
  6
Continuous
 62
     8
370
    25
100
AcDbLine
 10
992.2635082292
 20
1603.7212122897
 30
0.0
 11
992.2635082292
 21
1657.2212122897
 31
0.0
  0
LINE
  5
3A2
330
1F
100
AcDbEntity
  8
0
  6
Continuous
 62
     8
370
    25
100
AcDbLine
 10
1008.137366191
 20
1603.7212122897
 30
0.0
 11
1008.137366191
 21
1657.2212122897
 31
0.0
  0
LINE
  5
3A3
330
1F
100
AcDbEntity
  8
0
  6
Continuous
 62
     8
370
    25
100
AcDbLine
 10
1030.0627650904
 20
1603.7212122897
 30
0.0
 11
1030.0627650904
 21
1657.2212122897
 31
0.0
  0
LINE
  5
3A4
330
1F
100
AcDbEntity
  8
0
  6
Continuous
 62
     8
370
    25
100
AcDbLine
 10
966.4256641413
 20
1603.7212122897
 30
0.0
 11
966.4256641413
 21
1657.2212122897
 31
0.0
  0
LINE
  5
3A5
330
1F
100
AcDbEntity
  8
0
  6
Continuous
 62
     8
370
    25
100
AcDbLine
 10
959.6994228113
 20
1603.7212122897
 30
0.0
 11
959.6994228113
 21
1657.2212122897
 31
0.0
  0
LINE
  5
3A6
330
1F
100
AcDbEntity
  8
0
  6
Continuous
 62
     8
370
    25
100
AcDbLine
 10
1036.5637102435
 20
1603.7212122897
 30
0.0
 11
1036.5637102435
 21
1657.2212122897
 31
0.0
  0
LINE
  5
3A7
330
1F
100
AcDbEntity
  8
0
  6
Continuous
 62
     8
370
    25
100
AcDbLine
 10
949.1377426102
 20
1603.7212122897
 30
0.0
 11
949.1377426102
 21
1657.2212122897
 31
0.0
  0
LINE
  5
3A8
330
1F
100
AcDbEntity
  8
0
  6
Continuous
 62
     8
370
    25
100
AcDbLine
 10
926.252817115
 20
1627.7711923956
 30
0.0
 11
926.252817115
 21
1633.6712321838
 31
0.0
  0
LINE
  5
3A9
330
1F
100
AcDbEntity
  8
THICK_LINE
 62
     7
100
AcDbLine
 10
1502.8393607601
 20
893.9191441649
 30
0.0
 11
1502.8393607601
 21
471.2240700758
 31
0.0
  0
LINE
  5
3AA
330
1F
100
AcDbEntity
  8
THICK_LINE
 62
     7
100
AcDbLine
 10
975.8167307789
 20
1380.284821578
 30
0.0
 11
975.8167307789
 21
700.2212122897
 31
0.0
  0
LINE
  5
3AB
330
1F
100
AcDbEntity
  8
THICK_LINE
 62
     7
100
AcDbLine
 10
935.8167307789
 20
660.2212122897
 30
0.0
 11
402.8393607601
 21
660.2212122897
 31
0.0
  0
LINE
  5
3AC
330
1F
100
AcDbEntity
  8
THICK_LINE
 62
     7
100
AcDbLine
 10
990.8167307789
 20
1380.284821578
 30
0.0
 11
990.8167307789
 21
685.2212122897
 31
0.0
  0
LINE
  5
3AD
330
1F
100
AcDbEntity
  8
THICK_LINE
 62
     7
100
AcDbLine
 10
997.8584126605
 20
1380.284821578
 30
0.0
 11
997.8584126605
 21
685.284821578
 31
0.0
  0
LINE
  5
3AE
330
1F
100
AcDbEntity
  8
THICK_LINE
 62
     7
100
AcDbLine
 10
1012.8584126605
 20
1380.284821578
 30
0.0
 11
1012.8584126605
 21
700.284821578
 31
0.0
  0
LINE
  5
3AF
330
1F
100
AcDbEntity
  8
THICK_LINE
 62
     7
100
AcDbLine
 10
1052.8584126605
 20
660.284821578
 30
0.0
 11
1502.8393607601
 21
660.284821578
 31
0.0
  0
LINE
  5
3B0
330
1F
100
AcDbEntity
  8
THICK_LINE
 62
     7
100
AcDbLine
 10
975.8167307789
 20
1380.284821578
 30
0.0
 11
990.8167307789
 21
1380.284821578
 31
0.0
  0
LINE
  5
3B1
330
1F
100
AcDbEntity
  8
THICK_LINE
 62
     7
100
AcDbLine
 10
1037.8584126605
 20
645.284821578
 30
0.0
 11
1502.8393607601
 21
645.284821578
 31
0.0
  0
LINE
  5
3B2
330
1F
100
AcDbEntity
  8
THICK_LINE
 62
     7
100
AcDbLine
 10
997.8584126605
 20
1380.284821578
 30
0.0
 11
1012.8584126605
 21
1380.284821578
 31
0.0
  0
LINE
  5
3B3
330
1F
100
AcDbEntity
  8
THICK_LINE
  6
Continuous
 62
     7
370
    25
100
AcDbLine
 10
1502.8393607601
 20
1260.2212122897
 30
0.0
 11
402.8393607601
 21
1260.2212122897
 31
0.0
  0
LINE
  5
3B4
330
1F
100
AcDbEntity
  8
THICK_LINE
 62
     7
100
AcDbLine
 10
950.8167307789
 20
645.2212122897
 30
0.0
 11
402.8393607601
 21
645.2212122897
 31
0.0
  0
LINE
  5
3B5
330
1F
100
AcDbEntity
  8
THICK_LINE
 62
     7
100
AcDbLine
 10
402.8393607601
 20
1260.2212122897
 30
0.0
 11
402.8393607601
 21
927.0769772969
 31
0.0
  0
LINE
  5
3B6
330
1F
100
AcDbEntity
  8
THICK_LINE
 62
     7
100
AcDbLine
 10
402.8393607601
 20
927.0769772969
 30
0.0
 11
388.6978066563
 21
923.8611842067
 31
0.0
  0
LINE
  5
3B7
330
1F
100
AcDbEntity
  8
THICK_LINE
 62
     7
100
AcDbLine
 10
388.6978066563
 20
923.8611842067
 30
0.0
 11
439.6370010635
 21
902.2869371637
 31
0.0
  0
LINE
  5
3B8
330
1F
100
AcDbEntity
  8
THICK_LINE
 62
     7
100
AcDbLine
 10
439.6370010635
 20
902.2869371637
 30
0.0
 11
402.8393607601
 21
893.9191441649
 31
0.0
  0
LINE
  5
3B9
330
1F
100
AcDbEntity
  8
THICK_LINE
 62
     7
100
AcDbLine
 10
402.8393607601
 20
893.9191441649
 30
0.0
 11
402.8393607601
 21
471.2240700758
 31
0.0
  0
LINE
  5
3BA
330
1F
100
AcDbEntity
  8
THICK_LINE
  6
Continuous
 62
     7
370
    25
100
AcDbLine
 10
402.8393607601
 20
471.2240700758
 30
0.0
 11
1502.8393607601
 21
471.2240700758
 31
0.0
  0
LINE
  5
3BB
330
1F
100
AcDbEntity
  8
THICK_LINE
  6
Continuous
 62
     7
370
    25
100
AcDbLine
 10
1466.0417204566
 20
902.2869371637
 30
0.0
 11
1502.8393607601
 21
893.9191441649
 31
0.0
  0
LINE
  5
3BC
330
1F
100
AcDbEntity
  8
THICK_LINE
  6
Continuous
 62
     7
370
    25
100
AcDbLine
 10
1516.9809148639
 20
923.8611842067
 30
0.0
 11
1466.0417204566
 21
902.2869371637
 31
0.0
  0
LINE
  5
3BD
330
1F
100
AcDbEntity
  8
THICK_LINE
  6
Continuous
 62
     7
370
    25
100
AcDbLine
 10
1502.8393607601
 20
927.0769772969
 30
0.0
 11
1516.9809148639
 21
923.8611842067
 31
0.0
  0
LINE
  5
3BE
330
1F
100
AcDbEntity
  8
THICK_LINE
  6
Continuous
 62
     7
370
    25
100
AcDbLine
 10
1502.8393607601
 20
1260.2212122897
 30
0.0
 11
1502.8393607601
 21
927.0769772969
 31
0.0
  0
LINE
  5
3BF
330
1F
100
AcDbEntity
  8
THICK_LINE
 62
     7
100
AcDbLine
 10
1502.8393607601
 20
660.284821578
 30
0.0
 11
1502.8393607601
 21
645.284821578
 31
0.0
  0
LINE
  5
3C0
330
1F
100
AcDbEntity
  8
THICK_LINE
 62
     7
100
AcDbLine
 10
402.8393607601
 20
660.2212122897
 30
0.0
 11
402.8393607601
 21
645.2212122897
 31
0.0
  0
ARC
  5
3C1
330
1F
100
AcDbEntity
  8
THICK_LINE
 62
     7
100
AcDbCircle
 10
1037.8584126605
 20
685.284821578
 30
0.0
 40
40.0
100
AcDbArc
 50
180.0
 51
270.0
  0
ARC
  5
3C2
330
1F
100
AcDbEntity
  8
THICK_LINE
 62
     7
100
AcDbCircle
 10
1052.8584126605
 20
700.284821578
 30
0.0
 40
40.00000000000011
100
AcDbArc
 50
180.0
 51
270.0
  0
ARC
  5
3C3
330
1F
100
AcDbEntity
  8
THICK_LINE
 62
     7
100
AcDbCircle
 10
950.8167307789
 20
685.2212122897
 30
0.0
 40
40.0
100
AcDbArc
 50
270.0
 51
0.0
  0
ARC
  5
3C4
330
1F
100
AcDbEntity
  8
THICK_LINE
 62
     7
100
AcDbCircle
 10
935.8167307789
 20
700.2212122897
 30
0.0
 40
40.00000000000011
100
AcDbArc
 50
270.0
 51
0.0
  0
HATCH
  5
3C5
330
1F
100
AcDbEntity
  8
THICK_LINE
 62
   251
420
  5723991
100
AcDbHatch
 10
0.0
 20
0.0
 30
0.0
210
0.0
220
0.0
230
1.0
  2
SOLID
 70
     1
 71
     0
 91
        1
 92
        0
 93
        8
 72
     1
 10
975.8167307789322
 20
1380.284821578047
 11
990.8167307789322
 21
1380.284821578047
 72
     1
 10
990.8167307789322
 20
1380.284821578047
 11
990.8167307789322
 21
685.2212122896697
 72
     2
 10
950.8167307789322
 20
685.2212122896697
 40
39.99999999999999
 50
0.0
 51
90.00000000000034
 73
     0
 72
     1
 10
950.816730778932
 20
645.2212122896697
 11
402.8393607600819
 21
645.2212122896696
 72
     1
 10
402.839360760082
 20
645.2212122896696
 11
402.839360760082
 21
660.2212122896696
 72
     1
 10
402.839360760082
 20
660.2212122896696
 11
935.816730778932
 21
660.2212122896697
 72
     2
 10
935.8167307789322
 20
700.2212122896696
 40
39.99999999999998
 50
270.0000000000005
 51
360.0000000000014
 73
     1
 72
     1
 10
975.8167307789323
 20
700.2212122896699
 11
975.8167307789322
 21
1380.284821578047
 97
        0
 75
     0
 76
     1
 98
        1
 10
0.0
 20
0.0
  0
HATCH
  5
3C6
330
1F
100
AcDbEntity
  8
THICK_LINE
 62
   251
420
  5723991
100
AcDbHatch
 10
0.0
 20
0.0
 30
0.0
210
0.0
220
0.0
230
1.0
  2
SOLID
 70
     1
 71
     0
 91
        1
 92
        0
 93
        8
 72
     1
 10
1502.839360760082
 20
660.2848215780473
 11
1502.839360760082
 21
645.2848215780472
 72
     1
 10
1502.839360760082
 20
645.2848215780472
 11
1037.85841266052
 21
645.2848215780472
 72
     2
 10
1037.85841266052
 20
685.2848215780472
 40
39.99999999999999
 50
89.99999999999935
 51
180.0000000000012
 73
     0
 72
     1
 10
997.85841266052
 20
685.2848215780474
 11
997.8584126605199
 21
1380.284821578047
 72
     1
 10
997.8584126605199
 20
1380.284821578047
 11
1012.85841266052
 21
1380.284821578047
 72
     1
 10
1012.85841266052
 20
1380.284821578047
 11
1012.85841266052
 21
700.2848215780472
 72
     2
 10
1052.85841266052
 20
700.2848215780472
 40
39.99999999999999
 50
180.0
 51
270.0000000000011
 73
     1
 72
     1
 10
1052.85841266052
 20
660.2848215780473
 11
1502.839360760082
 21
660.2848215780473
 97
        0
 75
     0
 76
     1
 98
        1
 10
0.0
 20
0.0
  0
HATCH
  5
3C7
330
1F
100
AcDbEntity
  8
THICK_LINE
 62
     7
100
AcDbHatch
 10
0.0
 20
0.0
 30
0.0
210
0.0
220
0.0
230
1.0
  2
AR-SAND
 70
     0
 71
     0
 91
        1
 92
        0
 93
       12
 72
     1
 10
1516.980914863886
 20
923.8611842067248
 11
1466.041720456631
 21
902.2869371636519
 72
     1
 10
1466.041720456631
 20
902.2869371636519
 11
1502.839360760082
 21
893.9191441648924
 72
     1
 10
1502.839360760082
 20
893.9191441648924
 11
1502.839360760082
 21
471.2240700757533
 72
     1
 10
1502.839360760082
 20
471.2240700757533
 11
402.8393607600819
 21
471.2240700757533
 72
     1
 10
402.839360760082
 20
471.2240700757533
 11
402.839360760082
 21
893.9191441648924
 72
     1
 10
402.839360760082
 20
893.9191441648924
 11
439.6370010635331
 21
902.2869371636519
 72
     1
 10
439.6370010635331
 20
902.2869371636519
 11
388.6978066562779
 21
923.8611842067248
 72
     1
 10
388.6978066562779
 20
923.8611842067248
 11
402.839360760082
 21
927.0769772968674
 72
     1
 10
402.839360760082
 20
927.0769772968674
 11
402.839360760082
 21
1260.22121228967
 72
     1
 10
402.839360760082
 20
1260.22121228967
 11
1502.839360760082
 21
1260.22121228967
 72
     1
 10
1502.839360760082
 20
1260.22121228967
 11
1502.839360760082
 21
927.0769772968674
 72
     1
 10
1502.839360760082
 20
927.0769772968674
 11
1516.980914863886
 21
923.8611842067248
 97
        0
 75
     0
 76
     1
 52
0.0
 41
4.0
 77
     0
 78
     4
 53
37.5
 43
0.0
 44
0.0
 45
-6.400125183936183
 46
195.7652949317369
 79
     6
 49
0.0
 49
-154.432
 49
0.0
 49
-172.72
 49
0.0
 49
-165.1
 53
7.5
 43
0.0
 44
0.0
 45
179.8093132552011
 46
286.7300402273417
 79
     6
 49
0.0
 49
-83.312
 49
0.0
 49
-139.192
 49
0.0
 49
-53.34
 53
-32.5
 43
-124.968
 44
0.0
 45
316.3969480965832
 46
0.5748738714183048
 79
     6
 49
0.0
 49
-50.8
 49
0.0
 49
-182.88
 49
0.0
 49
-238.76
 53
-42.50000000000001
 43
-124.968
 44
0.0
 45
305.4225809889189
 46
89.17172930288652
 79
     6
 49
0.0
 49
-25.4
 49
0.0
 49
-119.888
 49
0.0
 49
-137.16
 98
        1
 10
0.0
 20
0.0
  0
DIMENSION
  5
3C8
330
1F
100
AcDbEntity
  8
THICK_LINE
 62
     7
100
AcDbDimension
  2
_D
 10
351.6059167353
 20
660.2212122897
 30
0.0
 11
351.6059167353
 21
939.4209627508
 31
0.0
 70
   160
  1
<>
 71
     2
 42
-1.0
 73
     0
 74
     0
 75
     0
  3
SLDDIMSTYLE0
100
AcDbAlignedDimension
 13
402.8393607601
 23
1260.2212122897
 33
0.0
 14
402.8393607601
 24
660.2212122897
 34
0.0
 50
90.0
100
AcDbRotatedDimension
  0
DIMENSION
  5
3D4
330
1F
100
AcDbEntity
  8
THICK_LINE
 62
     7
100
AcDbDimension
  2
_D_1
 10
231.6972586138
 20
1260.2212122897
 30
0.0
 11
231.6972586138
 21
939.4209627508
 31
0.0
 70
   160
  1
<>
 71
     2
 42
-1.0
 73
     0
 74
     0
 75
     0
  3
SLDDIMSTYLE0
100
AcDbAlignedDimension
 13
927.8393607601
 23
560.2212122897
 33
0.0
 14
402.8393607601
 24
1260.2212122897
 34
0.0
 50
90.0
100
AcDbRotatedDimension
  0
DIMENSION
  5
3DE
330
1F
100
AcDbEntity
  8
THICK_LINE
 62
     7
100
AcDbDimension
  2
_D_2
 10
231.6972586138
 20
1260.2212122897
 30
0.0
 11
231.6972586138
 21
1493.860526031
 31
0.0
 70
   160
  1
<>
 71
     2
 42
-1.0
 73
     0
 74
     0
 75
     0
  3
SLDDIMSTYLE0
100
AcDbAlignedDimension
 13
953.8375717197
 23
1710.2212122897
 33
0.0
 14
402.8393607601
 24
1260.2212122897
 34
0.0
 50
90.0
100
AcDbRotatedDimension
  0
INSERT
  5
3ED
330
1F
100
AcDbEntity
  8
THICK_LINE
 62
     7
100
AcDbBlockReference
  2
SW_NOTE_5
 10
1236.7643312102
 20
2043.3593763778
 30
0.0
  0
LEADER
  5
3F4
330
1F
100
AcDbEntity
  8
THICK_LINE
 62
     7
100
AcDbLeader
  3
SLDDIMSTYLE1
 76
     2
 10
1002.7106899823
 20
1694.1631096321
 30
0.0
 10
1236.7643312102
 20
2043.3593763778
 30
0.0
  0
INSERT
  5
3FB
330
1F
100
AcDbEntity
  8
THICK_LINE
 62
     7
100
AcDbBlockReference
  2
SW_NOTE_6
 10
1167.974522293
 20
1673.0833678852
 30
0.0
  0
LEADER
  5
3FD
330
1F
100
AcDbEntity
  8
THICK_LINE
 62
     7
100
AcDbLeader
  3
SLDDIMSTYLE2
 76
     2
 10
1012.2331280149
 20
1414.0530169339
 30
0.0
 10
1167.974522293
 20
1673.0833678852
 30
0.0
  0
LEADER
  5
3FE
330
1F
100
AcDbEntity
  8
THICK_LINE
 62
     7
100
AcDbLeader
  3
SLDDIMSTYLE2
 76
     2
 10
988.3228230302
 20
1446.9530169339
 30
0.0
 10
1167.974522293
 20
1673.0833678852
 30
0.0
  0
INSERT
  5
405
330
1F
100
AcDbEntity
  8
THICK_LINE
 62
     7
100
AcDbBlockReference
  2
SW_NOTE_7
 10
1346.3184713376
 20
1508.327529244
 30
0.0
  0
LEADER
  5
406
330
1F
100
AcDbEntity
  8
THICK_LINE
 62
     7
100
AcDbLeader
  3
SLDDIMSTYLE2
 76
     2
 10
1005.6371972155
 20
1285.4388604677
 30
0.0
 10
1346.3184713376
 20
1508.327529244
 30
0.0
  0
LEADER
  5
407
330
1F
100
AcDbEntity
  8
THICK_LINE
 62
     7
100
AcDbLeader
  3
SLDDIMSTYLE2
 76
     2
 10
984.5895603653
 20
1325.9072954363
 30
0.0
 10
1346.3184713376
 20
1508.327529244
 30
0.0
  0
INSERT
  5
40D
330
1F
100
AcDbEntity
  8
THICK_LINE
 62
     7
100
AcDbBlockReference
  2
SW_NOTE_8
 10
1499.1847133758
 20
1341.0239199022
 30
0.0
  0
LEADER
  5
40E
330
1F
100
AcDbEntity
  8
THICK_LINE
 62
     7
100
AcDbLeader
  3
SLDDIMSTYLE2
 76
     2
 10
1216.548014234
 20
1137.6632231479
 30
0.0
 10
1499.1847133758
 20
1341.0239199022
 30
0.0
  0
INSERT
  5
415
330
1F
100
AcDbEntity
  8
THICK_LINE
 62
     7
100
AcDbBlockReference
  2
SW_NOTE_9
 10
621.1626902943
 20
1981.4108971293
 30
0.0
  0
LEADER
  5
416
330
1F
100
AcDbEntity
  8
THICK_LINE
 62
     7
100
AcDbLeader
  3
SLDDIMSTYLE2
 76
     2
 10
934.8482303001
 20
1630.4255689108
 30
0.0
 10
621.1626902943
 20
1981.4108971293
 30
0.0
  0
INSERT
  5
41C
330
1F
100
AcDbEntity
  8
THICK_LINE
 62
     7
100
AcDbBlockReference
  2
SW_NOTE_10
 10
519.6410790806
 20
1791.979333915
 30
0.0
  0
LEADER
  5
41D
330
1F
100
AcDbEntity
  8
THICK_LINE
 62
     7
100
AcDbLeader
  3
SLDDIMSTYLE1
 76
     2
 10
946.1580371823
 20
1491.8025152009
 30
0.0
 10
519.6410790806
 20
1791.979333915
 30
0.0
  0
INSERT
  5
424
330
1F
100
AcDbEntity
  8
THICK_LINE
 62
     7
100
AcDbBlockReference
  2
SW_NOTE_11
 10
748.0948146164
 20
1436.187967193
 30
0.0
  0
LEADER
  5
425
330
1F
100
AcDbEntity
  8
THICK_LINE
 62
     7
100
AcDbLeader
  3
SLDDIMSTYLE1
 76
     2
 10
952.1460389068
 20
1115.0374101027
 30
0.0
 10
748.0948146164
 20
1436.187967193
 30
0.0
  0
ENDSEC
  0
SECTION
  2
OBJECTS
  0
DICTIONARY
  5
C
330
0
100
AcDbDictionary
281
     1
  3
ACAD_DETAILVIEWSTYLE
350
42E
  3
ACAD_GROUP
350
D
  3
ACAD_LAYOUT
350
1A
  3
ACAD_MATERIAL
350
43
  3
ACAD_MLEADERSTYLE
350
6B
  3
ACAD_MLINESTYLE
350
17
  3
ACAD_PLOTSETTINGS
350
19
  3
ACAD_PLOTSTYLENAME
350
E
  3
ACAD_SCALELIST
350
47
  3
ACAD_SECTIONVIEWSTYLE
350
42F
  3
ACAD_TABLESTYLE
350
69
  3
ACAD_VISUALSTYLE
350
2A
  3
ACDB_RECOMPOSE_DATA
350
42B
  3
AcDbVariableDictionary
350
426
  0
SUN
  5
6D
330
29
100
AcDbSun
 90
        1
290
     0
 63
     7
421
 16777215
 40
1.0
291
     1
 91
  2455826
 92
 54000000
292
     0
 70
     2
 71
   256
280
     1
  0
DICTIONARY
  5
42E
102
{ACAD_REACTORS
330
C
102
}
330
C
100
AcDbDictionary
281
     1
  0
DICTIONARY
  5
D
102
{ACAD_REACTORS
330
C
102
}
330
C
100
AcDbDictionary
281
     1
  0
DICTIONARY
  5
1A
102
{ACAD_REACTORS
330
C
102
}
330
C
100
AcDbDictionary
281
     1
  3
Layout1
350
1E
  3
Layout2
350
26
  3
Model
350
22
  0
DICTIONARY
  5
43
102
{ACAD_REACTORS
330
C
102
}
330
C
100
AcDbDictionary
281
     1
  3
ByBlock
350
45
  3
ByLayer
350
44
  3
Global
350
46
  0
DICTIONARY
  5
6B
102
{ACAD_REACTORS
330
C
102
}
330
C
100
AcDbDictionary
281
     1
  3
Standard
350
6C
  0
DICTIONARY
  5
17
102
{ACAD_REACTORS
330
C
102
}
330
C
100
AcDbDictionary
281
     1
  3
Standard
350
18
  0
DICTIONARY
  5
19
102
{ACAD_REACTORS
330
C
102
}
330
C
100
AcDbDictionary
281
     1
  0
ACDBDICTIONARYWDFLT
  5
E
102
{ACAD_REACTORS
330
C
102
}
330
C
100
AcDbDictionary
281
     1
  3
Normal
350
F
100
AcDbDictionaryWithDefault
340
F
  0
DICTIONARY
  5
47
102
{ACAD_REACTORS
330
C
102
}
330
C
100
AcDbDictionary
281
     1
  3
A0
350
48
  3
A1
350
49
  3
A2
350
4A
  3
A3
350
4B
  3
A4
350
4C
  3
A5
350
4D
  3
A6
350
4E
  3
A7
350
4F
  3
A8
350
50
  3
A9
350
51
  3
B0
350
52
  3
B1
350
53
  3
B2
350
54
  3
B3
350
55
  3
B4
350
56
  3
B5
350
57
  3
B6
350
58
  3
B7
350
59
  3
B8
350
5A
  3
B9
350
5B
  3
C0
350
5C
  3
C1
350
5D
  3
C2
350
5E
  3
C3
350
5F
  3
C4
350
60
  3
C5
350
61
  3
C6
350
62
  3
C7
350
63
  3
C8
350
64
  3
C9
350
65
  3
D0
350
66
  3
D1
350
67
  3
D2
350
68
  0
DICTIONARY
  5
42F
102
{ACAD_REACTORS
330
C
102
}
330
C
100
AcDbDictionary
281
     1
  0
DICTIONARY
  5
69
102
{ACAD_REACTORS
330
C
102
}
330
C
100
AcDbDictionary
281
     1
  3
Standard
350
6A
  0
DICTIONARY
  5
2A
102
{ACAD_REACTORS
330
C
102
}
330
C
100
AcDbDictionary
281
     1
  3
2dWireframe
350
2F
  3
Basic
350
32
  3
Brighten
350
36
  3
ColorChange
350
3A
  3
Conceptual
350
34
  3
Dim
350
35
  3
EdgeColorOff
350
3D
  3
Facepattern
350
39
  3
Flat
350
2B
  3
FlatWithEdges
350
2C
  3
Gouraud
350
2D
  3
GouraudWithEdges
350
2E
  3
Hidden
350
31
  3
JitterOff
350
3B
  3
Linepattern
350
38
  3
OverhangOff
350
3C
  3
Realistic
350
33
  3
Shaded
350
42
  3
Shaded with edges
350
41
  3
Shades of Gray
350
3E
  3
Sketchy
350
3F
  3
Thicken
350
37
  3
Wireframe
350
30
  3
X-Ray
350
40
  0
XRECORD
  5
42B
102
{ACAD_REACTORS
330
C
102
}
330
C
100
AcDbXrecord
280
     1
 90
        1
330
6A
  0
DICTIONARY
  5
426
102
{ACAD_REACTORS
330
C
102
}
330
C
100
AcDbDictionary
281
     1
  3
CANNOSCALE
350
427
  3
CMLEADERSTYLE
350
42D
  3
CTABLESTYLE
350
42C
  0
LAYOUT
  5
1E
102
{ACAD_REACTORS
330
1A
102
}
330
1A
100
AcDbPlotSettings
  1

  2
none_device
  4

  6

 40
0.0
 41
0.0
 42
0.0
 43
0.0
 44
0.0
 45
0.0
 46
0.0
 47
0.0
 48
0.0
 49
0.0
140
0.0
141
0.0
142
1.0
143
1.0
 70
   688
 72
     1
 73
     0
 74
     5
  7

 75
    16
 76
     0
 77
     2
 78
   300
147
1.0
148
0.0
149
0.0
100
AcDbLayout
  1
Layout1
 70
     1
 71
     1
 10
0.0
 20
0.0
 11
420.0
 21
297.0
 12
0.0
 22
0.0
 32
0.0
 14
1.0000000000E+20
 24
1.0000000000E+20
 34
1.0000000000E+20
 15
-1.0000000000E+20
 25
-1.0000000000E+20
 35
-1.0000000000E+20
146
0.0
 13
0.0
 23
0.0
 33
0.0
 16
1.0
 26
0.0
 36
0.0
 17
0.0
 27
1.0
 37
0.0
 76
     0
330
1B
  0
LAYOUT
  5
26
102
{ACAD_REACTORS
330
1A
102
}
330
1A
100
AcDbPlotSettings
  1

  2
none_device
  4

  6

 40
0.0
 41
0.0
 42
0.0
 43
0.0
 44
0.0
 45
0.0
 46
0.0
 47
0.0
 48
0.0
 49
0.0
140
0.0
141
0.0
142
1.0
143
1.0
 70
   688
 72
     1
 73
     0
 74
     5
  7

 75
    16
 76
     0
 77
     2
 78
   300
147
1.0
148
0.0
149
0.0
100
AcDbLayout
  1
Layout2
 70
     1
 71
     2
 10
0.0
 20
0.0
 11
0.0
 21
0.0
 12
0.0
 22
0.0
 32
0.0
 14
0.0
 24
0.0
 34
0.0
 15
0.0
 25
0.0
 35
0.0
146
0.0
 13
0.0
 23
0.0
 33
0.0
 16
1.0
 26
0.0
 36
0.0
 17
0.0
 27
1.0
 37
0.0
 76
     0
330
23
  0
LAYOUT
  5
22
102
{ACAD_REACTORS
330
1A
102
}
330
1A
100
AcDbPlotSettings
  1

  2
none_device
  4
Letter_(8.50_x_11.00_Inches)
  6

 40
6.35
 41
6.35
 42
6.35000508
 43
6.35000508
 44
215.9
 45
279.4
 46
0.0
 47
0.0
 48
0.0
 49
0.0
140
0.0
141
0.0
142
1.0
143
1.0
 70
  1712
 72
     1
 73
     0
 74
     0
  7

 75
     0
 76
     0
 77
     2
 78
   300
147
1.0
148
0.0
149
0.0
100
AcDbLayout
  1
Model
 70
     1
 71
     0
 10
0.0
 20
0.0
 11
1680.0
 21
2376.0
 12
0.0
 22
0.0
 32
0.0
 14
0.0
 24
0.0
 34
0.0
 15
1680.0
 25
2376.0
 35
0.0
146
0.0
 13
0.0
 23
0.0
 33
0.0
 16
1.0
 26
0.0
 36
0.0
 17
0.0
 27
1.0
 37
0.0
 76
     0
330
1F
331
29
  0
MATERIAL
  5
45
102
{ACAD_REACTORS
330
43
102
}
330
43
100
AcDbMaterial
  1
ByBlock
 72
     1
 94
      127
  0
MATERIAL
  5
44
102
{ACAD_REACTORS
330
43
102
}
330
43
100
AcDbMaterial
  1
ByLayer
 72
     1
 94
      127
  0
MATERIAL
  5
46
102
{ACAD_REACTORS
330
43
102
}
330
43
100
AcDbMaterial
  1
Global
 72
     1
 94
      127
  0
MLEADERSTYLE
  5
6C
102
{ACAD_REACTORS
330
6B
102
}
330
6B
100
AcDbMLeaderStyle
170
     2
171
     1
172
     0
 90
        2
 40
0.0
 41
0.0
173
     1
 91
-1056964608
340
14
 92
       -2
290
     1
 42
2.0
291
     1
 43
8.0
  3
Standard
341
0
 44
4.0
300

342
11
174
     1
178
     6
175
     1
176
     0
 93
-1056964608
 45
4.0
292
     0
297
     0
 46
4.0
343
0
 94
-1056964608
 47
1.0
 49
1.0
140
1.0
293
     1
141
0.0
294
     1
177
     0
142
1.0
295
     0
296
     0
143
3.75
1001
ACAD_MLEADERVER
1070
     2
  0
MLINESTYLE
  5
18
102
{ACAD_REACTORS
330
17
102
}
330
17
100
AcDbMlineStyle
  2
Standard
 70
     0
  3

 62
   256
 51
90.0
 52
90.0
 71
     2
 49
0.5
 62
   256
  6
BYLAYER
 49
-0.5
 62
   256
  6
BYLAYER
  0
ACDBPLACEHOLDER
  5
F
102
{ACAD_REACTORS
330
E
102
}
330
E
  0
SCALE
  5
48
102
{ACAD_REACTORS
330
47
102
}
330
47
100
AcDbScale
 70
     0
300
1:1
140
1.0
141
1.0
290
     1
  0
SCALE
  5
49
102
{ACAD_REACTORS
330
47
102
}
330
47
100
AcDbScale
 70
     0
300
1:2
140
1.0
141
2.0
290
     0
  0
SCALE
  5
4A
102
{ACAD_REACTORS
330
47
102
}
330
47
100
AcDbScale
 70
     0
300
1:4
140
1.0
141
4.0
290
     0
  0
SCALE
  5
4B
102
{ACAD_REACTORS
330
47
102
}
330
47
100
AcDbScale
 70
     0
300
1:5
140
1.0
141
5.0
290
     0
  0
SCALE
  5
4C
102
{ACAD_REACTORS
330
47
102
}
330
47
100
AcDbScale
 70
     0
300
1:8
140
1.0
141
8.0
290
     0
  0
SCALE
  5
4D
102
{ACAD_REACTORS
330
47
102
}
330
47
100
AcDbScale
 70
     0
300
1:10
140
1.0
141
10.0
290
     0
  0
SCALE
  5
4E
102
{ACAD_REACTORS
330
47
102
}
330
47
100
AcDbScale
 70
     0
300
1:16
140
1.0
141
16.0
290
     0
  0
SCALE
  5
4F
102
{ACAD_REACTORS
330
47
102
}
330
47
100
AcDbScale
 70
     0
300
1:20
140
1.0
141
20.0
290
     0
  0
SCALE
  5
50
102
{ACAD_REACTORS
330
47
102
}
330
47
100
AcDbScale
 70
     0
300
1:30
140
1.0
141
30.0
290
     0
  0
SCALE
  5
51
102
{ACAD_REACTORS
330
47
102
}
330
47
100
AcDbScale
 70
     0
300
1:40
140
1.0
141
40.0
290
     0
  0
SCALE
  5
52
102
{ACAD_REACTORS
330
47
102
}
330
47
100
AcDbScale
 70
     0
300
1:50
140
1.0
141
50.0
290
     0
  0
SCALE
  5
53
102
{ACAD_REACTORS
330
47
102
}
330
47
100
AcDbScale
 70
     0
300
1:100
140
1.0
141
100.0
290
     0
  0
SCALE
  5
54
102
{ACAD_REACTORS
330
47
102
}
330
47
100
AcDbScale
 70
     0
300
2:1
140
2.0
141
1.0
290
     0
  0
SCALE
  5
55
102
{ACAD_REACTORS
330
47
102
}
330
47
100
AcDbScale
 70
     0
300
4:1
140
4.0
141
1.0
290
     0
  0
SCALE
  5
56
102
{ACAD_REACTORS
330
47
102
}
330
47
100
AcDbScale
 70
     0
300
8:1
140
8.0
141
1.0
290
     0
  0
SCALE
  5
57
102
{ACAD_REACTORS
330
47
102
}
330
47
100
AcDbScale
 70
     0
300
10:1
140
10.0
141
1.0
290
     0
  0
SCALE
  5
58
102
{ACAD_REACTORS
330
47
102
}
330
47
100
AcDbScale
 70
     0
300
100:1
140
100.0
141
1.0
290
     0
  0
SCALE
  5
59
102
{ACAD_REACTORS
330
47
102
}
330
47
100
AcDbScale
 70
     0
300
1/128" = 1'-0"
140
0.0078125
141
12.0
290
     0
  0
SCALE
  5
5A
102
{ACAD_REACTORS
330
47
102
}
330
47
100
AcDbScale
 70
     0
300
1/64" = 1'-0"
140
0.015625
141
12.0
290
     0
  0
SCALE
  5
5B
102
{ACAD_REACTORS
330
47
102
}
330
47
100
AcDbScale
 70
     0
300
1/32" = 1'-0"
140
0.03125
141
12.0
290
     0
  0
SCALE
  5
5C
102
{ACAD_REACTORS
330
47
102
}
330
47
100
AcDbScale
 70
     0
300
1/16" = 1'-0"
140
0.0625
141
12.0
290
     0
  0
SCALE
  5
5D
102
{ACAD_REACTORS
330
47
102
}
330
47
100
AcDbScale
 70
     0
300
3/32" = 1'-0"
140
0.09375
141
12.0
290
     0
  0
SCALE
  5
5E
102
{ACAD_REACTORS
330
47
102
}
330
47
100
AcDbScale
 70
     0
300
1/8" = 1'-0"
140
0.125
141
12.0
290
     0
  0
SCALE
  5
5F
102
{ACAD_REACTORS
330
47
102
}
330
47
100
AcDbScale
 70
     0
300
3/16" = 1'-0"
140
0.1875
141
12.0
290
     0
  0
SCALE
  5
60
102
{ACAD_REACTORS
330
47
102
}
330
47
100
AcDbScale
 70
     0
300
1/4" = 1'-0"
140
0.25
141
12.0
290
     0
  0
SCALE
  5
61
102
{ACAD_REACTORS
330
47
102
}
330
47
100
AcDbScale
 70
     0
300
3/8" = 1'-0"
140
0.375
141
12.0
290
     0
  0
SCALE
  5
62
102
{ACAD_REACTORS
330
47
102
}
330
47
100
AcDbScale
 70
     0
300
1/2" = 1'-0"
140
0.5
141
12.0
290
     0
  0
SCALE
  5
63
102
{ACAD_REACTORS
330
47
102
}
330
47
100
AcDbScale
 70
     0
300
3/4" = 1'-0"
140
0.75
141
12.0
290
     0
  0
SCALE
  5
64
102
{ACAD_REACTORS
330
47
102
}
330
47
100
AcDbScale
 70
     0
300
1" = 1'-0"
140
1.0
141
12.0
290
     0
  0
SCALE
  5
65
102
{ACAD_REACTORS
330
47
102
}
330
47
100
AcDbScale
 70
     0
300
1-1/2" = 1'-0"
140
1.5
141
12.0
290
     0
  0
SCALE
  5
66
102
{ACAD_REACTORS
330
47
102
}
330
47
100
AcDbScale
 70
     0
300
3" = 1'-0"
140
3.0
141
12.0
290
     0
  0
SCALE
  5
67
102
{ACAD_REACTORS
330
47
102
}
330
47
100
AcDbScale
 70
     0
300
6" = 1'-0"
140
6.0
141
12.0
290
     0
  0
SCALE
  5
68
102
{ACAD_REACTORS
330
47
102
}
330
47
100
AcDbScale
 70
     0
300
1'-0" = 1'-0"
140
12.0
141
12.0
290
     0
  0
TABLESTYLE
  5
6A
102
{ACAD_REACTORS
330
69
102
}
102
{ACAD_XDICTIONARY
360
428
102
}
330
69
100
AcDbTableStyle
  3
Standard
 70
     0
 71
     0
 40
0.06
 41
0.06
280
     0
281
     0
  7
STANDARD
140
4.5
170
     2
 62
     0
 63
   257
283
     0
 90
        4
 91
        0
  1

274
    -2
284
     1
 64
     0
275
    -2
285
     1
 65
     0
276
    -2
286
     1
 66
     0
277
    -2
287
     1
 67
     0
278
    -2
288
     1
 68
     0
279
    -2
289
     1
 69
     0
  7
STANDARD
140
6.0
170
     5
 62
     0
 63
   257
283
     0
 90
        4
 91
        0
  1

274
    -2
284
     1
 64
     0
275
    -2
285
     1
 65
     0
276
    -2
286
     1
 66
     0
277
    -2
287
     1
 67
     0
278
    -2
288
     1
 68
     0
279
    -2
289
     1
 69
     0
  7
STANDARD
140
4.5
170
     5
 62
     0
 63
   257
283
     0
 90
        4
 91
        0
  1

274
    -2
284
     1
 64
     0
275
    -2
285
     1
 65
     0
276
    -2
286
     1
 66
     0
277
    -2
287
     1
 67
     0
278
    -2
288
     1
 68
     0
279
    -2
289
     1
 69
     0
  0
VISUALSTYLE
  5
2F
102
{ACAD_REACTORS
330
2A
102
}
330
2A
100
AcDbVisualStyle
  2
2dWireframe
 70
     4
 71
     0
 72
     2
 73
     0
 90
        0
 40
0.6
 41
30.0
 62
     5
 63
     7
421
 16777215
 74
     1
 91
        4
 64
     7
 65
   257
 75
     1
175
     1
 42
1.0
 92
        0
 66
   257
 43
1.0
 76
     1
 77
     6
 78
     2
 67
     7
 79
     5
170
     0
171
     0
290
     0
174
     0
 93
        1
 44
0.0
173
     0
291
     0
 45
0.0
  0
VISUALSTYLE
  5
32
102
{ACAD_REACTORS
330
2A
102
}
330
2A
100
AcDbVisualStyle
  2
Basic
 70
     7
 71
     1
 72
     0
 73
     1
 90
        0
 40
0.6
 41
30.0
 62
     5
 63
     7
421
 16777215
 74
     0
 91
        4
 64
     7
 65
   257
 75
     1
175
     1
 42
1.0
 92
        8
 66
     7
 43
1.0
 76
     1
 77
     6
 78
     2
 67
     7
 79
     5
170
     0
171
     0
290
     0
174
     0
 93
        1
 44
0.0
173
     0
291
     1
 45
0.0
  0
VISUALSTYLE
  5
36
102
{ACAD_REACTORS
330
2A
102
}
330
2A
100
AcDbVisualStyle
  2
Brighten
 70
    12
 71
     2
 72
     2
 73
     0
 90
        0
 40
0.6
 41
30.0
 62
     5
 63
     7
421
 16777215
 74
     1
 91
        4
 64
     7
 65
   257
 75
     1
175
     1
 42
1.0
 92
        8
 66
     7
 43
1.0
 76
     1
 77
     6
 78
     2
 67
     7
 79
     5
170
     0
171
     0
290
     0
174
     0
 93
        1
 44
50.0
173
     0
291
     1
 45
0.0
  0
VISUALSTYLE
  5
3A
102
{ACAD_REACTORS
330
2A
102
}
330
2A
100
AcDbVisualStyle
  2
ColorChange
 70
    16
 71
     2
 72
     2
 73
     3
 90
        0
 40
0.6
 41
30.0
 62
     5
 63
     8
421
  8421504
 74
     1
 91
        4
 64
     7
 65
   257
 75
     1
175
     1
 42
1.0
 92
        8
 66
     8
424
  8421504
 43
1.0
 76
     1
 77
     6
 78
     2
 67
     7
 79
     5
170
     0
171
     0
290
     0
174
     0
 93
        1
 44
0.0
173
     0
291
     1
 45
0.0
  0
VISUALSTYLE
  5
34
102
{ACAD_REACTORS
330
2A
102
}
330
2A
100
AcDbVisualStyle
  2
Conceptual
 70
     9
 71
     3
 72
     2
 73
     0
 90
        0
 40
0.6
 41
30.0
 62
     5
 63
     7
421
 16777215
 74
     2
 91
        2
 64
     7
 65
   257
 75
     1
175
     1
 42
179.0
 92
        8
 66
     7
 43
1.0
 76
     1
 77
     6
 78
     2
 67
     7
 79
     3
170
     0
171
     0
290
     0
174
     0
 93
        1
 44
0.0
173
     0
291
     0
 45
0.0
  0
VISUALSTYLE
  5
35
102
{ACAD_REACTORS
330
2A
102
}
330
2A
100
AcDbVisualStyle
  2
Dim
 70
    11
 71
     2
 72
     2
 73
     0
 90
        0
 40
0.6
 41
30.0
 62
     5
 63
     7
421
 16777215
 74
     1
 91
        4
 64
     7
 65
   257
 75
     1
175
     1
 42
1.0
 92
        8
 66
     7
 43
1.0
 76
     1
 77
     6
 78
     2
 67
     7
 79
     5
170
     0
171
     0
290
     0
174
     0
 93
        1
 44
-50.0
173
     0
291
     1
 45
0.0
  0
VISUALSTYLE
  5
3D
102
{ACAD_REACTORS
330
2A
102
}
330
2A
100
AcDbVisualStyle
  2
EdgeColorOff
 70
    22
 71
     2
 72
     2
 73
     0
 90
        0
 40
0.6
 41
30.0
 62
     5
 63
     7
421
 16777215
 74
     1
 91
        4
 64
     7
 65
   257
 75
     1
175
     1
 42
1.0
 92
        8
 66
     7
 43
1.0
 76
     1
 77
     6
 78
     2
 67
     7
 79
     5
170
     0
171
     0
290
     0
174
     0
 93
        1
 44
0.0
173
     0
291
     1
 45
0.0
  0
VISUALSTYLE
  5
39
102
{ACAD_REACTORS
330
2A
102
}
330
2A
100
AcDbVisualStyle
  2
Facepattern
 70
    15
 71
     2
 72
     2
 73
     0
 90
        0
 40
0.6
 41
30.0
 62
     5
 63
     7
421
 16777215
 74
     1
 91
        4
 64
     7
 65
   257
 75
     1
175
     1
 42
1.0
 92
        8
 66
     7
 43
1.0
 76
     1
 77
     6
 78
     2
 67
     7
 79
     5
170
     0
171
     0
290
     0
174
     0
 93
        1
 44
0.0
173
     0
291
     1
 45
0.0
  0
VISUALSTYLE
  5
2B
102
{ACAD_REACTORS
330
2A
102
}
330
2A
100
AcDbVisualStyle
  2
Flat
 70
     0
 71
     2
 72
     1
 73
     1
 90
        2
 40
0.6
 41
30.0
 62
     5
 63
     7
421
 16777215
 74
     0
 91
        0
 64
     7
 65
   257
 75
     1
175
     1
 42
1.0
 92
        8
 66
     7
 43
1.0
 76
     1
 77
     6
 78
     2
 67
     7
 79
     5
170
     0
171
     0
290
     0
174
     0
 93
       13
 44
0.0
173
     0
291
     1
 45
0.0
  0
VISUALSTYLE
  5
2C
102
{ACAD_REACTORS
330
2A
102
}
330
2A
100
AcDbVisualStyle
  2
FlatWithEdges
 70
     1
 71
     2
 72
     1
 73
     1
 90
        2
 40
0.6
 41
30.0
 62
     5
 63
     7
421
 16777215
 74
     1
 91
        0
 64
     7
 65
   257
 75
     1
175
     1
 42
1.0
 92
        0
 66
   257
 43
1.0
 76
     1
 77
     6
 78
     2
 67
     7
 79
     5
170
     0
171
     0
290
     0
174
     0
 93
       13
 44
0.0
173
     0
291
     1
 45
0.0
  0
VISUALSTYLE
  5
2D
102
{ACAD_REACTORS
330
2A
102
}
330
2A
100
AcDbVisualStyle
  2
Gouraud
 70
     2
 71
     2
 72
     2
 73
     1
 90
        2
 40
0.6
 41
30.0
 62
     5
 63
     7
421
 16777215
 74
     0
 91
        0
 64
     7
 65
   257
 75
     1
175
     1
 42
1.0
 92
        0
 66
     7
 43
1.0
 76
     1
 77
     6
 78
     2
 67
     7
 79
     5
170
     0
171
     0
290
     0
174
     0
 93
       13
 44
0.0
173
     0
291
     1
 45
0.0
  0
VISUALSTYLE
  5
2E
102
{ACAD_REACTORS
330
2A
102
}
330
2A
100
AcDbVisualStyle
  2
GouraudWithEdges
 70
     3
 71
     2
 72
     2
 73
     1
 90
        2
 40
0.6
 41
30.0
 62
     5
 63
     7
421
 16777215
 74
     1
 91
        0
 64
     7
 65
   257
 75
     1
175
     1
 42
1.0
 92
        0
 66
   257
 43
1.0
 76
     1
 77
     6
 78
     2
 67
     7
 79
     5
170
     0
171
     0
290
     0
174
     0
 93
       13
 44
0.0
173
     0
291
     1
 45
0.0
  0
VISUALSTYLE
  5
31
102
{ACAD_REACTORS
330
2A
102
}
330
2A
100
AcDbVisualStyle
  2
Hidden
 70
     6
 71
     1
 72
     2
 73
     2
 90
        0
 40
0.6
 41
30.0
 62
     5
 63
     7
421
 16777215
 74
     2
 91
        2
 64
     7
 65
   257
 75
     2
175
     1
 42
40.0
 92
        0
 66
   257
 43
1.0
 76
     1
 77
     6
 78
     2
 67
     7
 79
     3
170
     0
171
     0
290
     0
174
     0
 93
        1
 44
0.0
173
     0
291
     0
 45
0.0
  0
VISUALSTYLE
  5
3B
102
{ACAD_REACTORS
330
2A
102
}
330
2A
100
AcDbVisualStyle
  2
JitterOff
 70
    20
 71
     2
 72
     2
 73
     0
 90
        0
 40
0.6
 41
30.0
 62
     5
 63
     7
421
 16777215
 74
     1
 91
        4
 64
     7
 65
   257
 75
     1
175
     1
 42
1.0
 92
       10
 66
     7
 43
1.0
 76
     1
 77
     6
 78
     2
 67
     7
 79
     5
170
     0
171
     0
290
     0
174
     0
 93
        1
 44
0.0
173
     0
291
     1
 45
0.0
  0
VISUALSTYLE
  5
38
102
{ACAD_REACTORS
330
2A
102
}
330
2A
100
AcDbVisualStyle
  2
Linepattern
 70
    14
 71
     2
 72
     2
 73
     0
 90
        0
 40
0.6
 41
30.0
 62
     5
 63
     7
421
 16777215
 74
     1
 91
        4
 64
     7
 65
   257
 75
     7
175
     7
 42
1.0
 92
        8
 66
     7
 43
1.0
 76
     1
 77
     6
 78
     2
 67
     7
 79
     5
170
     0
171
     0
290
     0
174
     0
 93
        1
 44
0.0
173
     0
291
     1
 45
0.0
  0
VISUALSTYLE
  5
3C
102
{ACAD_REACTORS
330
2A
102
}
330
2A
100
AcDbVisualStyle
  2
OverhangOff
 70
    21
 71
     2
 72
     2
 73
     0
 90
        0
 40
0.6
 41
30.0
 62
     5
 63
     7
421
 16777215
 74
     1
 91
        4
 64
     7
 65
   257
 75
     1
175
     1
 42
1.0
 92
        9
 66
     7
 43
1.0
 76
     1
 77
     6
 78
     2
 67
     7
 79
     5
170
     0
171
     0
290
     0
174
     0
 93
        1
 44
0.0
173
     0
291
     1
 45
0.0
  0
VISUALSTYLE
  5
33
102
{ACAD_REACTORS
330
2A
102
}
330
2A
100
AcDbVisualStyle
  2
Realistic
 70
     8
 71
     2
 72
     3
 73
     0
 90
        2
 40
0.6
 41
30.0
 62
     5
 63
     7
421
 16777215
 74
     0
 91
        0
 64
     7
 65
   257
 75
     1
175
     1
 42
1.0
 92
        8
 66
   257
 43
1.0
 76
     1
 77
     6
 78
     2
 67
     7
 79
     3
170
     0
171
     0
290
     0
174
     0
 93
       13
 44
0.0
173
     0
291
     0
 45
0.0
  0
VISUALSTYLE
  5
42
102
{ACAD_REACTORS
330
2A
102
}
330
2A
100
AcDbVisualStyle
  2
Shaded
 70
    27
 71
     2
 72
     2
 73
     1
 90
        2
 40
0.6
 41
30.0
 62
     5
 63
     7
421
 16777215
 74
     0
 91
        4
 64
     7
 65
   257
 75
     1
175
     1
 42
1.0
 92
        8
 66
   257
 43
1.0
 76
     1
 77
     6
 78
     2
 67
     8
425
  7895160
 79
     3
170
     0
171
     0
290
     0
174
     0
 93
        5
 44
0.0
173
     0
291
     0
 45
0.0
  0
VISUALSTYLE
  5
41
102
{ACAD_REACTORS
330
2A
102
}
330
2A
100
AcDbVisualStyle
  2
Shaded with edges
 70
    26
 71
     2
 72
     2
 73
     1
 90
        2
 40
0.6
 41
30.0
 62
     5
 63
     7
421
 16777215
 74
     1
 91
       10
 64
     7
 65
   257
 75
     2
175
     1
 42
1.0
 92
        8
 66
   257
 43
1.0
 76
     1
 77
     6
 78
     2
 67
     7
 79
     3
170
     0
171
     0
290
     0
174
     0
 93
        5
 44
0.0
173
     0
291
     0
 45
0.0
  0
VISUALSTYLE
  5
3E
102
{ACAD_REACTORS
330
2A
102
}
330
2A
100
AcDbVisualStyle
  2
Shades of Gray
 70
    23
 71
     2
 72
     2
 73
     3
 90
        0
 40
0.6
 41
30.0
 62
     5
 63
     7
421
 16777215
 74
     2
 91
        2
 64
     7
 65
     7
 75
     1
175
     1
 42
40.0
 92
        8
 66
     7
 43
1.0
 76
     1
 77
     6
 78
     2
 67
     7
 79
     3
170
     0
171
     0
290
     0
174
     0
 93
        1
 44
0.0
173
     0
291
     0
 45
0.0
  0
VISUALSTYLE
  5
3F
102
{ACAD_REACTORS
330
2A
102
}
330
2A
100
AcDbVisualStyle
  2
Sketchy
 70
    24
 71
     1
 72
     2
 73
     2
 90
        0
 40
0.6
 41
30.0
 62
     5
 63
     7
421
 16777215
 74
     2
 91
        2
 64
     7
 65
     7
 75
     1
175
     1
 42
40.0
 92
       11
 66
     7
 43
1.0
 76
     1
 77
     6
 78
     2
 67
     7
 79
     6
170
     0
171
     0
290
     0
174
     0
 93
        1
 44
0.0
173
     0
291
     0
 45
0.0
  0
VISUALSTYLE
  5
37
102
{ACAD_REACTORS
330
2A
102
}
330
2A
100
AcDbVisualStyle
  2
Thicken
 70
    13
 71
     2
 72
     2
 73
     0
 90
        0
 40
0.6
 41
30.0
 62
     5
 63
     7
421
 16777215
 74
     1
 91
        4
 64
     7
 65
   257
 75
     1
175
     1
 42
1.0
 92
       12
 66
     7
 43
1.0
 76
     1
 77
     6
 78
     2
 67
     7
 79
     5
170
     0
171
     0
290
     0
174
     0
 93
        1
 44
0.0
173
     0
291
     1
 45
0.0
  0
VISUALSTYLE
  5
30
102
{ACAD_REACTORS
330
2A
102
}
330
2A
100
AcDbVisualStyle
  2
Wireframe
 70
     5
 71
     0
 72
     2
 73
     0
 90
        0
 40
0.6
 41
30.0
 62
     5
 63
     7
421
 16777215
 74
     1
 91
        4
 64
     7
 65
   257
 75
     1
175
     1
 42
1.0
 92
        0
 66
   257
 43
1.0
 76
     1
 77
     6
 78
     2
 67
     7
 79
     3
170
     0
171
     0
290
     0
174
     0
 93
        1
 44
0.0
173
     0
291
     0
 45
0.0
  0
VISUALSTYLE
  5
40
102
{ACAD_REACTORS
330
2A
102
}
330
2A
100
AcDbVisualStyle
  2
X-Ray
 70
    25
 71
     2
 72
     2
 73
     1
 90
        1
 40
0.5
 41
30.0
 62
     5
 63
     7
421
 16777215
 74
     1
 91
        0
 64
     7
 65
   257
 75
     1
175
     1
 42
1.0
 92
        8
 66
     7
 43
1.0
 76
     1
 77
     6
 78
     2
 67
     7
 79
     3
170
     0
171
     0
290
     0
174
     0
 93
       13
 44
0.0
173
     0
291
     0
 45
0.0
  0
DICTIONARYVAR
  5
427
102
{ACAD_REACTORS
330
426
102
}
330
426
100
DictionaryVariables
280
     0
  1
1:1
  0
DICTIONARYVAR
  5
42D
102
{ACAD_REACTORS
330
426
102
}
330
426
100
DictionaryVariables
280
     0
  1
Standard
  0
DICTIONARYVAR
  5
42C
102
{ACAD_REACTORS
330
426
102
}
330
426
100
DictionaryVariables
280
     0
  1
Standard
  0
DICTIONARY
  5
428
330
6A
100
AcDbDictionary
280
     1
281
     1
  3
ACAD_ROUNDTRIP_2008_TABLESTYLE_CELLSTYLEMAP
360
429
  0
CELLSTYLEMAP
  5
429
102
{ACAD_REACTORS
330
428
102
}
330
428
100
AcDbCellStyleMap
 90
        3
300
CELLSTYLE
  1
TABLEFORMAT_BEGIN
 90
        5
170
     1
 91
        0
 92
    32768
 62
   257
 93
        1
300
CONTENTFORMAT
  1
CONTENTFORMAT_BEGIN
 90
        0
 91
        0
 92
        4
 93
        0
300

 40
0.0
140
1.0
 94
        5
 62
     0
340
11
144
6.0
309
CONTENTFORMAT_END
171
     1
301
MARGIN
  1
CELLMARGIN_BEGIN
 40
1.5
 40
1.5
 40
1.5
 40
1.5
 40
1.5
 40
1.5
309
CELLMARGIN_END
 94
        6
 95
        1
302
GRIDFORMAT
  1
GRIDFORMAT_BEGIN
 90
        0
 91
        1
 62
     0
 92
       -2
340
14
 93
        0
 40
0.045
309
GRIDFORMAT_END
 95
        2
302
GRIDFORMAT
  1
GRIDFORMAT_BEGIN
 90
        0
 91
        1
 62
     0
 92
       -2
340
14
 93
        0
 40
0.045
309
GRIDFORMAT_END
 95
        4
302
GRIDFORMAT
  1
GRIDFORMAT_BEGIN
 90
        0
 91
        1
 62
     0
 92
       -2
340
14
 93
        0
 40
0.045
309
GRIDFORMAT_END
 95
        8
302
GRIDFORMAT
  1
GRIDFORMAT_BEGIN
 90
        0
 91
        1
 62
     0
 92
       -2
340
14
 93
        0
 40
0.045
309
GRIDFORMAT_END
 95
       16
302
GRIDFORMAT
  1
GRIDFORMAT_BEGIN
 90
        0
 91
        1
 62
     0
 92
       -2
340
14
 93
        0
 40
0.045
309
GRIDFORMAT_END
 95
       32
302
GRIDFORMAT
  1
GRIDFORMAT_BEGIN
 90
        0
 91
        1
 62
     0
 92
       -2
340
14
 93
        0
 40
0.045
309
GRIDFORMAT_END
309
TABLEFORMAT_END
  1
CELLSTYLE_BEGIN
 90
        1
 91
        1
300
_TITLE
309
CELLSTYLE_END
300
CELLSTYLE
  1
TABLEFORMAT_BEGIN
 90
        5
170
     1
 91
        0
 92
        0
 62
   257
 93
        1
300
CONTENTFORMAT
  1
CONTENTFORMAT_BEGIN
 90
        0
 91
        0
 92
        4
 93
        0
300

 40
0.0
140
1.0
 94
        5
 62
     0
340
11
144
4.5
309
CONTENTFORMAT_END
171
     1
301
MARGIN
  1
CELLMARGIN_BEGIN
 40
1.5
 40
1.5
 40
1.5
 40
1.5
 40
1.5
 40
1.5
309
CELLMARGIN_END
 94
        6
 95
        1
302
GRIDFORMAT
  1
GRIDFORMAT_BEGIN
 90
        0
 91
        1
 62
     0
 92
       -2
340
14
 93
        0
 40
0.045
309
GRIDFORMAT_END
 95
        2
302
GRIDFORMAT
  1
GRIDFORMAT_BEGIN
 90
        0
 91
        1
 62
     0
 92
       -2
340
14
 93
        0
 40
0.045
309
GRIDFORMAT_END
 95
        4
302
GRIDFORMAT
  1
GRIDFORMAT_BEGIN
 90
        0
 91
        1
 62
     0
 92
       -2
340
14
 93
        0
 40
0.045
309
GRIDFORMAT_END
 95
        8
302
GRIDFORMAT
  1
GRIDFORMAT_BEGIN
 90
        0
 91
        1
 62
     0
 92
       -2
340
14
 93
        0
 40
0.045
309
GRIDFORMAT_END
 95
       16
302
GRIDFORMAT
  1
GRIDFORMAT_BEGIN
 90
        0
 91
        1
 62
     0
 92
       -2
340
14
 93
        0
 40
0.045
309
GRIDFORMAT_END
 95
       32
302
GRIDFORMAT
  1
GRIDFORMAT_BEGIN
 90
        0
 91
        1
 62
     0
 92
       -2
340
14
 93
        0
 40
0.045
309
GRIDFORMAT_END
309
TABLEFORMAT_END
  1
CELLSTYLE_BEGIN
 90
        2
 91
        1
300
_HEADER
309
CELLSTYLE_END
300
CELLSTYLE
  1
TABLEFORMAT_BEGIN
 90
        5
170
     1
 91
        0
 92
        0
 62
   257
 93
        1
300
CONTENTFORMAT
  1
CONTENTFORMAT_BEGIN
 90
        0
 91
        0
 92
        4
 93
        0
300

 40
0.0
140
1.0
 94
        2
 62
     0
340
11
144
4.5
309
CONTENTFORMAT_END
171
     1
301
MARGIN
  1
CELLMARGIN_BEGIN
 40
1.5
 40
1.5
 40
1.5
 40
1.5
 40
1.5
 40
1.5
309
CELLMARGIN_END
 94
        6
 95
        1
302
GRIDFORMAT
  1
GRIDFORMAT_BEGIN
 90
        0
 91
        1
 62
     0
 92
       -2
340
14
 93
        0
 40
0.045
309
GRIDFORMAT_END
 95
        2
302
GRIDFORMAT
  1
GRIDFORMAT_BEGIN
 90
        0
 91
        1
 62
     0
 92
       -2
340
14
 93
        0
 40
0.045
309
GRIDFORMAT_END
 95
        4
302
GRIDFORMAT
  1
GRIDFORMAT_BEGIN
 90
        0
 91
        1
 62
     0
 92
       -2
340
14
 93
        0
 40
0.045
309
GRIDFORMAT_END
 95
        8
302
GRIDFORMAT
  1
GRIDFORMAT_BEGIN
 90
        0
 91
        1
 62
     0
 92
       -2
340
14
 93
        0
 40
0.045
309
GRIDFORMAT_END
 95
       16
302
GRIDFORMAT
  1
GRIDFORMAT_BEGIN
 90
        0
 91
        1
 62
     0
 92
       -2
340
14
 93
        0
 40
0.045
309
GRIDFORMAT_END
 95
       32
302
GRIDFORMAT
  1
GRIDFORMAT_BEGIN
 90
        0
 91
        1
 62
     0
 92
       -2
340
14
 93
        0
 40
0.045
309
GRIDFORMAT_END
309
TABLEFORMAT_END
  1
CELLSTYLE_BEGIN
 90
        3
 91
        2
300
_DATA
309
CELLSTYLE_END
  0
ENDSEC
  0
EOF
