  0
SECTION
  2
HEADER
  9
$ACADVER
  1
AC1021
  9
$ACADMAINTVER
 70
    25
  9
$DWGCODEPAGE
  3
ANSI_1251
  9
$INSBASE
 10
0.0
 20
0.0
 30
0.0
  9
$EXTMIN
 10
0.0
 20
0.0
 30
0.0
  9
$EXTMAX
 10
1680.0
 20
2376.0
 30
0.0
  9
$LIMMIN
 10
0.0
 20
0.0
  9
$LIMMAX
 10
1680.0
 20
2376.0
  9
$ORTHOMODE
 70
     0
  9
$REGENMODE
 70
     1
  9
$FILLMODE
 70
     1
  9
$QTEXTMODE
 70
     0
  9
$MIRRTEXT
 70
     1
  9
$LTSCALE
 40
8.0
  9
$ATTMODE
 70
     1
  9
$TEXTSIZE
 40
28.0
  9
$TRACEWID
 40
1.0
  9
$TEXTSTYLE
  7
STANDARD
  9
$CLAYER
  8
0
  9
$CELTYPE
  6
ByLayer
  9
$CECOLOR
 62
   256
  9
$CELTSCALE
 40
1.0
  9
$DISPSILH
 70
     0
  9
$DIMSCALE
 40
1.0
  9
$DIMASZ
 40
28.0
  9
$DIMEXO
 40
0.08
  9
$DIMDLI
 40
3.75
  9
$DIMRND
 40
0.0
  9
$DIMDLE
 40
0.0
  9
$DIMEXE
 40
8.0
  9
$DIMTP
 40
0.0
  9
$DIMTM
 40
0.0
  9
$DIMTXT
 40
28.0
  9
$DIMCEN
 40
2.5
  9
$DIMTSZ
 40
0.0
  9
$DIMTOL
 70
     0
  9
$DIMLIM
 70
     0
  9
$DIMTIH
 70
     1
  9
$DIMTOH
 70
     1
  9
$DIMSE1
 70
     0
  9
$DIMSE2
 70
     0
  9
$DIMTAD
 70
     1
  9
$DIMZIN
 70
     0
  9
$DIMBLK
  1

  9
$DIMASO
 70
     1
  9
$DIMSHO
 70
     1
  9
$DIMPOST
  1

  9
$DIMAPOST
  1

  9
$DIMALT
 70
     0
  9
$DIMALTD
 70
     3
  9
$DIMALTF
 40
0.0393700787
  9
$DIMLFAC
 40
1.0
  9
$DIMTOFL
 70
     1
  9
$DIMTVP
 40
0.0
  9
$DIMTIX
 70
     0
  9
$DIMSOXD
 70
     0
  9
$DIMSAH
 70
     0
  9
$DIMBLK1
  1

  9
$DIMBLK2
  1

  9
$DIMSTYLE
  2
ISO-25
  9
$DIMCLRD
 70
     0
  9
$DIMCLRE
 70
     0
  9
$DIMCLRT
 70
     0
  9
$DIMTFAC
 40
1.0
  9
$DIMGAP
 40
24.0
  9
$DIMJUST
 70
     0
  9
$DIMSD1
 70
     0
  9
$DIMSD2
 70
     0
  9
$DIMTOLJ
 70
     0
  9
$DIMTZIN
 70
     0
  9
$DIMALTZ
 70
     0
  9
$DIMALTTZ
 70
     0
  9
$DIMUPT
 70
     0
  9
$DIMDEC
 70
     2
  9
$DIMTDEC
 70
     3
  9
$DIMALTU
 70
     2
  9
$DIMALTTD
 70
     3
  9
$DIMTXSTY
  7
STANDARD
  9
$DIMAUNIT
 70
     0
  9
$DIMADEC
 70
     2
  9
$DIMALTRND
 40
0.0
  9
$DIMAZIN
 70
     0
  9
$DIMDSEP
 70
    44
  9
$DIMATFIT
 70
     3
  9
$DIMFRAC
 70
     0
  9
$DIMLDRBLK
  1

  9
$DIMLUNIT
 70
     2
  9
$DIMLWD
 70
    -2
  9
$DIMLWE
 70
    -2
  9
$DIMTMOVE
 70
     0
  9
$DIMFXL
 40
1.0
  9
$DIMFXLON
 70
     0
  9
$DIMJOGANG
 40
0.7853981634
  9
$DIMTFILL
 70
     0
  9
$DIMTFILLCLR
 70
     0
  9
$DIMARCSYM
 70
     0
  9
$DIMLTYPE
  6

  9
$DIMLTEX1
  6

  9
$DIMLTEX2
  6

  9
$LUNITS
 70
     2
  9
$LUPREC
 70
     2
  9
$SKETCHINC
 40
1.0
  9
$FILLETRAD
 40
10.0
  9
$AUNITS
 70
     0
  9
$AUPREC
 70
     2
  9
$MENU
  1
.
  9
$ELEVATION
 40
0.0
  9
$PELEVATION
 40
0.0
  9
$THICKNESS
 40
0.0
  9
$LIMCHECK
 70
     0
  9
$CHAMFERA
 40
0.0
  9
$CHAMFERB
 40
0.0
  9
$CHAMFERC
 40
0.0
  9
$CHAMFERD
 40
0.0
  9
$SKPOLY
 70
     0
  9
$TDCREATE
 40
2457904.472877708
  9
$TDUCREATE
 40
2457904.347877708
  9
$TDUPDATE
 40
2457904.472881678
  9
$TDUUPDATE
 40
2457904.347881678
  9
$TDINDWG
 40
0.0000000116
  9
$TDUSRTIMER
 40
0.0000000116
  9
$USRTIMER
 70
     1
  9
$ANGBASE
 50
0.0
  9
$ANGDIR
 70
     0
  9
$PDMODE
 70
     0
  9
$PDSIZE
 40
-1.0
  9
$PLINEWID
 40
0.0
  9
$SPLFRAME
 70
     0
  9
$SPLINETYPE
 70
     6
  9
$SPLINESEGS
 70
     8
  9
$HANDSEED
  5
427
  9
$SURFTAB1
 70
     6
  9
$SURFTAB2
 70
     6
  9
$SURFTYPE
 70
     6
  9
$SURFU
 70
     6
  9
$SURFV
 70
     6
  9
$UCSBASE
  2

  9
$UCSNAME
  2

  9
$UCSORG
 10
0.0
 20
0.0
 30
0.0
  9
$UCSXDIR
 10
1.0
 20
0.0
 30
0.0
  9
$UCSYDIR
 10
0.0
 20
1.0
 30
0.0
  9
$UCSORTHOREF
  2

  9
$UCSORTHOVIEW
 70
     0
  9
$UCSORGTOP
 10
0.0
 20
0.0
 30
0.0
  9
$UCSORGBOTTOM
 10
0.0
 20
0.0
 30
0.0
  9
$UCSORGLEFT
 10
0.0
 20
0.0
 30
0.0
  9
$UCSORGRIGHT
 10
0.0
 20
0.0
 30
0.0
  9
$UCSORGFRONT
 10
0.0
 20
0.0
 30
0.0
  9
$UCSORGBACK
 10
0.0
 20
0.0
 30
0.0
  9
$PUCSBASE
  2

  9
$PUCSNAME
  2

  9
$PUCSORG
 10
0.0
 20
0.0
 30
0.0
  9
$PUCSXDIR
 10
1.0
 20
0.0
 30
0.0
  9
$PUCSYDIR
 10
0.0
 20
1.0
 30
0.0
  9
$PUCSORTHOREF
  2

  9
$PUCSORTHOVIEW
 70
     0
  9
$PUCSORGTOP
 10
0.0
 20
0.0
 30
0.0
  9
$PUCSORGBOTTOM
 10
0.0
 20
0.0
 30
0.0
  9
$PUCSORGLEFT
 10
0.0
 20
0.0
 30
0.0
  9
$PUCSORGRIGHT
 10
0.0
 20
0.0
 30
0.0
  9
$PUCSORGFRONT
 10
0.0
 20
0.0
 30
0.0
  9
$PUCSORGBACK
 10
0.0
 20
0.0
 30
0.0
  9
$USERI1
 70
     0
  9
$USERI2
 70
     0
  9
$USERI3
 70
     0
  9
$USERI4
 70
     0
  9
$USERI5
 70
     0
  9
$USERR1
 40
0.0
  9
$USERR2
 40
0.0
  9
$USERR3
 40
0.0
  9
$USERR4
 40
0.0
  9
$USERR5
 40
0.0
  9
$WORLDVIEW
 70
     1
  9
$SHADEDGE
 70
     3
  9
$SHADEDIF
 70
    70
  9
$TILEMODE
 70
     1
  9
$MAXACTVP
 70
    64
  9
$PINSBASE
 10
0.0
 20
0.0
 30
0.0
  9
$PLIMCHECK
 70
     0
  9
$PEXTMIN
 10
1.0000000000E+20
 20
1.0000000000E+20
 30
1.0000000000E+20
  9
$PEXTMAX
 10
-1.0000000000E+20
 20
-1.0000000000E+20
 30
-1.0000000000E+20
  9
$PLIMMIN
 10
0.0
 20
0.0
  9
$PLIMMAX
 10
420.0
 20
297.0
  9
$UNITMODE
 70
     0
  9
$VISRETAIN
 70
     1
  9
$PLINEGEN
 70
     0
  9
$PSLTSCALE
 70
     1
  9
$TREEDEPTH
 70
  3020
  9
$CMLSTYLE
  2
Standard
  9
$CMLJUST
 70
     0
  9
$CMLSCALE
 40
20.0
  9
$PROXYGRAPHICS
 70
     1
  9
$MEASUREMENT
 70
     1
  9
$CELWEIGHT
370
    -1
  9
$ENDCAPS
280
     0
  9
$JOINSTYLE
280
     0
  9
$LWDISPLAY
290
     1
  9
$INSUNITS
 70
     4
  9
$HYPERLINKBASE
  1

  9
$STYLESHEET
  1

  9
$XEDIT
290
     1
  9
$CEPSNTYPE
380
     0
  9
$PSTYLEMODE
290
     1
  9
$FINGERPRINTGUID
  2
{53E569F0-C1ED-4BB6-8E02-B3C6274B5FAA}
  9
$VERSIONGUID
  2
{FAEB1C32-E019-11D5-929B-00C0DF256EC4}
  9
$EXTNAMES
290
     1
  9
$PSVPSCALE
 40
0.0
  9
$OLESTARTUP
290
     0
  9
$SORTENTS
280
   127
  9
$INDEXCTL
280
     0
  9
$HIDETEXT
280
     1
  9
$XCLIPFRAME
290
     0
  9
$HALOGAP
280
     0
  9
$OBSCOLOR
 70
   257
  9
$OBSLTYPE
280
     0
  9
$INTERSECTIONDISPLAY
280
     0
  9
$INTERSECTIONCOLOR
 70
   257
  9
$DIMASSOC
280
     2
  9
$PROJECTNAME
  1

  9
$CAMERADISPLAY
290
     0
  9
$LENSLENGTH
 40
50.0
  9
$CAMERAHEIGHT
 40
0.0
  9
$STEPSPERSEC
 40
2.0
  9
$STEPSIZE
 40
6.0
  9
$3DDWFPREC
 40
2.0
  9
$PSOLWIDTH
 40
5.0
  9
$PSOLHEIGHT
 40
80.0
  9
$LOFTANG1
 40
1.5707963268
  9
$LOFTANG2
 40
1.5707963268
  9
$LOFTMAG1
 40
0.0
  9
$LOFTMAG2
 40
0.0
  9
$LOFTPARAM
 70
     7
  9
$LOFTNORMALS
280
     1
  9
$LATITUDE
 40
37.795
  9
$LONGITUDE
 40
-122.394
  9
$NORTHDIRECTION
 40
0.0
  9
$TIMEZONE
 70
 -8000
  9
$LIGHTGLYPHDISPLAY
280
     1
  9
$TILEMODELIGHTSYNCH
280
     1
  9
$CMATERIAL
347
44
  9
$SOLIDHIST
280
     0
  9
$SHOWHIST
280
     1
  9
$DWFFRAME
280
     2
  9
$DGNFRAME
280
     2
  9
$REALWORLDSCALE
290
     1
  9
$INTERFERECOLOR
 62
   256
  9
$CSHADOW
280
     0
  9
$SHADOWPLANELOCATION
 40
0.0
  0
ENDSEC
  0
SECTION
  2
CLASSES
  0
CLASS
  1
ACDBDICTIONARYWDFLT
  2
AcDbDictionaryWithDefault
  3
ObjectDBX Classes
 90
        0
 91
        4
280
     0
281
     0
  0
CLASS
  1
VISUALSTYLE
  2
AcDbVisualStyle
  3
ObjectDBX Classes
 90
     4095
 91
        4
280
     0
281
     0
  0
CLASS
  1
MATERIAL
  2
AcDbMaterial
  3
ObjectDBX Classes
 90
     1153
 91
        4
280
     0
281
     0
  0
CLASS
  1
SCALE
  2
AcDbScale
  3
ObjectDBX Classes
 90
     1153
 91
        4
280
     0
281
     0
  0
CLASS
  1
TABLESTYLE
  2
AcDbTableStyle
  3
ObjectDBX Classes
 90
     4095
 91
        4
280
     0
281
     0
  0
CLASS
  1
MLEADERSTYLE
  2
AcDbMLeaderStyle
  3
ACDB_MLEADERSTYLE_CLASS
 90
     4095
 91
        4
280
     0
281
     0
  0
CLASS
  1
SUN
  2
AcDbSun
  3
SCENEOE
 90
     1153
 91
        4
280
     0
281
     0
  0
CLASS
  1
DICTIONARYVAR
  2
AcDbDictionaryVar
  3
ObjectDBX Classes
 90
        0
 91
        4
280
     0
281
     0
  0
CLASS
  1
CELLSTYLEMAP
  2
AcDbCellStyleMap
  3
ObjectDBX Classes
 90
     1152
 91
        4
280
     0
281
     0
  0
ENDSEC
  0
SECTION
  2
TABLES
  0
TABLE
  2
VPORT
  5
8
330
0
100
AcDbSymbolTable
 70
     1
  0
VPORT
  5
29
330
8
100
AcDbSymbolTableRecord
100
AcDbViewportTableRecord
  2
*Active
 70
     0
 10
0.0
 20
0.0
 11
1.0
 21
1.0
 12
840.0
 22
1188.0
 13
0.0
 23
0.0
 14
10.0
 24
10.0
 15
10.0
 25
10.0
 16
0.0
 26
0.0
 36
1.0
 17
0.0
 27
0.0
 37
0.0
 40
2376.0
 41
0.7070707071
 42
50.0
 43
0.0
 44
0.0
 50
0.0
 51
0.0
 71
     0
 72
  2000
 73
     1
 74
     3
 75
     0
 76
     0
 77
     0
 78
     0
281
     0
 65
     1
110
0.0
120
0.0
130
0.0
111
1.0
121
0.0
131
0.0
112
0.0
122
1.0
132
0.0
 79
     0
146
0.0
348
2F
 60
     3
 61
     5
292
     1
282
     1
141
0.0
142
0.0
 63
   250
361
6D
  0
ENDTAB
  0
TABLE
  2
LTYPE
  5
5
330
0
100
AcDbSymbolTable
 70
     6
  0
LTYPE
  5
14
330
5
100
AcDbSymbolTableRecord
100
AcDbLinetypeTableRecord
  2
ByBlock
 70
     0
  3

 72
    65
 73
     0
 40
0.0
  0
LTYPE
  5
15
330
5
100
AcDbSymbolTableRecord
100
AcDbLinetypeTableRecord
  2
ByLayer
 70
     0
  3

 72
    65
 73
     0
 40
0.0
  0
LTYPE
  5
16
330
5
100
AcDbSymbolTableRecord
100
AcDbLinetypeTableRecord
  2
Continuous
 70
     0
  3
Solid line
 72
    65
 73
     0
 40
0.0
  0
LTYPE
  5
6E
330
5
100
AcDbSymbolTableRecord
100
AcDbLinetypeTableRecord
  2
HIDDEN
 70
     0
  3
Hidden __ __ __ __ __ __ __ __ __ __ __ __ __ __
 72
    65
 73
     2
 40
1.905
 49
1.27
 74
     0
 49
-0.635
 74
     0
  0
LTYPE
  5
6F
330
5
100
AcDbSymbolTableRecord
100
AcDbLinetypeTableRecord
  2
PHANTOM
 70
     0
  3
Phantom ______  __  __  ______  __  __  ______
 72
    65
 73
     6
 40
12.7
 49
6.35
 74
     0
 49
-1.27
 74
     0
 49
1.27
 74
     0
 49
-1.27
 74
     0
 49
1.27
 74
     0
 49
-1.27
 74
     0
  0
LTYPE
  5
70
330
5
100
AcDbSymbolTableRecord
100
AcDbLinetypeTableRecord
  2
CENTER
 70
     0
  3
Center ____ _ ____ _ ____ _ ____ _ ____ _ ____
 72
    65
 73
     4
 40
10.16
 49
6.35
 74
     0
 49
-1.27
 74
     0
 49
1.27
 74
     0
 49
-1.27
 74
     0
  0
LTYPE
  5
71
330
5
100
AcDbSymbolTableRecord
100
AcDbLinetypeTableRecord
  2
CENTERX2
 70
     0
  3
Center (2x) ________  __  ________  __  _____
 72
    65
 73
     4
 40
20.32
 49
12.7
 74
     0
 49
-2.54
 74
     0
 49
2.54
 74
     0
 49
-2.54
 74
     0
  0
LTYPE
  5
72
330
5
100
AcDbSymbolTableRecord
100
AcDbLinetypeTableRecord
  2
DOT2
 70
     0
  3
Dot (.5x) ........................................
 72
    65
 73
     2
 40
0.635
 49
0.0
 74
     0
 49
-0.635
 74
     0
  0
ENDTAB
  0
TABLE
  2
LAYER
  5
2
330
0
100
AcDbSymbolTable
 70
     7
  0
LAYER
  5
10
330
2
100
AcDbSymbolTableRecord
100
AcDbLayerTableRecord
  2
0
 70
     0
 62
     7
  6
Continuous
370
    -3
390
F
347
46
  0
LAYER
  5
73
330
2
100
AcDbSymbolTableRecord
100
AcDbLayerTableRecord
  2
THIN_LINE
 70
     0
 62
     7
  6
Continuous
370
    -3
390
F
347
46
  0
LAYER
  5
74
330
2
100
AcDbSymbolTableRecord
100
AcDbLayerTableRecord
  2
THICK_LINE
 70
     0
 62
     7
  6
Continuous
370
    25
390
F
347
46
  0
LAYER
  5
75
330
2
100
AcDbSymbolTableRecord
100
AcDbLayerTableRecord
  2
ПОДЧЕРКТИПОРАЗМЕР
 70
     0
 62
    -7
  6
Continuous
290
     0
370
    -3
390
F
347
46
  0
LAYER
  5
76
330
2
100
AcDbSymbolTableRecord
100
AcDbLayerTableRecord
  2
THIN_LIONE
 70
     0
 62
     7
  6
Continuous
370
    -3
390
F
347
46
  0
LAYER
  5
77
330
2
100
AcDbSymbolTableRecord
100
AcDbLayerTableRecord
  2
THICK_LIONE
 70
     0
 62
     7
  6
Continuous
370
    25
390
F
347
46
  0
LAYER
  5
78
330
2
100
AcDbSymbolTableRecord
100
AcDbLayerTableRecord
  2
ПОДЧЕРКТИПАРАЗМЕР
 70
     0
 62
    -7
  6
Continuous
290
     0
370
    -3
390
F
347
46
  0
ENDTAB
  0
TABLE
  2
STYLE
  5
3
330
0
100
AcDbSymbolTable
 70
     6
  0
STYLE
  5
11
330
3
100
AcDbSymbolTableRecord
100
AcDbTextStyleTableRecord
  2
STANDARD
 70
     0
 40
0.0
 41
1.0
 50
0.0
 71
     0
 42
28.0
  3
ARIAL.TTF
  4

1001
ACAD
1000
ARIAL
1071
       34
  0
STYLE
  5
A3
330
3
100
AcDbSymbolTableRecord
100
AcDbTextStyleTableRecord
  2
SLDTEXTSTYLE0
 70
     0
 40
0.0
 41
1.0
 50
0.0
 71
     0
 42
28.0
  3
GOSTA.TTF
  4
bigfont
1001
ACAD
1000
GOST 2.304 A
1071
 16777474
  0
STYLE
  5
B2
330
3
100
AcDbSymbolTableRecord
100
AcDbTextStyleTableRecord
  2
SLDTEXTSTYLE1
 70
     0
 40
0.0
 41
1.0
 50
0.0
 71
     0
 42
28.0
  3
GOSTA.TTF
  4

1001
ACAD
1000
GOST 2.304 A
1071
 16777474
  0
STYLE
  5
B9
330
3
100
AcDbSymbolTableRecord
100
AcDbTextStyleTableRecord
  2
SLDTEXTSTYLE2
 70
     0
 40
0.0
 41
0.6
 50
0.0
 71
     0
 42
28.0
  3
GOSTA.TTF
  4
bigfont
1001
ACAD
1000
GOST 2.304 A
1071
 16777474
  0
STYLE
  5
D5
330
3
100
AcDbSymbolTableRecord
100
AcDbTextStyleTableRecord
  2
SLDTEXTSTYLE3
 70
     0
 40
0.0
 41
1.0
 50
0.0
 71
     0
 42
28.0
  3
ARIBLK.TTF
  4

1001
ACAD
1000
Arial Black
1071
      290
  0
STYLE
  5
3CA
330
3
100
AcDbSymbolTableRecord
100
AcDbTextStyleTableRecord
  2
SLDTEXTSTYLE4
 70
     0
 40
0.0
 41
0.948
 50
0.0
 71
     0
 42
28.0
  3
ARIAL.TTF
  4

1001
ACAD
1000
Arial
1071
      290
  0
ENDTAB
  0
TABLE
  2
VIEW
  5
6
330
0
100
AcDbSymbolTable
 70
     0
  0
ENDTAB
  0
TABLE
  2
UCS
  5
7
330
0
100
AcDbSymbolTable
 70
     0
  0
ENDTAB
  0
TABLE
  2
APPID
  5
9
330
0
100
AcDbSymbolTable
 70
     2
  0
APPID
  5
12
330
9
100
AcDbSymbolTableRecord
100
AcDbRegAppTableRecord
  2
ACAD
 70
     0
  0
APPID
  5
421
330
9
100
AcDbSymbolTableRecord
100
AcDbRegAppTableRecord
  2
ACAD_MLEADERVER
 70
     0
  0
ENDTAB
  0
TABLE
  2
DIMSTYLE
  5
A
330
0
100
AcDbSymbolTable
 70
     4
100
AcDbDimStyleTable
  0
DIMSTYLE
105
27
330
A
100
AcDbSymbolTableRecord
100
AcDbDimStyleTableRecord
  2
ISO-25
 70
     0
 41
2.5
 42
0.625
 43
3.75
 44
1.25
 73
     0
 74
     0
 77
     1
 78
     8
140
2.5
141
2.5
143
0.0393700787
147
0.625
171
     3
172
     1
178
     0
271
     2
272
     2
274
     3
278
    44
283
     0
284
     8
340
11
  0
DIMSTYLE
105
A6
330
A
100
AcDbSymbolTableRecord
100
AcDbDimStyleTableRecord
  2
SLDDIMSTYLE0
 70
     0
 41
28.0
 44
0.0
 45
0.000000001
146
28.0
147
0.0
173
     1
178
     0
271
     0
272
     0
276
     2
340
11
  0
DIMSTYLE
105
3CB
102
{ACAD_REACTORS
330
3C9
330
3D5
330
3DF
102
}
330
A
100
AcDbSymbolTableRecord
100
AcDbDimStyleTableRecord
  2
SLDDIMSTYLE1
 70
     0
 41
28.0
 44
0.0
 45
0.000000001
 73
     0
 74
     0
 77
     2
 78
    12
 79
     3
140
28.0
147
7.0
173
     1
178
     0
271
     2
272
     3
276
     2
284
    12
340
3CA
  0
DIMSTYLE
105
3FF
330
A
100
AcDbSymbolTableRecord
100
AcDbDimStyleTableRecord
  2
SLDDIMSTYLE2
 70
     0
 41
8.6153846154
 44
0.0
 45
0.000000001
146
8.6153846154
147
0.0
173
     1
178
     0
271
     0
272
     0
276
     2
340
11
341
400
343
400
344
400
  0
ENDTAB
  0
TABLE
  2
BLOCK_RECORD
  5
1
330
0
100
AcDbSymbolTable
 70
    17
  0
BLOCK_RECORD
  5
1F
330
1
100
AcDbSymbolTableRecord
100
AcDbBlockTableRecord
  2
*Model_Space
340
22
 70
     0
280
     1
281
     0
  0
BLOCK_RECORD
  5
1B
330
1
100
AcDbSymbolTableRecord
100
AcDbBlockTableRecord
  2
*Paper_Space
340
1E
 70
     0
280
     1
281
     0
  0
BLOCK_RECORD
  5
23
330
1
100
AcDbSymbolTableRecord
100
AcDbBlockTableRecord
  2
*Paper_Space0
340
26
 70
     0
280
     1
281
     0
  0
BLOCK_RECORD
  5
9E
330
1
100
AcDbSymbolTableRecord
100
AcDbBlockTableRecord
  2
SW_NOTE_0
340
0
102
{BLKREFS
331
A5
102
}
 70
     0
280
     1
281
     0
  0
BLOCK_RECORD
  5
AB
330
1
100
AcDbSymbolTableRecord
100
AcDbBlockTableRecord
  2
SW_NOTE_1
340
0
102
{BLKREFS
331
B6
102
}
 70
     0
280
     1
281
     0
  0
BLOCK_RECORD
  5
AE
330
1
100
AcDbSymbolTableRecord
100
AcDbBlockTableRecord
  2
SW_SYMBOL_GWLD_NUM
340
0
102
{BLKREFS
331
B4
331
BF
331
C7
331
CD
102
}
 70
     0
280
     1
281
     0
  0
BLOCK_RECORD
  5
BB
330
1
100
AcDbSymbolTableRecord
100
AcDbBlockTableRecord
  2
SW_NOTE_2
340
0
102
{BLKREFS
331
C1
102
}
 70
     0
280
     1
281
     0
  0
BLOCK_RECORD
  5
C3
330
1
100
AcDbSymbolTableRecord
100
AcDbBlockTableRecord
  2
SW_NOTE_3
340
0
102
{BLKREFS
331
C8
102
}
 70
     0
280
     1
281
     0
  0
BLOCK_RECORD
  5
C9
330
1
100
AcDbSymbolTableRecord
100
AcDbBlockTableRecord
  2
SW_NOTE_4
340
0
102
{BLKREFS
331
CF
102
}
 70
     0
280
     1
281
     0
  0
BLOCK_RECORD
  5
3CC
330
1
100
AcDbSymbolTableRecord
100
AcDbBlockTableRecord
  2
_D
340
0
 70
     0
280
     1
281
     0
  0
BLOCK_RECORD
  5
3D6
330
1
100
AcDbSymbolTableRecord
100
AcDbBlockTableRecord
  2
_D_1
340
0
 70
     0
280
     1
281
     0
  0
BLOCK_RECORD
  5
3E0
330
1
100
AcDbSymbolTableRecord
100
AcDbBlockTableRecord
  2
_D_2
340
0
 70
     0
280
     1
281
     0
  0
BLOCK_RECORD
  5
3E9
330
1
100
AcDbSymbolTableRecord
100
AcDbBlockTableRecord
  2
SW_NOTE_5
340
0
102
{BLKREFS
331
3EE
102
}
 70
     0
280
     1
281
     0
  0
BLOCK_RECORD
  5
3F0
330
1
100
AcDbSymbolTableRecord
100
AcDbBlockTableRecord
  2
SW_NOTE_6
340
0
102
{BLKREFS
331
3F6
102
}
 70
     0
280
     1
281
     0
  0
BLOCK_RECORD
  5
3F9
330
1
100
AcDbSymbolTableRecord
100
AcDbBlockTableRecord
  2
SW_NOTE_7
340
0
102
{BLKREFS
331
3FE
102
}
 70
     0
280
     1
281
     0
  0
BLOCK_RECORD
  5
400
330
1
100
AcDbSymbolTableRecord
100
AcDbBlockTableRecord
  2
_Dot
340
0
 70
     0
280
     1
281
     0
  0
BLOCK_RECORD
  5
406
330
1
100
AcDbSymbolTableRecord
100
AcDbBlockTableRecord
  2
SW_NOTE_8
340
0
102
{BLKREFS
331
40C
102
}
 70
     0
280
     1
281
     0
  0
BLOCK_RECORD
  5
40E
330
1
100
AcDbSymbolTableRecord
100
AcDbBlockTableRecord
  2
SW_NOTE_9
340
0
102
{BLKREFS
331
413
102
}
 70
     0
280
     1
281
     0
  0
BLOCK_RECORD
  5
415
330
1
100
AcDbSymbolTableRecord
100
AcDbBlockTableRecord
  2
SW_NOTE_10
340
0
102
{BLKREFS
331
41B
102
}
 70
     0
280
     1
281
     0
  0
ENDTAB
  0
ENDSEC
  0
SECTION
  2
BLOCKS
  0
BLOCK
  5
20
330
1F
100
AcDbEntity
  8
0
100
AcDbBlockBegin
  2
*Model_Space
 70
     0
 10
0.0
 20
0.0
 30
0.0
  3
*Model_Space
  1

  0
ENDBLK
  5
21
330
1F
100
AcDbEntity
  8
0
100
AcDbBlockEnd
  0
BLOCK
  5
1C
330
1B
100
AcDbEntity
 67
     1
  8
0
100
AcDbBlockBegin
  2
*Paper_Space
 70
     0
 10
0.0
 20
0.0
 30
0.0
  3
*Paper_Space
  1

  0
ENDBLK
  5
1D
330
1B
100
AcDbEntity
 67
     1
  8
0
100
AcDbBlockEnd
  0
BLOCK
  5
24
330
23
100
AcDbEntity
  8
0
100
AcDbBlockBegin
  2
*Paper_Space0
 70
     0
 10
0.0
 20
0.0
 30
0.0
  3
*Paper_Space0
  1

  0
ENDBLK
  5
25
330
23
100
AcDbEntity
  8
0
100
AcDbBlockEnd
  0
BLOCK
  5
9F
330
9E
100
AcDbEntity
  8
0
100
AcDbBlockBegin
  2
SW_NOTE_0
 70
     0
 10
0.0
 20
0.0
 30
0.0
  3
SW_NOTE_0
  1

  0
LINE
  5
A1
330
9E
100
AcDbEntity
  8
THICK_LINE
 62
     0
100
AcDbLine
 10
243.0769999949
 20
0.0
 30
0.0
 11
0.0
 21
0.0
 31
0.0
  0
LINE
  5
A2
330
9E
100
AcDbEntity
  8
THICK_LINE
 62
     0
100
AcDbLine
 10
243.0769999949
 20
0.0
 30
0.0
 11
0.0
 21
0.0
 31
0.0
  0
MTEXT
  5
A4
330
9E
100
AcDbEntity
  8
THICK_LINE
 62
     0
100
AcDbMText
 10
3.7538823247
 20
37.9654257969
 30
0.0
 40
29.6333333333
 41
0.0
 46
0.0
 71
     1
 72
     1
  1
Кабель питания
  7
SLDTEXTSTYLE0
 73
     1
 44
1.0
  0
ENDBLK
  5
A0
330
9E
100
AcDbEntity
  8
0
100
AcDbBlockEnd
  0
BLOCK
  5
AC
330
AB
100
AcDbEntity
  8
0
100
AcDbBlockBegin
  2
SW_NOTE_1
 70
     0
 10
0.0
 20
0.0
 30
0.0
  3
SW_NOTE_1
  1

  0
INSERT
  5
B4
330
AB
100
AcDbEntity
  8
0
  6
Continuous
 62
     0
370
     0
100
AcDbBlockReference
  2
SW_SYMBOL_GWLD_NUM
 10
0.0
 20
3.6587771203
 30
0.0
 41
0.0044146943
 42
0.0044146943
 43
0.0044146943
  0
MTEXT
  5
B5
330
AB
100
AcDbEntity
  8
0
  6
Continuous
 62
     0
370
     0
100
AcDbMText
 10
45.0216680765
 20
35.3175542406
 30
0.0
 40
28.0
 41
0.0
 46
0.0
 71
     1
 72
     1
  1
 докум
  7
SLDTEXTSTYLE0
 73
     1
 44
1.0
  0
ENDBLK
  5
AD
330
AB
100
AcDbEntity
  8
0
100
AcDbBlockEnd
  0
BLOCK
  5
AF
330
AE
100
AcDbEntity
  8
0
100
AcDbBlockBegin
  2
SW_SYMBOL_GWLD_NUM
 70
     0
 10
0.0
 20
0.0
 30
0.0
  3
SW_SYMBOL_GWLD_NUM
  1

  0
CIRCLE
  5
B1
330
AE
100
AcDbEntity
  8
0
  6
Continuous
 62
     0
370
     0
100
AcDbCircle
 10
8400.0
 20
6600.0
 30
0.0
 40
1000.0
  0
MTEXT
  5
B3
330
AE
100
AcDbEntity
  8
0
  6
Continuous
 62
     0
370
     0
100
AcDbMText
 10
3200.0
 20
4000.0
 30
0.0
 40
6342.4550430023
 41
0.0
 46
0.0
 71
     5
 72
     1
  1
N
  7
SLDTEXTSTYLE1
 73
     1
 44
1.0
  0
ENDBLK
  5
B0
330
AE
100
AcDbEntity
  8
0
100
AcDbBlockEnd
  0
BLOCK
  5
BC
330
BB
100
AcDbEntity
  8
0
100
AcDbBlockBegin
  2
SW_NOTE_2
 70
     0
 10
0.0
 20
0.0
 30
0.0
  3
SW_NOTE_2
  1

  0
MTEXT
  5
BE
330
BB
100
AcDbEntity
  8
0
  6
Continuous
 62
     0
370
     0
100
AcDbMText
 10
-25.2268244576
 20
0.0
 30
0.0
 40
20.0
 41
0.0
 46
0.0
 71
     1
 72
     1
  1
Инв.
  7
SLDTEXTSTYLE2
 11
-3.491481338843133E-15
 21
1.0
 31
0.0
 73
     1
 44
1.0
  0
INSERT
  5
BF
330
BB
100
AcDbEntity
  8
0
  6
Continuous
 62
     0
370
     0
100
AcDbBlockReference
  2
SW_SYMBOL_GWLD_NUM
 10
-2.6134122288
 20
53.6111071706
 30
0.0
 41
0.0031533531
 42
0.0031533531
 43
0.0031533531
 50
90.0
  0
MTEXT
  5
C0
330
BB
100
AcDbEntity
  8
0
  6
Continuous
 62
     0
370
     0
100
AcDbMText
 10
-25.2268244576
 20
85.7694447041
 30
0.0
 40
20.0
 41
0.0
 46
0.0
 71
     1
 72
     1
  1
подл.
  7
SLDTEXTSTYLE2
 11
-3.491481338843133E-15
 21
1.0
 31
0.0
 73
     1
 44
1.0
  0
ENDBLK
  5
BD
330
BB
100
AcDbEntity
  8
0
100
AcDbBlockEnd
  0
BLOCK
  5
C4
330
C3
100
AcDbEntity
  8
0
100
AcDbBlockBegin
  2
SW_NOTE_3
 70
     0
 10
0.0
 20
0.0
 30
0.0
  3
SW_NOTE_3
  1

  0
MTEXT
  5
C6
330
C3
100
AcDbEntity
  8
0
  6
Continuous
 62
     0
370
     0
100
AcDbMText
 10
-25.2268244576
 20
0.0
 30
0.0
 40
20.0
 41
0.0
 46
0.0
 71
     1
 72
     1
  1
Взам. инв. 
  7
SLDTEXTSTYLE2
 11
-3.491481338843133E-15
 21
1.0
 31
0.0
 73
     1
 44
1.0
  0
INSERT
  5
C7
330
C3
100
AcDbEntity
  8
0
  6
Continuous
 62
     0
370
     0
100
AcDbBlockReference
  2
SW_SYMBOL_GWLD_NUM
 10
-2.6134122288
 20
143.7722146511
 30
0.0
 41
0.0031533531
 42
0.0031533531
 43
0.0031533531
 50
90.0
  0
ENDBLK
  5
C5
330
C3
100
AcDbEntity
  8
0
100
AcDbBlockEnd
  0
BLOCK
  5
CA
330
C9
100
AcDbEntity
  8
0
100
AcDbBlockBegin
  2
SW_NOTE_4
 70
     0
 10
0.0
 20
0.0
 30
0.0
  3
SW_NOTE_4
  1

  0
MTEXT
  5
CC
330
C9
100
AcDbEntity
  8
0
  6
Continuous
 62
     0
370
     0
100
AcDbMText
 10
-25.2268244576
 20
0.0
 30
0.0
 40
20.0
 41
0.0
 46
0.0
 71
     1
 72
     1
  1
Инв. 
  7
SLDTEXTSTYLE2
 11
-3.491481338843133E-15
 21
1.0
 31
0.0
 73
     1
 44
1.0
  0
INSERT
  5
CD
330
C9
100
AcDbEntity
  8
0
  6
Continuous
 62
     0
370
     0
100
AcDbBlockReference
  2
SW_SYMBOL_GWLD_NUM
 10
-2.6134122288
 20
65.722219646
 30
0.0
 41
0.0031533531
 42
0.0031533531
 43
0.0031533531
 50
90.0
  0
MTEXT
  5
CE
330
C9
100
AcDbEntity
  8
0
  6
Continuous
 62
     0
370
     0
100
AcDbMText
 10
-25.2268244576
 20
97.8805571795
 30
0.0
 40
20.0
 41
0.0
 46
0.0
 71
     1
 72
     1
  1
 дубл.
  7
SLDTEXTSTYLE2
 11
-3.491481338843133E-15
 21
1.0
 31
0.0
 73
     1
 44
1.0
  0
ENDBLK
  5
CB
330
C9
100
AcDbEntity
  8
0
100
AcDbBlockEnd
  0
BLOCK
  5
3CD
330
3CC
100
AcDbEntity
  8
0
100
AcDbBlockBegin
  2
_D
 70
     0
 10
0.0
 20
0.0
 30
0.0
  3
_D
  1

  0
SOLID
  5
3CF
330
3CC
100
AcDbEntity
  8
THICK_LINE
 62
     7
100
AcDbTrace
 10
242.8312895477
 20
1614.2858192191
 30
0.0
 11
238.52359724
 21
1586.2858192191
 31
0.0
 12
247.1389818554
 22
1586.2858192191
 32
0.0
 13
247.1389818554
 23
1586.2858192191
 33
0.0
  0
SOLID
  5
3D0
330
3CC
100
AcDbEntity
  8
THICK_LINE
 62
     7
100
AcDbTrace
 10
242.8312895477
 20
1364.2858192191
 30
0.0
 11
247.1389818554
 21
1392.2858192191
 31
0.0
 12
238.52359724
 22
1392.2858192191
 32
0.0
 13
238.52359724
 23
1392.2858192191
 33
0.0
  0
LINE
  5
3D1
330
3CC
100
AcDbEntity
  8
THICK_LINE
 62
     7
100
AcDbLine
 10
925.9247759453
 20
1614.2858192191
 30
0.0
 11
234.8312895477
 21
1614.2858192191
 31
0.0
  0
LINE
  5
3D2
330
3CC
100
AcDbEntity
  8
THICK_LINE
 62
     7
100
AcDbLine
 10
446.0263157969
 20
1364.2858192191
 30
0.0
 11
234.8312895477
 21
1364.2858192191
 31
0.0
  0
LINE
  5
3D3
330
3CC
100
AcDbEntity
  8
THICK_LINE
 62
     7
100
AcDbLine
 10
242.8312895477
 20
1614.2858192191
 30
0.0
 11
242.8312895477
 21
1364.2858192191
 31
0.0
  0
MTEXT
  5
3D4
330
3CC
100
AcDbEntity
  8
THICK_LINE
 62
     7
100
AcDbMText
 10
206.7373909714
 20
1465.2588066285
 30
0.0
 40
28.0
 41
0.0
 46
0.0
 71
     1
 72
     1
  1
250
  7
SLDTEXTSTYLE4
 11
-7.044195017643634E-15
 21
1.0
 31
0.0
 73
     1
 44
1.0
  0
ENDBLK
  5
3CE
330
3CC
100
AcDbEntity
  8
0
100
AcDbBlockEnd
  0
BLOCK
  5
3D7
330
3D6
100
AcDbEntity
  8
0
100
AcDbBlockBegin
  2
_D_1
 70
     0
 10
0.0
 20
0.0
 30
0.0
  3
_D_1
  1

  0
SOLID
  5
3D9
330
3D6
100
AcDbEntity
  8
THICK_LINE
 62
     7
100
AcDbTrace
 10
372.0434053026
 20
1364.2858192191
 30
0.0
 11
367.7357129949
 21
1336.2858192191
 31
0.0
 12
376.3510976103
 22
1336.2858192191
 32
0.0
 13
376.3510976103
 23
1336.2858192191
 33
0.0
  0
SOLID
  5
3DA
330
3D6
100
AcDbEntity
  8
THICK_LINE
 62
     7
100
AcDbTrace
 10
372.0434053026
 20
764.2858192191
 30
0.0
 11
376.3510976103
 21
792.2858192191
 31
0.0
 12
367.7357129949
 22
792.2858192191
 32
0.0
 13
367.7357129949
 23
792.2858192191
 33
0.0
  0
LINE
  5
3DB
330
3D6
100
AcDbEntity
  8
THICK_LINE
 62
     7
100
AcDbLine
 10
446.0263157969
 20
1364.2858192191
 30
0.0
 11
364.0434053026
 21
1364.2858192191
 31
0.0
  0
LINE
  5
3DC
330
3D6
100
AcDbEntity
  8
THICK_LINE
 62
     7
100
AcDbLine
 10
446.0263157969
 20
764.2858192191
 30
0.0
 11
364.0434053026
 21
764.2858192191
 31
0.0
  0
LINE
  5
3DD
330
3D6
100
AcDbEntity
  8
THICK_LINE
 62
     7
100
AcDbLine
 10
372.0434053026
 20
1364.2858192191
 30
0.0
 11
372.0434053026
 21
764.2858192191
 31
0.0
  0
MTEXT
  5
3DE
330
3D6
100
AcDbEntity
  8
THICK_LINE
 62
     7
100
AcDbMText
 10
335.9495067264
 20
1019.5602289694
 30
0.0
 40
28.0
 41
0.0
 46
0.0
 71
     1
 72
     1
  1
600
  7
SLDTEXTSTYLE4
 11
-7.044195017643634E-15
 21
1.0
 31
0.0
 73
     1
 44
1.0
  0
ENDBLK
  5
3D8
330
3D6
100
AcDbEntity
  8
0
100
AcDbBlockEnd
  0
BLOCK
  5
3E1
330
3E0
100
AcDbEntity
  8
0
100
AcDbBlockBegin
  2
_D_2
 70
     0
 10
0.0
 20
0.0
 30
0.0
  3
_D_2
  1

  0
SOLID
  5
3E3
330
3E0
100
AcDbEntity
  8
THICK_LINE
 62
     7
100
AcDbTrace
 10
242.8312895477
 20
664.2858192191
 30
0.0
 11
247.1389818554
 21
692.2858192191
 31
0.0
 12
238.52359724
 22
692.2858192191
 32
0.0
 13
238.52359724
 23
692.2858192191
 33
0.0
  0
SOLID
  5
3E4
330
3E0
100
AcDbEntity
  8
THICK_LINE
 62
     7
100
AcDbTrace
 10
242.8312895477
 20
1364.2858192191
 30
0.0
 11
238.52359724
 21
1336.2858192191
 31
0.0
 12
247.1389818554
 22
1336.2858192191
 32
0.0
 13
247.1389818554
 23
1336.2858192191
 33
0.0
  0
LINE
  5
3E5
330
3E0
100
AcDbEntity
  8
THICK_LINE
 62
     7
100
AcDbLine
 10
896.0263157969
 20
664.2858192191
 30
0.0
 11
234.8312895477
 21
664.2858192191
 31
0.0
  0
LINE
  5
3E6
330
3E0
100
AcDbEntity
  8
THICK_LINE
 62
     7
100
AcDbLine
 10
446.0263157969
 20
1364.2858192191
 30
0.0
 11
234.8312895477
 21
1364.2858192191
 31
0.0
  0
LINE
  5
3E7
330
3E0
100
AcDbEntity
  8
THICK_LINE
 62
     7
100
AcDbLine
 10
242.8312895477
 20
664.2858192191
 30
0.0
 11
242.8312895477
 21
1364.2858192191
 31
0.0
  0
MTEXT
  5
3E8
330
3E0
100
AcDbEntity
  8
THICK_LINE
 62
     7
100
AcDbMText
 10
206.7373909714
 20
1019.5602289694
 30
0.0
 40
28.0
 41
0.0
 46
0.0
 71
     1
 72
     1
  1
700
  7
SLDTEXTSTYLE4
 11
-3.828568698926949E-16
 21
1.0
 31
0.0
 73
     1
 44
1.0
  0
ENDBLK
  5
3E2
330
3E0
100
AcDbEntity
  8
0
100
AcDbBlockEnd
  0
BLOCK
  5
3EA
330
3E9
100
AcDbEntity
  8
0
100
AcDbBlockBegin
  2
SW_NOTE_5
 70
     0
 10
0.0
 20
0.0
 30
0.0
  3
SW_NOTE_5
  1

  0
LINE
  5
3EC
330
3E9
100
AcDbEntity
  8
THICK_LINE
 62
     0
100
AcDbLine
 10
90.5201857415
 20
0.0
 30
0.0
 11
0.0
 21
0.0
 31
0.0
  0
MTEXT
  5
3ED
330
3E9
100
AcDbEntity
  8
THICK_LINE
 62
     0
100
AcDbMText
 10
3.3650114643
 20
37.8838995359
 30
0.0
 40
29.6333333333
 41
0.0
 46
0.0
 71
     1
 72
     1
  1
Грунт
  7
SLDTEXTSTYLE0
 73
     1
 44
1.0
  0
ENDBLK
  5
3EB
330
3E9
100
AcDbEntity
  8
0
100
AcDbBlockEnd
  0
BLOCK
  5
3F1
330
3F0
100
AcDbEntity
  8
0
100
AcDbBlockBegin
  2
SW_NOTE_6
 70
     0
 10
0.0
 20
0.0
 30
0.0
  3
SW_NOTE_6
  1

  0
LINE
  5
3F3
330
3F0
100
AcDbEntity
  8
THICK_LINE
 62
     0
100
AcDbLine
 10
438.6021395651
 20
0.0
 30
0.0
 11
0.0
 21
0.0
 31
0.0
  0
LINE
  5
3F4
330
3F0
100
AcDbEntity
  8
THICK_LINE
 62
     0
100
AcDbLine
 10
438.6021395651
 20
0.0
 30
0.0
 11
0.0
 21
0.0
 31
0.0
  0
MTEXT
  5
3F5
330
3F0
100
AcDbEntity
  8
THICK_LINE
 62
     0
100
AcDbMText
 10
3.622819167
 20
37.5154961008
 30
0.0
 40
29.6333333333
 41
0.0
 46
0.0
 71
     1
 72
     1
  1
Соединительные коннекторы
  7
SLDTEXTSTYLE0
 73
     1
 44
1.0
  0
ENDBLK
  5
3F2
330
3F0
100
AcDbEntity
  8
0
100
AcDbBlockEnd
  0
BLOCK
  5
3FA
330
3F9
100
AcDbEntity
  8
0
100
AcDbBlockBegin
  2
SW_NOTE_7
 70
     0
 10
0.0
 20
0.0
 30
0.0
  3
SW_NOTE_7
  1

  0
LINE
  5
3FC
330
3F9
100
AcDbEntity
  8
THICK_LINE
 62
     0
100
AcDbLine
 10
254.1620334116
 20
0.0
 30
0.0
 11
0.0
 21
0.0
 31
0.0
  0
MTEXT
  5
3FD
330
3F9
100
AcDbEntity
  8
THICK_LINE
 62
     0
100
AcDbMText
 10
3.8197690832
 20
37.732585354
 30
0.0
 40
29.6333333333
 41
0.0
 46
0.0
 71
     1
 72
     1
  1
Огонь зоны TLOF
  7
SLDTEXTSTYLE0
 73
     1
 44
1.0
  0
ENDBLK
  5
3FB
330
3F9
100
AcDbEntity
  8
0
100
AcDbBlockEnd
  0
BLOCK
  5
401
330
400
100
AcDbEntity
  8
0
100
AcDbBlockBegin
  2
_Dot
 70
     0
 10
0.0
 20
0.0
 30
0.0
  3
_Dot
  1

  0
LWPOLYLINE
  5
403
330
400
100
AcDbEntity
  8
0
  6
ByBlock
 62
     0
100
AcDbPolyline
 90
        2
 70
     1
 43
0.5
 10
-0.25
 20
0.0
 42
1.0
 10
0.25
 20
0.0
 42
1.0
  0
LINE
  5
404
330
400
100
AcDbEntity
  8
0
  6
ByBlock
 62
     0
370
    -2
100
AcDbLine
 10
-0.5
 20
0.0
 30
0.0
 11
-1.0
 21
0.0
 31
0.0
  0
ENDBLK
  5
402
330
400
100
AcDbEntity
  8
0
100
AcDbBlockEnd
  0
BLOCK
  5
407
330
406
100
AcDbEntity
  8
0
100
AcDbBlockBegin
  2
SW_NOTE_8
 70
     0
 10
0.0
 20
0.0
 30
0.0
  3
SW_NOTE_8
  1

  0
LINE
  5
409
330
406
100
AcDbEntity
  8
THICK_LINE
 62
     0
100
AcDbLine
 10
-336.1449638876
 20
0.0
 30
0.0
 11
0.0
 21
0.0
 31
0.0
  0
MTEXT
  5
40A
330
406
100
AcDbEntity
  8
THICK_LINE
 62
     0
100
AcDbMText
 10
-339.9736440558
 20
85.2436972989
 30
0.0
 40
29.6333333333
 41
0.0
 46
0.0
 71
     1
 72
     1
  1
Кронштейн крепления
  7
SLDTEXTSTYLE0
 73
     1
 44
1.0
  0
MTEXT
  5
40B
330
406
100
AcDbEntity
  8
THICK_LINE
 62
     0
100
AcDbMText
 10
-339.9736440558
 20
37.732585354
 30
0.0
 40
29.6333333333
 41
0.0
 46
0.0
 71
     1
 72
     1
  1
на трубу D=40мм.
  7
SLDTEXTSTYLE0
 73
     1
 44
1.0
  0
ENDBLK
  5
408
330
406
100
AcDbEntity
  8
0
100
AcDbBlockEnd
  0
BLOCK
  5
40F
330
40E
100
AcDbEntity
  8
0
100
AcDbBlockBegin
  2
SW_NOTE_9
 70
     0
 10
0.0
 20
0.0
 30
0.0
  3
SW_NOTE_9
  1

  0
LINE
  5
411
330
40E
100
AcDbEntity
  8
THICK_LINE
 62
     0
100
AcDbLine
 10
-231.9892744097
 20
0.0
 30
0.0
 11
0.0
 21
0.0
 31
0.0
  0
MTEXT
  5
412
330
40E
100
AcDbEntity
  8
THICK_LINE
 62
     0
100
AcDbMText
 10
-235.8179545779
 20
37.3866271577
 30
0.0
 40
29.6333333333
 41
0.0
 46
0.0
 71
     1
 72
     1
  1
Ломкая стойка
  7
SLDTEXTSTYLE0
 73
     1
 44
1.0
  0
ENDBLK
  5
410
330
40E
100
AcDbEntity
  8
0
100
AcDbBlockEnd
  0
BLOCK
  5
416
330
415
100
AcDbEntity
  8
0
100
AcDbBlockBegin
  2
SW_NOTE_10
 70
     0
 10
0.0
 20
0.0
 30
0.0
  3
SW_NOTE_10
  1

  0
LINE
  5
418
330
415
100
AcDbEntity
  8
THICK_LINE
 62
     0
100
AcDbLine
 10
-455.7758370909
 20
0.0
 30
0.0
 11
0.0
 21
0.0
 31
0.0
  0
MTEXT
  5
419
330
415
100
AcDbEntity
  8
THICK_LINE
 62
     0
100
AcDbMText
 10
-459.6045172591
 20
85.4571762402
 30
0.0
 40
29.6333333333
 41
0.0
 46
0.0
 71
     1
 72
     1
  1
Фундаментная забивная игла
  7
SLDTEXTSTYLE0
 73
     1
 44
1.0
  0
MTEXT
  5
41A
330
415
100
AcDbEntity
  8
THICK_LINE
 62
     0
100
AcDbMText
 10
-459.6045172591
 20
37.9460642952
 30
0.0
 40
29.6333333333
 41
0.0
 46
0.0
 71
     1
 72
     1
  1
(Стальной уголок 50х50мм.)
  7
SLDTEXTSTYLE0
 73
     1
 44
1.0
  0
ENDBLK
  5
417
330
415
100
AcDbEntity
  8
0
100
AcDbBlockEnd
  0
ENDSEC
  0
SECTION
  2
ENTITIES
  0
LINE
  5
79
330
1F
100
AcDbEntity
  8
THICK_LINE
100
AcDbLine
 10
160.0
 20
2336.0
 30
0.0
 11
720.0
 21
2336.0
 31
0.0
  0
LINE
  5
7A
330
1F
100
AcDbEntity
  8
THICK_LINE
100
AcDbLine
 10
160.0
 20
2336.0
 30
0.0
 11
160.0
 21
2224.0
 31
0.0
  0
LINE
  5
7B
330
1F
100
AcDbEntity
  8
THICK_LINE
100
AcDbLine
 10
160.0
 20
2224.0
 30
0.0
 11
720.0
 21
2224.0
 31
0.0
  0
LINE
  5
7C
330
1F
100
AcDbEntity
  8
THICK_LINE
100
AcDbLine
 10
720.0
 20
2336.0
 30
0.0
 11
720.0
 21
2224.0
 31
0.0
  0
LINE
  5
7D
330
1F
100
AcDbEntity
  8
THICK_LINE
100
AcDbLine
 10
217.1932620256
 20
160.6777803472
 30
0.0
 11
217.1932620256
 21
40.6777803472
 31
0.0
  0
LINE
  5
7E
330
1F
100
AcDbEntity
  8
THICK_LINE
100
AcDbLine
 10
1561.1932620256
 20
160.6777803472
 30
0.0
 11
1561.1932620256
 21
40.6777803472
 31
0.0
  0
LINE
  5
7F
330
1F
100
AcDbEntity
  8
THICK_LINE
100
AcDbLine
 10
1561.1932620256
 20
160.6777803472
 30
0.0
 11
1561.1932620256
 21
40.6777803472
 31
0.0
  0
LINE
  5
80
330
1F
100
AcDbEntity
  8
THICK_LINE
100
AcDbLine
 10
64.0204468216
 20
39.9744633888
 30
0.0
 11
64.0204468216
 21
1199.9744633888
 31
0.0
  0
LINE
  5
81
330
1F
100
AcDbEntity
  8
THICK_LINE
100
AcDbLine
 10
64.0204468216
 20
39.9744633888
 30
0.0
 11
160.0204468216
 21
39.9744633888
 31
0.0
  0
LINE
  5
82
330
1F
100
AcDbEntity
  8
THIN_LINE
100
AcDbLine
 10
104.0204468216
 20
39.9744633888
 30
0.0
 11
104.0204468216
 21
1199.9744633888
 31
0.0
  0
LINE
  5
83
330
1F
100
AcDbEntity
  8
THICK_LINE
100
AcDbLine
 10
160.0204468216
 20
39.9744633888
 30
0.0
 11
160.0204468216
 21
1199.9744633888
 31
0.0
  0
LINE
  5
84
330
1F
100
AcDbEntity
  8
THICK_LINE
100
AcDbLine
 10
64.0204468216
 20
239.9744633888
 30
0.0
 11
160.0204468216
 21
239.9744633888
 31
0.0
  0
LINE
  5
85
330
1F
100
AcDbEntity
  8
THICK_LINE
100
AcDbLine
 10
64.0204468216
 20
519.9744633888
 30
0.0
 11
160.0204468216
 21
519.9744633888
 31
0.0
  0
LINE
  5
86
330
1F
100
AcDbEntity
  8
THICK_LINE
100
AcDbLine
 10
64.0204468216
 20
719.9744633888
 30
0.0
 11
160.0204468216
 21
719.9744633888
 31
0.0
  0
LINE
  5
87
330
1F
100
AcDbEntity
  8
THICK_LINE
100
AcDbLine
 10
64.0204468216
 20
919.9744633888
 30
0.0
 11
160.0204468216
 21
919.9744633888
 31
0.0
  0
LINE
  5
88
330
1F
100
AcDbEntity
  8
THICK_LINE
100
AcDbLine
 10
64.0
 20
40.0
 30
0.0
 11
1640.0
 21
40.0
 31
0.0
  0
LINE
  5
89
330
1F
100
AcDbEntity
  8
THIN_LINE
100
AcDbLine
 10
160.0
 20
80.4833941736
 30
0.0
 11
680.0
 21
80.4833941736
 31
0.0
  0
LINE
  5
8A
330
1F
100
AcDbEntity
  8
THICK_LINE
100
AcDbLine
 10
1561.2062895552
 20
104.8320298152
 30
0.0
 11
1639.9812872176
 21
104.8320298152
 31
0.0
  0
LINE
  5
8B
330
1F
100
AcDbEntity
  8
THIN_LINE
100
AcDbLine
 10
160.0
 20
120.5870293472
 30
0.0
 11
680.0
 21
120.5870293472
 31
0.0
  0
LINE
  5
8C
330
1F
100
AcDbEntity
  8
THICK_LINE
100
AcDbLine
 10
160.0
 20
160.6906645208
 30
0.0
 11
1639.9812872176
 21
160.6906645208
 31
0.0
  0
LINE
  5
8D
330
1F
100
AcDbEntity
  8
THICK_LINE
100
AcDbLine
 10
160.0
 20
240.0
 30
0.0
 11
64.0
 21
240.0
 31
0.0
  0
LINE
  5
8E
330
1F
100
AcDbEntity
  8
THICK_LINE
100
AcDbLine
 10
64.0
 20
40.0
 30
0.0
 11
64.0
 21
1200.0
 31
0.0
  0
LINE
  5
8F
330
1F
100
AcDbEntity
  8
THIN_LINE
100
AcDbLine
 10
104.0
 20
40.0
 30
0.0
 11
104.0
 21
1200.0
 31
0.0
  0
LINE
  5
90
330
1F
100
AcDbEntity
  8
THICK_LINE
100
AcDbLine
 10
160.0
 20
40.0
 30
0.0
 11
160.0
 21
2336.0
 31
0.0
  0
LINE
  5
91
330
1F
100
AcDbEntity
  8
THICK_LINE
100
AcDbLine
 10
160.0
 20
520.0
 30
0.0
 11
64.0
 21
520.0
 31
0.0
  0
LINE
  5
92
330
1F
100
AcDbEntity
  8
THICK_LINE
100
AcDbLine
 10
296.0
 20
160.6906645208
 30
0.0
 11
296.0
 21
40.0
 31
0.0
  0
LINE
  5
93
330
1F
100
AcDbEntity
  8
THICK_LINE
100
AcDbLine
 10
160.0
 20
720.0
 30
0.0
 11
64.0
 21
720.0
 31
0.0
  0
LINE
  5
94
330
1F
100
AcDbEntity
  8
THICK_LINE
100
AcDbLine
 10
480.0
 20
40.0
 30
0.0
 11
480.0
 21
160.6906645208
 31
0.0
  0
LINE
  5
95
330
1F
100
AcDbEntity
  8
THICK_LINE
100
AcDbLine
 10
600.0
 20
160.6906645208
 30
0.0
 11
600.0
 21
40.0
 31
0.0
  0
LINE
  5
96
330
1F
100
AcDbEntity
  8
THICK_LINE
100
AcDbLine
 10
160.0
 20
920.0
 30
0.0
 11
64.0
 21
920.0
 31
0.0
  0
LINE
  5
97
330
1F
100
AcDbEntity
  8
THICK_LINE
100
AcDbLine
 10
680.0
 20
160.6906645208
 30
0.0
 11
680.0
 21
40.0
 31
0.0
  0
LINE
  5
98
330
1F
100
AcDbEntity
  8
THICK_LINE
100
AcDbLine
 10
720.0
 20
2336.0
 30
0.0
 11
720.0
 21
2224.0
 31
0.0
  0
LINE
  5
99
330
1F
100
AcDbEntity
  8
THICK_LINE
100
AcDbLine
 10
64.0
 20
1200.0
 30
0.0
 11
160.0
 21
1200.0
 31
0.0
  0
LINE
  5
9A
330
1F
100
AcDbEntity
  8
THICK_LINE
100
AcDbLine
 10
1561.2062895552
 20
160.6906645208
 30
0.0
 11
1561.2062895552
 21
40.379759
 31
0.0
  0
LINE
  5
9B
330
1F
100
AcDbEntity
  8
THICK_LINE
100
AcDbLine
 10
1640.0
 20
2336.0
 30
0.0
 11
1640.0
 21
40.0
 31
0.0
  0
LINE
  5
9C
330
1F
100
AcDbEntity
  8
THICK_LINE
100
AcDbLine
 10
160.0
 20
2224.0
 30
0.0
 11
720.0
 21
2224.0
 31
0.0
  0
LINE
  5
9D
330
1F
100
AcDbEntity
  8
THICK_LINE
100
AcDbLine
 10
160.0
 20
2336.0
 30
0.0
 11
1640.0
 21
2336.0
 31
0.0
  0
INSERT
  5
A5
330
1F
100
AcDbEntity
  8
THICK_LINE
 62
     7
100
AcDbBlockReference
  2
SW_NOTE_0
 10
1134.8535031847
 20
1402.1704167175
 30
0.0
  0
LEADER
  5
A7
330
1F
100
AcDbEntity
  8
THICK_LINE
 62
     7
100
AcDbLeader
  3
SLDDIMSTYLE0
 76
     2
 10
972.6505744836
 20
1292.9426651911
 30
0.0
 10
1134.8535031847
 20
1402.1704167175
 30
0.0
  0
LEADER
  5
A8
330
1F
100
AcDbEntity
  8
THICK_LINE
 62
     7
100
AcDbLeader
  3
SLDDIMSTYLE0
 76
     2
 10
959.1214122913
 20
1334.0046980546
 30
0.0
 10
1134.8535031847
 20
1402.1704167175
 30
0.0
  0
MTEXT
  5
A9
330
1F
100
AcDbEntity
  8
0
  6
Continuous
 62
     7
370
     0
100
AcDbMText
 10
163.6135560209
 20
78.6483028739
 30
0.0
 40
28.0
 41
0.0
 46
0.0
 71
     1
 72
     1
  1
Изм.
  7
SLDTEXTSTYLE0
 73
     1
 44
1.0
  0
MTEXT
  5
AA
330
1F
100
AcDbEntity
  8
0
  6
Continuous
 62
     7
370
     0
100
AcDbMText
 10
224.5997590327
 20
79.755201368
 30
0.0
 40
28.0
 41
0.0
 46
0.0
 71
     1
 72
     1
  1
Лист
  7
SLDTEXTSTYLE0
 73
     1
 44
1.0
  0
INSERT
  5
B6
330
1F
100
AcDbEntity
  8
0
  6
Continuous
 62
     7
370
     0
100
AcDbBlockReference
  2
SW_NOTE_1
 10
327.2514695738
 20
44.4376471274
 30
0.0
  0
MTEXT
  5
B7
330
1F
100
AcDbEntity
  8
0
  6
Continuous
 62
     7
370
     0
100
AcDbMText
 10
494.7583680679
 20
79.755201368
 30
0.0
 40
28.0
 41
0.0
 46
0.0
 71
     1
 72
     1
  1
Подп.
  7
SLDTEXTSTYLE0
 73
     1
 44
1.0
  0
MTEXT
  5
B8
330
1F
100
AcDbEntity
  8
0
  6
Continuous
 62
     7
370
     0
100
AcDbMText
 10
605.2790635503
 20
78.6483028739
 30
0.0
 40
28.0
 41
0.0
 46
0.0
 71
     1
 72
     1
  1
Дата
  7
SLDTEXTSTYLE0
 73
     1
 44
1.0
  0
MTEXT
  5
BA
330
1F
100
AcDbEntity
  8
0
  6
Continuous
 62
     7
370
     0
100
AcDbMText
 10
1563.8530875112
 20
141.2407253515
 30
0.0
 40
20.0
 41
0.0
 46
0.0
 71
     1
 72
     1
  1
Лист
  7
SLDTEXTSTYLE2
 73
     1
 44
1.0
  0
INSERT
  5
C1
330
1F
100
AcDbEntity
  8
0
  6
Continuous
 62
     7
370
     0
100
AcDbBlockReference
  2
SW_NOTE_2
 10
101.9664649237
 20
41.1371399794
 30
0.0
  0
MTEXT
  5
C2
330
1F
100
AcDbEntity
  8
0
  6
Continuous
 62
     7
370
     0
100
AcDbMText
 10
77.2264788026
 20
269.6249031384
 30
0.0
 40
20.0
 41
0.0
 46
0.0
 71
     1
 72
     1
  1
Подп. и дата
  7
SLDTEXTSTYLE2
 11
-3.491481338843133E-15
 21
1.0
 31
0.0
 73
     1
 44
1.0
  0
INSERT
  5
C8
330
1F
100
AcDbEntity
  8
0
  6
Continuous
 62
     7
370
     0
100
AcDbBlockReference
  2
SW_NOTE_3
 10
104.6671002485
 20
523.4559745267
 30
0.0
  0
INSERT
  5
CF
330
1F
100
AcDbEntity
  8
0
  6
Continuous
 62
     7
370
     0
100
AcDbBlockReference
  2
SW_NOTE_4
 10
101.3464047661
 20
724.014583562
 30
0.0
  0
MTEXT
  5
D0
330
1F
100
AcDbEntity
  8
0
  6
Continuous
 62
     7
370
     0
100
AcDbMText
 10
77.2264788026
 20
959.5869895855
 30
0.0
 40
20.0
 41
0.0
 46
0.0
 71
     1
 72
     1
  1
Подп. и дата
  7
SLDTEXTSTYLE2
 11
-3.491481338843133E-15
 21
1.0
 31
0.0
 73
     1
 44
1.0
  0
MTEXT
  5
D1
330
1F
100
AcDbEntity
  8
0
  6
Continuous
 62
     7
370
     0
100
AcDbMText
 10
1236.5255635638
 20
36.0347816939
 30
0.0
 40
28.0
 41
0.0
 46
0.0
 71
     1
 72
     1
  1
Формат А4
  7
SLDTEXTSTYLE0
 73
     1
 44
1.0
  0
MTEXT
  5
D2
330
1F
100
AcDbEntity
  8
0
  6
Continuous
 62
     7
370
     0
100
AcDbMText
 10
829.042648067
 20
37.7595224035
 30
0.0
 40
28.0
 41
0.0
 46
0.0
 71
     1
 72
     1
  1
Копировал
  7
SLDTEXTSTYLE0
 73
     1
 44
1.0
  0
MTEXT
  5
D3
330
1F
100
AcDbEntity
  8
0
  6
Continuous
 62
     7
370
     0
100
AcDbMText
 10
1585.9759735627
 20
95.9366085923
 30
0.0
 40
40.0
 41
0.0
 46
0.0
 71
     1
 72
     1
  1
1
  7
SLDTEXTSTYLE1
 73
     1
 44
1.0
  0
MTEXT
  5
D4
330
1F
100
AcDbEntity
  8
0
  6
Continuous
 62
     7
370
     0
100
AcDbMText
 10
406.655808585
 20
2301.2553227824
 30
0.0
 40
42.3333333333
 41
0.0
 46
0.0
 71
     2
 72
     1
  1
WELTPLAST
  7
SLDTEXTSTYLE1
 73
     1
 44
1.0
  0
MTEXT
  5
D6
330
1F
100
AcDbEntity
  8
THICK_LINE
100
AcDbMText
 10
1611.3141450306
 20
11.0524996546
 30
0.0
 40
8.0
 41
0.0
 46
0.0
 71
     1
 72
     1
  1
TESIS
  7
SLDTEXTSTYLE3
 73
     1
 44
1.0
  0
MTEXT
  5
D7
330
1F
100
AcDbEntity
  8
THICK_LINE
100
AcDbMText
 10
935.8726702083
 20
128.5467490216
 30
0.0
 40
42.3333333333
 41
0.0
 46
0.0
 71
     1
 72
     1
  1
Огонь зоны TLOF
  7
SLDTEXTSTYLE0
 73
     1
 44
1.0
  0
ARC
  5
D8
330
1F
100
AcDbEntity
  8
0
  6
Continuous
 62
     7
370
    25
100
AcDbCircle
 10
982.7883814274
 20
1573.2858192191
 30
0.0
 40
1.000000000000227
100
AcDbArc
 50
0.0
 51
90.0
  0
LINE
  5
D9
330
1F
100
AcDbEntity
  8
0
  6
Continuous
 62
     7
370
    25
100
AcDbLine
 10
983.7883814274
 20
1561.2858192191
 30
0.0
 11
983.7883814274
 21
1573.2858192191
 31
0.0
  0
ARC
  5
DA
330
1F
100
AcDbEntity
  8
0
  6
Continuous
 62
     7
370
    25
100
AcDbCircle
 10
923.0047759453
 20
1575.2858192191
 30
0.0
 40
1.0
100
AcDbArc
 50
270.0
 51
0.0
  0
LINE
  5
DB
330
1F
100
AcDbEntity
  8
0
  6
Continuous
 62
     7
370
    25
100
AcDbLine
 10
1009.0047759453
 20
1576.0216819759
 30
0.0
 11
1009.0047759453
 21
1612.2858192191
 31
0.0
  0
LINE
  5
DC
330
1F
100
AcDbEntity
  8
0
  6
Continuous
 62
     7
370
    25
100
AcDbLine
 10
924.0047759453
 20
1612.2858192191
 30
0.0
 11
924.0047759453
 21
1575.2858192191
 31
0.0
  0
ARC
  5
DD
330
1F
100
AcDbEntity
  8
0
  6
Continuous
 62
     7
370
    25
100
AcDbCircle
 10
926.0047759453
 20
1612.2858192191
 30
0.0
 40
2.000000000000227
100
AcDbArc
 50
90.0
 51
180.0
  0
ARC
  5
DE
330
1F
100
AcDbEntity
  8
0
  6
Continuous
 62
     7
370
    25
100
AcDbCircle
 10
1007.0047759453
 20
1612.2858192191
 30
0.0
 40
2.000000000000227
100
AcDbArc
 50
0.0
 51
90.0
  0
ARC
  5
DF
330
1F
100
AcDbEntity
  8
0
  6
Continuous
 62
     7
370
    25
100
AcDbCircle
 10
924.6424075008
 20
1573.2858192191
 30
0.0
 40
1.000000000000227
100
AcDbArc
 50
90.0
 51
180.0
  0
LINE
  5
E0
330
1F
100
AcDbEntity
  8
0
  6
Continuous
 62
     7
370
    25
100
AcDbLine
 10
923.6424075008
 20
1573.2858192191
 30
0.0
 11
923.6424075008
 21
1561.2858192191
 31
0.0
  0
ARC
  5
E1
330
1F
100
AcDbEntity
  8
0
  6
Continuous
 62
     7
370
    25
100
AcDbCircle
 10
1018.1507498718
 20
1573.2858192191
 30
0.0
 40
1.000000000000227
100
AcDbArc
 50
0.0
 51
90.0
  0
LINE
  5
E2
330
1F
100
AcDbEntity
  8
0
  6
Continuous
 62
     7
370
    25
100
AcDbLine
 10
1019.1507498718
 20
1561.2858192191
 30
0.0
 11
1019.1507498718
 21
1573.2858192191
 31
0.0
  0
ARC
  5
E3
330
1F
100
AcDbEntity
  8
0
  6
Continuous
 62
     7
370
    25
100
AcDbCircle
 10
921.5047759453
 20
1573.2858192191
 30
0.0
 40
1.000000000000227
100
AcDbArc
 50
90.0
 51
180.0
  0
LINE
  5
E4
330
1F
100
AcDbEntity
  8
0
  6
Continuous
 62
     7
370
    25
100
AcDbLine
 10
920.5047759453
 20
1573.2858192191
 30
0.0
 11
920.5047759453
 21
1561.2858192191
 31
0.0
  0
LINE
  5
E5
330
1F
100
AcDbEntity
  8
0
  6
Continuous
 62
     7
370
    25
100
AcDbLine
 10
913.8588020187
 20
1573.2858192191
 30
0.0
 11
913.8588020187
 21
1561.2858192191
 31
0.0
  0
ARC
  5
E6
330
1F
100
AcDbEntity
  8
0
  6
Continuous
 62
     7
370
    25
100
AcDbCircle
 10
914.8588020187
 20
1573.2858192191
 30
0.0
 40
1.000000000000227
100
AcDbArc
 50
90.0
 51
180.0
  0
LINE
  5
E7
330
1F
100
AcDbEntity
  8
0
  6
Continuous
 62
     7
370
    25
100
AcDbLine
 10
935.6903772476
 20
1414.0176238633
 30
0.0
 11
935.6903772476
 21
1412.6176238633
 31
0.0
  0
LINE
  5
E8
330
1F
100
AcDbEntity
  8
0
  6
Continuous
 62
     7
370
    25
100
AcDbLine
 10
937.2903772476
 20
1419.5176238633
 30
0.0
 11
937.2903772476
 21
1414.0176238633
 31
0.0
  0
LINE
  5
E9
330
1F
100
AcDbEntity
  8
0
  6
Continuous
 62
     7
370
    25
100
AcDbLine
 10
976.4739890337
 20
1412.6176238633
 30
0.0
 11
976.4739890337
 21
1414.0176238633
 31
0.0
  0
LINE
  5
EA
330
1F
100
AcDbEntity
  8
0
  6
Continuous
 62
     7
370
    25
100
AcDbLine
 10
974.8739890337
 20
1414.0176238633
 30
0.0
 11
974.8739890337
 21
1419.5176238633
 31
0.0
  0
LINE
  5
EB
330
1F
100
AcDbEntity
  8
0
  6
Continuous
 62
     7
370
    25
100
AcDbLine
 10
997.319174643
 20
1435.1176238633
 30
0.0
 11
997.319174643
 21
1436.5176238633
 31
0.0
  0
LINE
  5
EC
330
1F
100
AcDbEntity
  8
0
  6
Continuous
 62
     7
370
    25
100
AcDbLine
 10
995.719174643
 20
1429.6176238633
 30
0.0
 11
995.719174643
 21
1435.1176238633
 31
0.0
  0
LWPOLYLINE
  5
ED
330
1F
100
AcDbEntity
  8
0
  6
Continuous
 62
     7
370
    25
100
AcDbPolyline
 90
        9
 70
   128
 43
0.0
 10
945.8050173932
 20
1464.785833057
 10
945.8041382684
 20
1464.3877564236
 10
945.658387188
 20
1462.5080799248
 10
945.3228825705
 20
1460.5682218387
 10
944.7761178605
 20
1458.3885515239
 10
943.9550751734
 20
1455.5362105777
 10
943.4073430728
 20
1453.379409326
 10
943.0786931343
 20
1451.3885640227
 10
942.9907499327
 20
1450.00801952
  0
LINE
  5
EE
330
1F
100
AcDbEntity
  8
0
  6
Continuous
 62
     7
370
    25
100
AcDbLine
 10
942.9718867686
 20
1450.0078132506
 30
0.0
 11
942.9718867686
 21
1443.2676238633
 31
0.0
  0
LWPOLYLINE
  5
EF
330
1F
100
AcDbEntity
  8
0
  6
Continuous
 62
     7
370
    25
100
AcDbPolyline
 90
        9
 70
   128
 43
0.0
 10
969.170795211
 20
1450.0078157992
 10
969.0881371586
 20
1451.3652172141
 10
968.7730685417
 20
1453.305059149
 10
968.3128845112
 20
1455.1641017075
 10
967.6381205252
 20
1457.5087682373
 10
966.9651379904
 20
1460.0213854783
 10
966.5706480818
 20
1462.0415725499
 10
966.3786935522
 20
1463.9108088166
 10
966.3690934986
 20
1464.7859523282
  0
LINE
  5
F0
330
1F
100
AcDbEntity
  8
0
  6
Continuous
 62
     7
370
    25
100
AcDbLine
 10
966.3552926809
 20
1464.7858192191
 30
0.0
 11
966.3552926809
 21
1474.7858192191
 31
0.0
  0
LINE
  5
F1
330
1F
100
AcDbEntity
  8
0
  6
Continuous
 62
     7
370
    25
100
AcDbLine
 10
945.8090736004
 20
1474.7858192191
 30
0.0
 11
945.8090736004
 21
1464.7858192191
 31
0.0
  0
LINE
  5
F2
330
1F
100
AcDbEntity
  8
0
  6
Continuous
 62
     7
370
    25
100
AcDbLine
 10
969.1924795126
 20
1441.0176238633
 30
0.0
 11
969.1924795126
 21
1450.0078132506
 31
0.0
  0
LWPOLYLINE
  5
F3
330
1F
100
AcDbEntity
  8
0
  6
Continuous
 62
     7
370
    25
100
AcDbPolyline
 90
        9
 70
   128
 43
0.0
 10
942.9935710703
 20
1399.1274319274
 10
943.0762291227
 20
1397.7700305125
 10
943.3912977396
 20
1395.8301885776
 10
943.8514817701
 20
1393.971146019
 10
944.5262457561
 20
1391.6264794893
 10
945.1992282909
 20
1389.1138622483
 10
945.5937181995
 20
1387.0936751766
 10
945.785672729
 20
1385.22443891
 10
945.7952746791
 20
1384.3491225266
  0
LINE
  5
F4
330
1F
100
AcDbEntity
  8
0
  6
Continuous
 62
     7
370
    25
100
AcDbLine
 10
942.9718867686
 20
1408.1176238633
 30
0.0
 11
942.9718867686
 21
1399.1274344759
 31
0.0
  0
LWPOLYLINE
  5
F5
330
1F
100
AcDbEntity
  8
0
  6
Continuous
 62
     7
370
    25
100
AcDbPolyline
 90
        9
 70
   128
 43
0.0
 10
966.3593488491
 20
1384.3493970349
 10
966.3602280129
 20
1384.747491303
 10
966.5059790933
 20
1386.6271678018
 10
966.8414837108
 20
1388.5670258879
 10
967.3882484208
 20
1390.7466962027
 10
968.2092911079
 20
1393.5990371489
 10
968.7570232085
 20
1395.7558384006
 10
969.085673147
 20
1397.7466837039
 10
969.1736163485
 20
1399.1272282066
  0
LINE
  5
F6
330
1F
100
AcDbEntity
  8
0
  6
Continuous
 62
     7
370
    25
100
AcDbLine
 10
966.3552926809
 20
1374.3494285075
 30
0.0
 11
966.3552926809
 21
1384.3494285075
 31
0.0
  0
LINE
  5
F7
330
1F
100
AcDbEntity
  8
0
  6
Continuous
 62
     7
370
    25
100
AcDbLine
 10
945.8090736004
 20
1384.3494285075
 30
0.0
 11
945.8090736004
 21
1374.3494285075
 31
0.0
  0
LINE
  5
F8
330
1F
100
AcDbEntity
  8
0
  6
Continuous
 62
     7
370
    25
100
AcDbLine
 10
969.1924795126
 20
1399.127434476
 30
0.0
 11
969.1924795126
 21
1408.1176238633
 31
0.0
  0
LWPOLYLINE
  5
F9
330
1F
100
AcDbEntity
  8
0
  6
Continuous
 62
     7
370
    25
100
AcDbPolyline
 90
        3
 70
   128
 43
0.0
 10
966.497732095
 20
1386.5208105187
 10
966.6308583384
 20
1385.22443891
 10
966.6404602884
 20
1384.3491225266
  0
LWPOLYLINE
  5
FA
330
1F
100
AcDbEntity
  8
0
  6
Continuous
 62
     7
370
    25
100
AcDbPolyline
 90
        9
 70
   128
 43
0.0
 10
987.2045344585
 20
1384.3493970349
 10
987.2054136222
 20
1384.747491303
 10
987.3511647026
 20
1386.6271678018
 10
987.6866693202
 20
1388.5670258879
 10
988.2334340301
 20
1390.7466962027
 10
989.0544767172
 20
1393.5990371489
 10
989.6022088178
 20
1395.7558384006
 10
989.9308587563
 20
1397.7466837039
 10
990.0188019579
 20
1399.1272282066
  0
LINE
  5
FB
330
1F
100
AcDbEntity
  8
0
  6
Continuous
 62
     7
370
    25
100
AcDbLine
 10
987.2004782902
 20
1374.3494285075
 30
0.0
 11
987.2004782902
 21
1384.3494285075
 31
0.0
  0
LINE
  5
FC
330
1F
100
AcDbEntity
  8
0
  6
Continuous
 62
     7
370
    25
100
AcDbLine
 10
966.6542592098
 20
1384.3494285075
 30
0.0
 11
966.6542592098
 21
1374.3494285075
 31
0.0
  0
LINE
  5
FD
330
1F
100
AcDbEntity
  8
0
  6
Continuous
 62
     7
370
    25
100
AcDbLine
 10
990.037665122
 20
1399.1274344759
 30
0.0
 11
990.037665122
 21
1408.1176238633
 31
0.0
  0
LWPOLYLINE
  5
FE
330
1F
100
AcDbEntity
  8
0
  6
Continuous
 62
     7
370
    25
100
AcDbPolyline
 90
        3
 70
   128
 43
0.0
 10
966.6502030025
 20
1464.785833057
 10
966.6493238777
 20
1464.3877564236
 10
966.5118197957
 20
1462.6144372079
  0
LWPOLYLINE
  5
FF
330
1F
100
AcDbEntity
  8
0
  6
Continuous
 62
     7
370
    25
100
AcDbPolyline
 90
        9
 70
   128
 43
0.0
 10
990.0159808203
 20
1450.0078157992
 10
989.9333227679
 20
1451.3652172141
 10
989.618254151
 20
1453.305059149
 10
989.1580701205
 20
1455.1641017075
 10
988.4833061345
 20
1457.5087682373
 10
987.8103235997
 20
1460.0213854783
 10
987.4158336911
 20
1462.0415725499
 10
987.2238791616
 20
1463.9108088166
 10
987.2142791079
 20
1464.7859523282
  0
LINE
  5
100
330
1F
100
AcDbEntity
  8
0
  6
Continuous
 62
     7
370
    25
100
AcDbLine
 10
987.2004782902
 20
1464.7858192191
 30
0.0
 11
987.2004782902
 21
1474.7858192191
 31
0.0
  0
LINE
  5
101
330
1F
100
AcDbEntity
  8
0
  6
Continuous
 62
     7
370
    25
100
AcDbLine
 10
966.6542592098
 20
1474.7858192191
 30
0.0
 11
966.6542592098
 21
1464.7858192191
 31
0.0
  0
LINE
  5
102
330
1F
100
AcDbEntity
  8
0
  6
Continuous
 62
     7
370
    25
100
AcDbLine
 10
990.037665122
 20
1441.0176238633
 30
0.0
 11
990.037665122
 21
1450.0078132506
 31
0.0
  0
LWPOLYLINE
  5
103
330
1F
100
AcDbEntity
  8
0
  6
Continuous
 62
     7
370
    25
100
AcDbPolyline
 90
        3
 70
   128
 43
0.0
 10
952.909614915
 20
1443.2368124612
 10
952.2784233014
 20
1443.1664600527
 10
951.6511609637
 20
1442.826794911
  0
LWPOLYLINE
  5
104
330
1F
100
AcDbEntity
  8
0
  6
Continuous
 62
     7
370
    25
100
AcDbPolyline
 90
        3
 70
   128
 43
0.0
 10
951.6480479952
 20
1442.8264580785
 10
951.1629765765
 20
1442.4297648798
 10
949.7726457285
 20
1441.200329708
  0
ARC
  5
105
330
1F
100
AcDbEntity
  8
0
  6
Continuous
 62
     7
370
    25
100
AcDbCircle
 10
950.9661129615
 20
1439.8189759607
 30
0.0
 40
1.807145563123929
100
AcDbArc
 50
130.8000868752
 51
184.0171799605
  0
LINE
  5
106
330
1F
100
AcDbEntity
  8
0
  6
Continuous
 62
     7
370
    25
100
AcDbLine
 10
949.1420199679
 20
1439.6924830028
 30
0.0
 11
949.1420199679
 21
1437.2676238633
 31
0.0
  0
LINE
  5
107
330
1F
100
AcDbEntity
  8
0
  6
Continuous
 62
     7
370
    25
100
AcDbLine
 10
990.9536095227
 20
1408.1176238633
 30
0.0
 11
990.9536095227
 21
1429.6176238633
 31
0.0
  0
LINE
  5
108
330
1F
100
AcDbEntity
  8
0
  6
Continuous
 62
     7
370
    25
100
AcDbLine
 10
942.0559423679
 20
1419.6676238633
 30
0.0
 11
942.0559423679
 21
1419.5176238633
 31
0.0
  0
LINE
  5
109
330
1F
100
AcDbEntity
  8
0
  6
Continuous
 62
     7
370
    25
100
AcDbLine
 10
970.1084239133
 20
1419.5176238633
 30
0.0
 11
970.1084239133
 21
1435.1176238633
 31
0.0
  0
LINE
  5
10A
330
1F
100
AcDbEntity
  8
0
  6
Continuous
 62
     7
370
    25
100
AcDbLine
 10
970.1084239133
 20
1436.5176238633
 30
0.0
 11
970.1084239133
 21
1441.0176238633
 31
0.0
  0
LINE
  5
10B
330
1F
100
AcDbEntity
  8
0
  6
Continuous
 62
     7
370
    25
100
AcDbLine
 10
963.5821831406
 20
1474.7858192191
 30
0.0
 11
963.5821831406
 21
1484.7858192191
 31
0.0
  0
LINE
  5
10C
330
1F
100
AcDbEntity
  8
0
  6
Continuous
 62
     7
370
    25
100
AcDbLine
 10
948.5821831406
 20
1484.7858192191
 30
0.0
 11
948.5821831406
 21
1474.7858192191
 31
0.0
  0
LINE
  5
10D
330
1F
100
AcDbEntity
  8
0
  6
Continuous
 62
     7
370
    25
100
AcDbLine
 10
984.42736875
 20
1474.7858192191
 30
0.0
 11
984.42736875
 21
1484.7858192191
 31
0.0
  0
LINE
  5
10E
330
1F
100
AcDbEntity
  8
0
  6
Continuous
 62
     7
370
    25
100
AcDbLine
 10
969.42736875
 20
1484.7858192191
 30
0.0
 11
969.42736875
 21
1474.7858192191
 31
0.0
  0
LINE
  5
10F
330
1F
100
AcDbEntity
  8
0
  6
Continuous
 62
     7
370
    25
100
AcDbLine
 10
966.8321831406
 20
1494.7858192191
 30
0.0
 11
966.8321831406
 21
1498.2858192191
 31
0.0
  0
LINE
  5
110
330
1F
100
AcDbEntity
  8
0
  6
Continuous
 62
     7
370
    25
100
AcDbLine
 10
945.3321831406
 20
1498.2858192191
 30
0.0
 11
945.3321831406
 21
1494.7858192191
 31
0.0
  0
ARC
  5
111
330
1F
100
AcDbEntity
  8
0
  6
Continuous
 62
     7
370
    25
100
AcDbCircle
 10
962.8321831406
 20
1488.7858192191
 30
0.0
 40
4.0
100
AcDbArc
 50
270.0
 51
0.0
  0
ARC
  5
112
330
1F
100
AcDbEntity
  8
0
  6
Continuous
 62
     7
370
    25
100
AcDbCircle
 10
949.3321831406
 20
1488.7858192191
 30
0.0
 40
4.0
100
AcDbArc
 50
180.0
 51
270.0
  0
LINE
  5
113
330
1F
100
AcDbEntity
  8
0
  6
Continuous
 62
     7
370
    25
100
AcDbLine
 10
966.8321831406
 20
1488.7858192191
 30
0.0
 11
966.8321831406
 21
1491.7858192191
 31
0.0
  0
LINE
  5
114
330
1F
100
AcDbEntity
  8
0
  6
Continuous
 62
     7
370
    25
100
AcDbLine
 10
945.3321831406
 20
1491.7858192191
 30
0.0
 11
945.3321831406
 21
1488.7858192191
 31
0.0
  0
LINE
  5
115
330
1F
100
AcDbEntity
  8
0
  6
Continuous
 62
     7
370
    25
100
AcDbLine
 10
965.9321831406
 20
1498.2858192191
 30
0.0
 11
965.9321831406
 21
1501.7858192191
 31
0.0
  0
LINE
  5
116
330
1F
100
AcDbEntity
  8
0
  6
Continuous
 62
     7
370
    25
100
AcDbLine
 10
946.2321831406
 20
1501.7858192191
 30
0.0
 11
946.2321831406
 21
1498.2858192191
 31
0.0
  0
LINE
  5
117
330
1F
100
AcDbEntity
  8
0
  6
Continuous
 62
     7
370
    25
100
AcDbLine
 10
987.67736875
 20
1494.7858192191
 30
0.0
 11
987.67736875
 21
1498.2858192191
 31
0.0
  0
ARC
  5
118
330
1F
100
AcDbEntity
  8
0
  6
Continuous
 62
     7
370
    25
100
AcDbCircle
 10
983.67736875
 20
1488.7858192191
 30
0.0
 40
4.0
100
AcDbArc
 50
270.0
 51
0.0
  0
ARC
  5
119
330
1F
100
AcDbEntity
  8
0
  6
Continuous
 62
     7
370
    25
100
AcDbCircle
 10
970.17736875
 20
1488.7858192191
 30
0.0
 40
4.0
100
AcDbArc
 50
203.3431544304
 51
270.0
  0
LINE
  5
11A
330
1F
100
AcDbEntity
  8
0
  6
Continuous
 62
     7
370
    25
100
AcDbLine
 10
987.67736875
 20
1488.7858192191
 30
0.0
 11
987.67736875
 21
1491.7858192191
 31
0.0
  0
LINE
  5
11B
330
1F
100
AcDbEntity
  8
0
  6
Continuous
 62
     7
370
    25
100
AcDbLine
 10
986.77736875
 20
1498.2858192191
 30
0.0
 11
986.77736875
 21
1501.7858192191
 31
0.0
  0
LINE
  5
11C
330
1F
100
AcDbEntity
  8
0
  6
Continuous
 62
     7
370
    25
100
AcDbLine
 10
967.07736875
 20
1501.7858192191
 30
0.0
 11
967.07736875
 21
1498.2858192191
 31
0.0
  0
ARC
  5
11D
330
1F
100
AcDbEntity
  8
0
  6
Continuous
 62
     7
370
    25
100
AcDbCircle
 10
921.3588020187
 20
1572.6005444938
 30
0.0
 40
4.324969328314177
100
AcDbArc
 50
116.059831153
 51
151.4762140417
  0
ARC
  5
11E
330
1F
100
AcDbEntity
  8
0
  6
Continuous
 62
     7
370
    25
100
AcDbCircle
 10
921.3588020187
 20
1572.6005444938
 30
0.0
 40
4.32496932831398
100
AcDbArc
 50
52.2809397799
 51
63.940168847
  0
LINE
  5
11F
330
1F
100
AcDbEntity
  8
0
  6
Continuous
 62
     7
370
    25
100
AcDbLine
 10
917.5588020187
 20
1574.6658192191
 30
0.0
 11
917.5588020187
 21
1574.2858192191
 31
0.0
  0
LINE
  5
120
330
1F
100
AcDbEntity
  8
0
  6
Continuous
 62
     7
370
    25
100
AcDbLine
 10
1015.4507498718
 20
1504.4058192191
 30
0.0
 11
1015.4507498718
 21
1504.7858192191
 31
0.0
  0
LINE
  5
121
330
1F
100
AcDbEntity
  8
0
  6
Continuous
 62
     7
370
    25
100
AcDbLine
 10
1007.8507498718
 20
1504.7858192191
 30
0.0
 11
1007.8507498718
 21
1504.4058192191
 31
0.0
  0
ARC
  5
122
330
1F
100
AcDbEntity
  8
0
  6
Continuous
 62
     7
370
    25
100
AcDbCircle
 10
1011.6507498718
 20
1506.4710939444
 30
0.0
 40
4.32496932831418
100
AcDbArc
 50
296.059831153
 51
331.4762140417
  0
ARC
  5
123
330
1F
100
AcDbEntity
  8
0
  6
Continuous
 62
     7
370
    25
100
AcDbCircle
 10
1011.6507498718
 20
1506.4710939444
 30
0.0
 40
4.32496932831418
100
AcDbArc
 50
208.5237859583
 51
243.940168847
  0
LINE
  5
124
330
1F
100
AcDbEntity
  8
0
  6
Continuous
 62
     7
370
    25
100
AcDbLine
 10
980.0883814274
 20
1504.4058192191
 30
0.0
 11
980.0883814274
 21
1504.7858192191
 31
0.0
  0
LINE
  5
125
330
1F
100
AcDbEntity
  8
0
  6
Continuous
 62
     7
370
    25
100
AcDbLine
 10
972.4883814274
 20
1504.7858192191
 30
0.0
 11
972.4883814274
 21
1504.4058192191
 31
0.0
  0
ARC
  5
126
330
1F
100
AcDbEntity
  8
0
  6
Continuous
 62
     7
370
    25
100
AcDbCircle
 10
976.2883814274
 20
1506.4710939444
 30
0.0
 40
4.32496932831418
100
AcDbArc
 50
296.059831153
 51
331.4762140417
  0
ARC
  5
127
330
1F
100
AcDbEntity
  8
0
  6
Continuous
 62
     7
370
    25
100
AcDbCircle
 10
976.2883814274
 20
1506.4710939444
 30
0.0
 40
4.324969328314229
100
AcDbArc
 50
208.5237859583
 51
243.940168847
  0
ARC
  5
128
330
1F
100
AcDbEntity
  8
0
  6
Continuous
 62
     7
370
    25
100
AcDbCircle
 10
976.2883814274
 20
1572.6005444938
 30
0.0
 40
4.324969328313968
100
AcDbArc
 50
116.059831153
 51
151.4762140417
  0
ARC
  5
129
330
1F
100
AcDbEntity
  8
0
  6
Continuous
 62
     7
370
    25
100
AcDbCircle
 10
976.2883814274
 20
1572.6005444938
 30
0.0
 40
4.324969328314068
100
AcDbArc
 50
28.5237859583
 51
63.940168847
  0
LINE
  5
12A
330
1F
100
AcDbEntity
  8
0
  6
Continuous
 62
     7
370
    25
100
AcDbLine
 10
972.4883814274
 20
1574.6658192191
 30
0.0
 11
972.4883814274
 21
1574.2858192191
 31
0.0
  0
LINE
  5
12B
330
1F
100
AcDbEntity
  8
0
  6
Continuous
 62
     7
370
    25
100
AcDbLine
 10
980.0883814274
 20
1574.2858192191
 30
0.0
 11
980.0883814274
 21
1574.6658192191
 31
0.0
  0
ARC
  5
12C
330
1F
100
AcDbEntity
  8
0
  6
Continuous
 62
     7
370
    25
100
AcDbCircle
 10
931.1424075008
 20
1572.6005444938
 30
0.0
 40
4.324969328313975
100
AcDbArc
 50
116.059831153
 51
151.4762140417
  0
ARC
  5
12D
330
1F
100
AcDbEntity
  8
0
  6
Continuous
 62
     7
370
    25
100
AcDbCircle
 10
931.1424075008
 20
1572.6005444938
 30
0.0
 40
4.324969328313975
100
AcDbArc
 50
28.5237859583
 51
63.940168847
  0
LINE
  5
12E
330
1F
100
AcDbEntity
  8
0
  6
Continuous
 62
     7
370
    25
100
AcDbLine
 10
927.3424075008
 20
1574.6658192191
 30
0.0
 11
927.3424075008
 21
1574.2858192191
 31
0.0
  0
LINE
  5
12F
330
1F
100
AcDbEntity
  8
0
  6
Continuous
 62
     7
370
    25
100
AcDbLine
 10
934.9424075008
 20
1574.2858192191
 30
0.0
 11
934.9424075008
 21
1574.6658192191
 31
0.0
  0
ARC
  5
130
330
1F
100
AcDbEntity
  8
0
  6
Continuous
 62
     7
370
    25
100
AcDbCircle
 10
921.3588020188
 20
1506.4710939444
 30
0.0
 40
4.324969328314129
100
AcDbArc
 50
296.059831153
 51
331.4762140417
  0
ARC
  5
131
330
1F
100
AcDbEntity
  8
0
  6
Continuous
 62
     7
370
    25
100
AcDbCircle
 10
921.3588020188
 20
1506.4710939444
 30
0.0
 40
4.324969328314229
100
AcDbArc
 50
208.5237859583
 51
243.940168847
  0
LINE
  5
132
330
1F
100
AcDbEntity
  8
0
  6
Continuous
 62
     7
370
    25
100
AcDbLine
 10
925.1588020188
 20
1504.4058192191
 30
0.0
 11
925.1588020188
 21
1504.7858192191
 31
0.0
  0
LINE
  5
133
330
1F
100
AcDbEntity
  8
0
  6
Continuous
 62
     7
370
    25
100
AcDbLine
 10
917.5588020188
 20
1504.7858192191
 30
0.0
 11
917.5588020188
 21
1504.4058192191
 31
0.0
  0
ARC
  5
134
330
1F
100
AcDbEntity
  8
0
  6
Continuous
 62
     7
370
    25
100
AcDbCircle
 10
1011.6507498718
 20
1572.6005444938
 30
0.0
 40
4.324969328313975
100
AcDbArc
 50
116.059831153
 51
151.4762140417
  0
ARC
  5
135
330
1F
100
AcDbEntity
  8
0
  6
Continuous
 62
     7
370
    25
100
AcDbCircle
 10
1011.6507498718
 20
1572.6005444938
 30
0.0
 40
4.324969328314025
100
AcDbArc
 50
28.5237859583
 51
63.940168847
  0
LINE
  5
136
330
1F
100
AcDbEntity
  8
0
  6
Continuous
 62
     7
370
    25
100
AcDbLine
 10
1007.8507498718
 20
1574.6658192191
 30
0.0
 11
1007.8507498718
 21
1574.2858192191
 31
0.0
  0
LINE
  5
137
330
1F
100
AcDbEntity
  8
0
  6
Continuous
 62
     7
370
    25
100
AcDbLine
 10
1015.4507498718
 20
1574.2858192191
 30
0.0
 11
1015.4507498718
 21
1574.6658192191
 31
0.0
  0
LINE
  5
138
330
1F
100
AcDbEntity
  8
0
  6
Continuous
 62
     7
370
    25
100
AcDbLine
 10
1005.6671443897
 20
1504.4058192191
 30
0.0
 11
1005.6671443897
 21
1504.7858192191
 31
0.0
  0
LINE
  5
139
330
1F
100
AcDbEntity
  8
0
  6
Continuous
 62
     7
370
    25
100
AcDbLine
 10
998.0671443897
 20
1504.7858192191
 30
0.0
 11
998.0671443897
 21
1504.4058192191
 31
0.0
  0
ARC
  5
13A
330
1F
100
AcDbEntity
  8
0
  6
Continuous
 62
     7
370
    25
100
AcDbCircle
 10
1001.8671443897
 20
1506.4710939444
 30
0.0
 40
4.32496932831418
100
AcDbArc
 50
296.059831153
 51
331.4762140417
  0
ARC
  5
13B
330
1F
100
AcDbEntity
  8
0
  6
Continuous
 62
     7
370
    25
100
AcDbCircle
 10
1001.8671443897
 20
1506.4710939444
 30
0.0
 40
4.324969328314229
100
AcDbArc
 50
208.5237859583
 51
243.940168847
  0
ARC
  5
13C
330
1F
100
AcDbEntity
  8
0
  6
Continuous
 62
     7
370
    25
100
AcDbCircle
 10
931.1424075009
 20
1506.4710939444
 30
0.0
 40
4.324969328314285
100
AcDbArc
 50
296.059831153
 51
331.4762140417
  0
ARC
  5
13D
330
1F
100
AcDbEntity
  8
0
  6
Continuous
 62
     7
370
    25
100
AcDbCircle
 10
931.1424075009
 20
1506.4710939444
 30
0.0
 40
4.324969328314185
100
AcDbArc
 50
208.5237859583
 51
243.940168847
  0
LINE
  5
13E
330
1F
100
AcDbEntity
  8
0
  6
Continuous
 62
     7
370
    25
100
AcDbLine
 10
934.9424075009
 20
1504.4058192191
 30
0.0
 11
934.9424075009
 21
1504.7858192191
 31
0.0
  0
LINE
  5
13F
330
1F
100
AcDbEntity
  8
0
  6
Continuous
 62
     7
370
    25
100
AcDbLine
 10
927.3424075009
 20
1504.7858192191
 30
0.0
 11
927.3424075009
 21
1504.4058192191
 31
0.0
  0
LINE
  5
140
330
1F
100
AcDbEntity
  8
0
  6
Continuous
 62
     7
370
    25
100
AcDbLine
 10
980.2883814275
 20
1506.2858192191
 30
0.0
 11
980.2883814275
 21
1507.7858192191
 31
0.0
  0
LINE
  5
141
330
1F
100
AcDbEntity
  8
0
  6
Continuous
 62
     7
370
    25
100
AcDbLine
 10
927.1424075008
 20
1507.7858192191
 30
0.0
 11
927.1424075008
 21
1506.2858192191
 31
0.0
  0
LINE
  5
142
330
1F
100
AcDbEntity
  8
0
  6
Continuous
 62
     7
370
    25
100
AcDbLine
 10
924.0047759453
 20
1507.7858192191
 30
0.0
 11
924.0047759453
 21
1506.2858192191
 31
0.0
  0
LINE
  5
143
330
1F
100
AcDbEntity
  8
0
  6
Continuous
 62
     7
370
    25
100
AcDbLine
 10
1015.6507498719
 20
1506.2858192191
 30
0.0
 11
1015.6507498719
 21
1507.7858192191
 31
0.0
  0
LINE
  5
144
330
1F
100
AcDbEntity
  8
0
  6
Continuous
 62
     7
370
    25
100
AcDbLine
 10
917.3588020187
 20
1507.7858192191
 30
0.0
 11
917.3588020187
 21
1506.2858192191
 31
0.0
  0
LINE
  5
145
330
1F
100
AcDbEntity
  8
0
  6
Continuous
 62
     7
370
    25
100
AcDbLine
 10
980.2883814275
 20
1504.7858192191
 30
0.0
 11
980.2883814275
 21
1506.2858192191
 31
0.0
  0
LINE
  5
146
330
1F
100
AcDbEntity
  8
0
  6
Continuous
 62
     7
370
    25
100
AcDbLine
 10
927.1424075009
 20
1506.2858192191
 30
0.0
 11
927.1424075009
 21
1504.7858192191
 31
0.0
  0
LINE
  5
147
330
1F
100
AcDbEntity
  8
0
  6
Continuous
 62
     7
370
    25
100
AcDbLine
 10
924.0047759454
 20
1506.2858192191
 30
0.0
 11
924.0047759454
 21
1504.7858192191
 31
0.0
  0
LINE
  5
148
330
1F
100
AcDbEntity
  8
0
  6
Continuous
 62
     7
370
    25
100
AcDbLine
 10
1015.6507498719
 20
1504.7858192191
 30
0.0
 11
1015.6507498719
 21
1506.2858192191
 31
0.0
  0
LINE
  5
149
330
1F
100
AcDbEntity
  8
0
  6
Continuous
 62
     7
370
    25
100
AcDbLine
 10
917.3588020188
 20
1506.2858192191
 30
0.0
 11
917.3588020188
 21
1504.7858192191
 31
0.0
  0
LINE
  5
14A
330
1F
100
AcDbEntity
  8
0
  6
Continuous
 62
     7
370
    25
100
AcDbLine
 10
980.2883814274
 20
1507.7858192191
 30
0.0
 11
980.2883814274
 21
1561.2858192191
 31
0.0
  0
LINE
  5
14B
330
1F
100
AcDbEntity
  8
0
  6
Continuous
 62
     7
370
    25
100
AcDbLine
 10
927.1424075008
 20
1561.2858192191
 30
0.0
 11
927.1424075008
 21
1507.7858192191
 31
0.0
  0
LINE
  5
14C
330
1F
100
AcDbEntity
  8
0
  6
Continuous
 62
     7
370
    25
100
AcDbLine
 10
924.0047759453
 20
1561.2858192191
 30
0.0
 11
924.0047759453
 21
1507.7858192191
 31
0.0
  0
LINE
  5
14D
330
1F
100
AcDbEntity
  8
0
  6
Continuous
 62
     7
370
    25
100
AcDbLine
 10
1015.6507498719
 20
1507.7858192191
 30
0.0
 11
1015.6507498719
 21
1561.2858192191
 31
0.0
  0
LINE
  5
14E
330
1F
100
AcDbEntity
  8
0
  6
Continuous
 62
     7
370
    25
100
AcDbLine
 10
917.3588020188
 20
1561.2858192191
 30
0.0
 11
917.3588020188
 21
1507.7858192191
 31
0.0
  0
LINE
  5
14F
330
1F
100
AcDbEntity
  8
0
  6
Continuous
 62
     7
370
    25
100
AcDbLine
 10
896.0100625619
 20
1531.7812765852
 30
0.0
 11
896.0100625619
 21
1537.790361853
 31
0.0
  0
LINE
  5
150
330
1F
100
AcDbEntity
  8
0
  6
Continuous
 62
     7
370
    25
100
AcDbLine
 10
935.5063157969
 20
1444.2858192191
 30
0.0
 11
935.5063157969
 21
1499.2858192191
 31
0.0
  0
LINE
  5
151
330
1F
100
AcDbEntity
  8
0
  6
Continuous
 62
     7
370
    25
100
AcDbLine
 10
895.3063157969
 20
1499.2858192191
 30
0.0
 11
895.3063157969
 21
1444.2858192191
 31
0.0
  0
LINE
  5
152
330
1F
100
AcDbEntity
  8
0
  6
Continuous
 62
     7
370
    25
100
AcDbLine
 10
935.4063157969
 20
1499.2858192191
 30
0.0
 11
935.4063157969
 21
1504.7858192191
 31
0.0
  0
LINE
  5
153
330
1F
100
AcDbEntity
  8
0
  6
Continuous
 62
     7
370
    25
100
AcDbLine
 10
895.4063157969
 20
1574.2858192191
 30
0.0
 11
895.4063157969
 21
1559.7858192191
 31
0.0
  0
LINE
  5
154
330
1F
100
AcDbEntity
  8
0
  6
Continuous
 62
     7
370
    25
100
AcDbLine
 10
895.4063157969
 20
1509.7858192191
 30
0.0
 11
895.4063157969
 21
1499.2858192191
 31
0.0
  0
LINE
  5
155
330
1F
100
AcDbEntity
  8
0
  6
Continuous
 62
     7
370
    25
100
AcDbLine
 10
935.4063157969
 20
1374.2858192191
 30
0.0
 11
935.4063157969
 21
1444.2858192191
 31
0.0
  0
LINE
  5
156
330
1F
100
AcDbEntity
  8
0
  6
Continuous
 62
     7
370
    25
100
AcDbLine
 10
895.4063157969
 20
1444.2858192191
 30
0.0
 11
895.4063157969
 21
1374.2858192191
 31
0.0
  0
LINE
  5
157
330
1F
100
AcDbEntity
  8
0
  6
Continuous
 62
     7
370
    25
100
AcDbLine
 10
900.1063157969
 20
1374.2858192191
 30
0.0
 11
900.1063157969
 21
1364.2858192191
 31
0.0
  0
LINE
  5
158
330
1F
100
AcDbEntity
  8
0
  6
Continuous
 62
     7
370
    25
100
AcDbLine
 10
930.7063157969
 20
1364.2858192191
 30
0.0
 11
930.7063157969
 21
1374.2858192191
 31
0.0
  0
ARC
  5
159
330
1F
100
AcDbEntity
  8
0
  6
Continuous
 62
     7
370
    25
100
AcDbCircle
 10
969.8327017304
 20
1573.2889742176
 30
0.0
 40
0.9968500580371088
100
AcDbArc
 50
90.1824948127
 51
180.1813396109
  0
LINE
  5
15A
330
1F
100
AcDbEntity
  8
0
  6
Continuous
 62
     7
370
    25
100
AcDbLine
 10
969.8295266334
 20
1574.2858192191
 30
0.0
 11
982.7883814274
 21
1574.2858192191
 31
0.0
  0
LINE
  5
15B
330
1F
100
AcDbEntity
  8
0
  6
Continuous
 62
     7
370
    25
100
AcDbLine
 10
968.8358566651
 20
1561.2858192191
 30
0.0
 11
968.8358566651
 21
1573.2858192191
 31
0.0
  0
LINE
  5
15C
330
1F
100
AcDbEntity
  8
0
  6
Continuous
 62
     7
370
    25
100
AcDbLine
 10
983.7883814274
 20
1561.2858192191
 30
0.0
 11
968.8358566651
 21
1561.2858192191
 31
0.0
  0
LINE
  5
15D
330
1F
100
AcDbEntity
  8
0
  6
Continuous
 62
     7
370
    25
100
AcDbLine
 10
926.0047759453
 20
1614.2858192191
 30
0.0
 11
1007.0047759453
 21
1614.2858192191
 31
0.0
  0
LINE
  5
15E
330
1F
100
AcDbEntity
  8
0
  6
Continuous
 62
     7
370
    25
100
AcDbLine
 10
967.3188072147
 20
1573.2858192191
 30
0.0
 11
938.6667952988
 21
1573.2858192191
 31
0.0
  0
LWPOLYLINE
  5
15F
330
1F
100
AcDbEntity
  8
0
  6
Continuous
 62
     7
370
    25
100
AcDbPolyline
 90
        9
 70
   128
 43
0.0
 10
938.6667952988
 20
1573.2858192191
 10
938.6784235378
 20
1573.4809095411
 10
938.712861388
 20
1573.6685026515
 10
938.7687854221
 20
1573.8413894521
 10
938.844046511
 20
1573.9929260003
 10
938.935752413
 20
1574.1172888314
 10
939.0403789219
 20
1574.2096987516
 10
939.1539052997
 20
1574.2666044995
 10
939.2719687912
 20
1574.2858192191
  0
ARC
  5
160
330
1F
100
AcDbEntity
  8
0
  6
Continuous
 62
     7
370
    25
100
AcDbCircle
 10
953.1783135285
 20
1573.5357409291
 30
0.0
 40
14.14270209504626
100
AcDbArc
 50
358.9874491822
 51
3.0401894435
  0
LINE
  5
161
330
1F
100
AcDbEntity
  8
0
  6
Continuous
 62
     7
370
    25
100
AcDbLine
 10
939.2719687912
 20
1574.2858192191
 30
0.0
 11
967.3011108828
 21
1574.2858192191
 31
0.0
  0
LINE
  5
162
330
1F
100
AcDbEntity
  8
0
  6
Continuous
 62
     7
370
    25
100
AcDbLine
 10
938.6667952988
 20
1561.2858192191
 30
0.0
 11
938.6667952988
 21
1573.2858192191
 31
0.0
  0
LINE
  5
163
330
1F
100
AcDbEntity
  8
0
  6
Continuous
 62
     7
370
    25
100
AcDbLine
 10
967.3188072147
 20
1561.2858192191
 30
0.0
 11
967.3188072147
 21
1573.2858192191
 31
0.0
  0
LINE
  5
164
330
1F
100
AcDbEntity
  8
0
  6
Continuous
 62
     7
370
    25
100
AcDbLine
 10
967.3188072147
 20
1561.2858192191
 30
0.0
 11
938.6667952988
 21
1561.2858192191
 31
0.0
  0
LINE
  5
165
330
1F
100
AcDbEntity
  8
0
  6
Continuous
 62
     7
370
    25
100
AcDbLine
 10
968.8358566651
 20
1573.2858192191
 30
0.0
 11
967.3188072147
 21
1573.2858192191
 31
0.0
  0
LINE
  5
166
330
1F
100
AcDbEntity
  8
0
  6
Continuous
 62
     7
370
    25
100
AcDbLine
 10
967.3011108828
 20
1574.2858192191
 30
0.0
 11
969.8295266334
 21
1574.2858192191
 31
0.0
  0
LINE
  5
167
330
1F
100
AcDbEntity
  8
0
  6
Continuous
 62
     7
370
    25
100
AcDbLine
 10
968.8358566651
 20
1561.2858192191
 30
0.0
 11
967.3188072147
 21
1561.2858192191
 31
0.0
  0
LINE
  5
168
330
1F
100
AcDbEntity
  8
0
  6
Continuous
 62
     7
370
    25
100
AcDbLine
 10
984.2999011725
 20
1561.2858192191
 30
0.0
 11
984.2999011725
 21
1573.2858192191
 31
0.0
  0
LINE
  5
169
330
1F
100
AcDbEntity
  8
0
  6
Continuous
 62
     7
370
    25
100
AcDbLine
 10
1006.7427219585
 20
1573.2858192191
 30
0.0
 11
984.2999011725
 21
1573.2858192191
 31
0.0
  0
LINE
  5
16A
330
1F
100
AcDbEntity
  8
0
  6
Continuous
 62
     7
370
    25
100
AcDbLine
 10
1006.7427219585
 20
1561.2858192191
 30
0.0
 11
1006.7427219585
 21
1573.2858192191
 31
0.0
  0
LINE
  5
16B
330
1F
100
AcDbEntity
  8
0
  6
Continuous
 62
     7
370
    25
100
AcDbLine
 10
1006.7427219585
 20
1561.2858192191
 30
0.0
 11
984.2999011725
 21
1561.2858192191
 31
0.0
  0
ARC
  5
16C
330
1F
100
AcDbEntity
  8
0
  6
Continuous
 62
     7
370
    25
100
AcDbCircle
 10
1005.8008686144
 20
1573.3445275958
 30
0.0
 40
0.9436812996183537
100
AcDbArc
 50
356.4332070544
 51
85.9216340947
  0
LWPOLYLINE
  5
16D
330
1F
100
AcDbEntity
  8
0
  6
Continuous
 62
     7
370
    25
100
AcDbPolyline
 90
        9
 70
   128
 43
0.0
 10
983.9130506241
 20
1574.2858192191
 10
983.9885214221
 20
1574.2666044995
 10
984.0610919198
 20
1574.2096987516
 10
984.1279732734
 20
1574.1172888314
 10
984.1865952702
 20
1573.9929260003
 10
984.2347050996
 20
1573.8413894521
 10
984.2704539279
 20
1573.6685026515
 10
984.2924679477
 20
1573.4809095411
 10
984.2999011725
 20
1573.2858192191
  0
LINE
  5
16E
330
1F
100
AcDbEntity
  8
0
  6
Continuous
 62
     7
370
    25
100
AcDbLine
 10
983.9130506241
 20
1574.2858192191
 30
0.0
 11
1005.8679840017
 21
1574.2858192191
 31
0.0
  0
LINE
  5
16F
330
1F
100
AcDbEntity
  8
0
  6
Continuous
 62
     7
370
    25
100
AcDbLine
 10
982.7883814274
 20
1574.2858192191
 30
0.0
 11
983.9130506241
 21
1574.2858192191
 31
0.0
  0
LINE
  5
170
330
1F
100
AcDbEntity
  8
0
  6
Continuous
 62
     7
370
    25
100
AcDbLine
 10
983.7883814274
 20
1561.2858192191
 30
0.0
 11
984.2999011725
 21
1561.2858192191
 31
0.0
  0
ARC
  5
171
330
1F
100
AcDbEntity
  8
0
  6
Continuous
 62
     7
370
    25
100
AcDbCircle
 10
935.7648257828
 20
1573.4006965023
 30
0.0
 40
0.8988095067790627
100
AcDbArc
 50
352.6569128572
 51
79.988313183
  0
LINE
  5
172
330
1F
100
AcDbEntity
  8
0
  6
Continuous
 62
     7
370
    25
100
AcDbLine
 10
924.6424075008
 20
1574.2858192191
 30
0.0
 11
935.9210829605
 21
1574.2858192191
 31
0.0
  0
LINE
  5
173
330
1F
100
AcDbEntity
  8
0
  6
Continuous
 62
     7
370
    25
100
AcDbLine
 10
936.6562638005
 20
1561.2858192191
 30
0.0
 11
936.6562638005
 21
1573.2858192191
 31
0.0
  0
LINE
  5
174
330
1F
100
AcDbEntity
  8
0
  6
Continuous
 62
     7
370
    25
100
AcDbLine
 10
936.6562638005
 20
1561.2858192191
 30
0.0
 11
923.6424075008
 21
1561.2858192191
 31
0.0
  0
LINE
  5
175
330
1F
100
AcDbEntity
  8
0
  6
Continuous
 62
     7
370
    25
100
AcDbLine
 10
938.6667952988
 20
1573.2858192191
 30
0.0
 11
936.6562638005
 21
1573.2858192191
 31
0.0
  0
LINE
  5
176
330
1F
100
AcDbEntity
  8
0
  6
Continuous
 62
     7
370
    25
100
AcDbLine
 10
935.9210829605
 20
1574.2858192191
 30
0.0
 11
939.2719687912
 21
1574.2858192191
 31
0.0
  0
LINE
  5
177
330
1F
100
AcDbEntity
  8
0
  6
Continuous
 62
     7
370
    25
100
AcDbLine
 10
936.6562638005
 20
1561.2858192191
 30
0.0
 11
938.6667952988
 21
1561.2858192191
 31
0.0
  0
LWPOLYLINE
  5
178
330
1F
100
AcDbEntity
  8
0
  6
Continuous
 62
     7
370
    25
100
AcDbPolyline
 90
        9
 70
   128
 43
0.0
 10
1009.053695832
 20
1574.2858192191
 10
1008.975748123
 20
1574.2666044995
 10
1008.9007959007
 20
1574.2096987516
 10
1008.831719537
 20
1574.1172888314
 10
1008.7711735978
 20
1573.9929260003
 10
1008.7214848297
 20
1573.8413894521
 10
1008.684562744
 20
1573.6685026515
 10
1008.661826236
 20
1573.4809095411
 10
1008.6541490567
 20
1573.2858192191
  0
LINE
  5
179
330
1F
100
AcDbEntity
  8
0
  6
Continuous
 62
     7
370
    25
100
AcDbLine
 10
1009.053695832
 20
1574.2858192191
 30
0.0
 11
1018.1507498718
 21
1574.2858192191
 31
0.0
  0
LINE
  5
17A
330
1F
100
AcDbEntity
  8
0
  6
Continuous
 62
     7
370
    25
100
AcDbLine
 10
1008.6541490567
 20
1561.2858192191
 30
0.0
 11
1008.6541490567
 21
1573.2858192191
 31
0.0
  0
LINE
  5
17B
330
1F
100
AcDbEntity
  8
0
  6
Continuous
 62
     7
370
    25
100
AcDbLine
 10
1019.1507498718
 20
1561.2858192191
 30
0.0
 11
1008.6541490567
 21
1561.2858192191
 31
0.0
  0
LINE
  5
17C
330
1F
100
AcDbEntity
  8
0
  6
Continuous
 62
     7
370
    25
100
AcDbLine
 10
921.5047759453
 20
1574.2858192191
 30
0.0
 11
924.6424075008
 21
1574.2858192191
 31
0.0
  0
LINE
  5
17D
330
1F
100
AcDbEntity
  8
0
  6
Continuous
 62
     7
370
    25
100
AcDbLine
 10
923.6424075008
 20
1561.2858192191
 30
0.0
 11
920.5047759453
 21
1561.2858192191
 31
0.0
  0
LINE
  5
17E
330
1F
100
AcDbEntity
  8
0
  6
Continuous
 62
     7
370
    25
100
AcDbLine
 10
1008.6541490567
 20
1573.2858192191
 30
0.0
 11
1006.7427219585
 21
1573.2858192191
 31
0.0
  0
LINE
  5
17F
330
1F
100
AcDbEntity
  8
0
  6
Continuous
 62
     7
370
    25
100
AcDbLine
 10
1005.8679840017
 20
1574.2858192191
 30
0.0
 11
1009.053695832
 21
1574.2858192191
 31
0.0
  0
LINE
  5
180
330
1F
100
AcDbEntity
  8
0
  6
Continuous
 62
     7
370
    25
100
AcDbLine
 10
1008.6541490567
 20
1561.2858192191
 30
0.0
 11
1006.7427219585
 21
1561.2858192191
 31
0.0
  0
ARC
  5
181
330
1F
100
AcDbEntity
  8
0
  6
Continuous
 62
     7
370
    25
100
AcDbCircle
 10
921.0165696148
 20
1573.5237782047
 30
0.0
 40
1.325279181074868
100
AcDbArc
 50
144.9000779507
 51
190.3437741937
  0
LINE
  5
182
330
1F
100
AcDbEntity
  8
0
  6
Continuous
 62
     7
370
    25
100
AcDbLine
 10
919.9322917906
 20
1574.2858192191
 30
0.0
 11
921.5047759453
 21
1574.2858192191
 31
0.0
  0
LINE
  5
183
330
1F
100
AcDbEntity
  8
0
  6
Continuous
 62
     7
370
    25
100
AcDbLine
 10
919.7128286786
 20
1561.2858192191
 30
0.0
 11
919.7128286786
 21
1573.2858192191
 31
0.0
  0
LINE
  5
184
330
1F
100
AcDbEntity
  8
0
  6
Continuous
 62
     7
370
    25
100
AcDbLine
 10
919.7128286786
 20
1561.2858192191
 30
0.0
 11
920.5047759453
 21
1561.2858192191
 31
0.0
  0
LINE
  5
185
330
1F
100
AcDbEntity
  8
0
  6
Continuous
 62
     7
370
    25
100
AcDbLine
 10
919.7128286786
 20
1561.2858192191
 30
0.0
 11
913.8588020187
 21
1561.2858192191
 31
0.0
  0
LINE
  5
186
330
1F
100
AcDbEntity
  8
0
  6
Continuous
 62
     7
370
    25
100
AcDbLine
 10
914.8588020187
 20
1574.2858192191
 30
0.0
 11
919.9322917906
 21
1574.2858192191
 31
0.0
  0
LINE
  5
187
330
1F
100
AcDbEntity
  8
0
  6
Continuous
 62
     7
370
    25
100
AcDbLine
 10
956.5547227779
 20
1412.6176238633
 30
0.0
 11
950.2973998945
 21
1412.6176238633
 31
0.0
  0
LINE
  5
188
330
1F
100
AcDbEntity
  8
0
  6
Continuous
 62
     7
370
    25
100
AcDbLine
 10
950.2973998945
 20
1412.6176238633
 30
0.0
 11
950.2973998945
 21
1414.0176238633
 31
0.0
  0
LINE
  5
189
330
1F
100
AcDbEntity
  8
0
  6
Continuous
 62
     7
370
    25
100
AcDbLine
 10
959.631164504
 20
1413.1176238633
 30
0.0
 11
959.631164504
 21
1414.0176238633
 31
0.0
  0
LWPOLYLINE
  5
18A
330
1F
100
AcDbEntity
  8
0
  6
Continuous
 62
     7
370
    25
100
AcDbPolyline
 90
        3
 70
   128
 43
0.0
 10
959.2059134617
 20
1412.6176238633
 10
959.622463418
 20
1413.1069564791
 10
959.631164504
 20
1413.1176238633
  0
LINE
  5
18B
330
1F
100
AcDbEntity
  8
0
  6
Continuous
 62
     7
370
    25
100
AcDbLine
 10
959.2059134617
 20
1412.6176238633
 30
0.0
 11
956.5547227779
 21
1412.6176238633
 31
0.0
  0
LINE
  5
18C
330
1F
100
AcDbEntity
  8
0
  6
Continuous
 62
     7
370
    25
100
AcDbLine
 10
959.631164504
 20
1414.0176238633
 30
0.0
 11
950.2973998945
 21
1414.0176238633
 31
0.0
  0
LINE
  5
18D
330
1F
100
AcDbEntity
  8
0
  6
Continuous
 62
     7
370
    25
100
AcDbLine
 10
958.5033084223
 20
1414.0176238633
 30
0.0
 11
958.5033084223
 21
1419.5176238633
 31
0.0
  0
LINE
  5
18E
330
1F
100
AcDbEntity
  8
0
  6
Continuous
 62
     7
370
    25
100
AcDbLine
 10
951.4322746272
 20
1414.0176238633
 30
0.0
 11
951.4322746272
 21
1419.5176238633
 31
0.0
  0
LINE
  5
18F
330
1F
100
AcDbEntity
  8
0
  6
Continuous
 62
     7
370
    25
100
AcDbLine
 10
958.5033084223
 20
1419.5176238633
 30
0.0
 11
951.4322746272
 21
1419.5176238633
 31
0.0
  0
LWPOLYLINE
  5
190
330
1F
100
AcDbEntity
  8
0
  6
Continuous
 62
     7
370
    25
100
AcDbPolyline
 90
        9
 70
   128
 43
0.0
 10
957.2640194858
 20
1412.6176238633
 10
957.1405051617
 20
1411.7166546511
 10
956.9029784023
 20
1410.8628951628
 10
956.5594433612
 20
1410.0851153024
 10
956.1214764486
 20
1409.4095246197
 10
955.6038362309
 20
1408.8588891039
 10
955.0239660976
 20
1408.4517640166
 10
954.4014064561
 20
1408.2018686195
 10
953.7571362603
 20
1408.1176238633
  0
LINE
  5
191
330
1F
100
AcDbEntity
  8
0
  6
Continuous
 62
     7
370
    25
100
AcDbLine
 10
953.7571362603
 20
1408.1176238633
 30
0.0
 11
953.0478395523
 21
1408.1176238633
 31
0.0
  0
LWPOLYLINE
  5
192
330
1F
100
AcDbEntity
  8
0
  6
Continuous
 62
     7
370
    25
100
AcDbPolyline
 90
        9
 70
   128
 43
0.0
 10
953.0478395523
 20
1408.1176238633
 10
953.6921097481
 20
1408.2018686195
 10
954.3146693897
 20
1408.4517640166
 10
954.8945395229
 20
1408.8588891039
 10
955.4121797406
 20
1409.4095246197
 10
955.8501466532
 20
1410.0851153024
 10
956.1936816944
 20
1410.8628951628
 10
956.4312084538
 20
1411.7166546511
 10
956.5547227779
 20
1412.6176238633
  0
LINE
  5
193
330
1F
100
AcDbEntity
  8
0
  6
Continuous
 62
     7
370
    25
100
AcDbLine
 10
946.5754139258
 20
1408.1176238633
 30
0.0
 11
946.5754139258
 21
1412.6176238633
 31
0.0
  0
LINE
  5
194
330
1F
100
AcDbEntity
  8
0
  6
Continuous
 62
     7
370
    25
100
AcDbLine
 10
946.5754139258
 20
1408.1176238633
 30
0.0
 11
953.0478395523
 21
1408.1176238633
 31
0.0
  0
LINE
  5
195
330
1F
100
AcDbEntity
  8
0
  6
Continuous
 62
     7
370
    25
100
AcDbLine
 10
974.9163123534
 20
1412.6176238633
 30
0.0
 11
974.0831503162
 21
1412.6176238633
 31
0.0
  0
LWPOLYLINE
  5
196
330
1F
100
AcDbEntity
  8
0
  6
Continuous
 62
     7
370
    25
100
AcDbPolyline
 90
        9
 70
   128
 43
0.0
 10
974.0831503162
 20
1412.6176238633
 10
973.9596359921
 20
1411.7166546511
 10
973.7221092327
 20
1410.8628951628
 10
973.3785741916
 20
1410.0851153024
 10
972.940607279
 20
1409.4095246197
 10
972.4229670613
 20
1408.8588891039
 10
971.843096928
 20
1408.4517640166
 10
971.2205372864
 20
1408.2018686195
 10
970.5762670906
 20
1408.1176238633
  0
LINE
  5
197
330
1F
100
AcDbEntity
  8
0
  6
Continuous
 62
     7
370
    25
100
AcDbLine
 10
970.5762670906
 20
1408.1176238633
 30
0.0
 11
969.8669703827
 21
1408.1176238633
 31
0.0
  0
LWPOLYLINE
  5
198
330
1F
100
AcDbEntity
  8
0
  6
Continuous
 62
     7
370
    25
100
AcDbPolyline
 90
        9
 70
   128
 43
0.0
 10
969.8669703827
 20
1408.1176238633
 10
970.5112405785
 20
1408.2018686195
 10
971.1338002201
 20
1408.4517640166
 10
971.7136703533
 20
1408.8588891039
 10
972.231310571
 20
1409.4095246197
 10
972.6692774836
 20
1410.0851153024
 10
973.0128125248
 20
1410.8628951628
 10
973.2503392842
 20
1411.7166546511
 10
973.3738536082
 20
1412.6176238633
  0
LINE
  5
199
330
1F
100
AcDbEntity
  8
0
  6
Continuous
 62
     7
370
    25
100
AcDbLine
 10
973.3738536082
 20
1412.6176238633
 30
0.0
 11
970.7494557889
 21
1412.6176238633
 31
0.0
  0
LWPOLYLINE
  5
19A
330
1F
100
AcDbEntity
  8
0
  6
Continuous
 62
     7
370
    25
100
AcDbPolyline
 90
        9
 70
   128
 43
0.0
 10
970.7494557889
 20
1412.6176238633
 10
970.6259414648
 20
1411.7166546511
 10
970.3884147054
 20
1410.8628951628
 10
970.0448796642
 20
1410.0851153024
 10
969.6069127516
 20
1409.4095246197
 10
969.0892725339
 20
1408.8588891039
 10
968.5094024007
 20
1408.4517640166
 10
967.8868427591
 20
1408.2018686195
 10
967.2425725633
 20
1408.1176238633
  0
LINE
  5
19B
330
1F
100
AcDbEntity
  8
0
  6
Continuous
 62
     7
370
    25
100
AcDbLine
 10
967.2425725633
 20
1408.1176238633
 30
0.0
 11
966.5332758554
 21
1408.1176238633
 31
0.0
  0
LWPOLYLINE
  5
19C
330
1F
100
AcDbEntity
  8
0
  6
Continuous
 62
     7
370
    25
100
AcDbPolyline
 90
        9
 70
   128
 43
0.0
 10
966.5332758554
 20
1408.1176238633
 10
967.1775460512
 20
1408.2018686195
 10
967.8001056928
 20
1408.4517640166
 10
968.379975826
 20
1408.8588891039
 10
968.8976160437
 20
1409.4095246197
 10
969.3355829563
 20
1410.0851153024
 10
969.6791179974
 20
1410.8628951628
 10
969.9166447568
 20
1411.7166546511
 10
970.0401590809
 20
1412.6176238633
  0
LINE
  5
19D
330
1F
100
AcDbEntity
  8
0
  6
Continuous
 62
     7
370
    25
100
AcDbLine
 10
970.0401590809
 20
1412.6176238633
 30
0.0
 11
967.4157612615
 21
1412.6176238633
 31
0.0
  0
LWPOLYLINE
  5
19E
330
1F
100
AcDbEntity
  8
0
  6
Continuous
 62
     7
370
    25
100
AcDbPolyline
 90
        9
 70
   128
 43
0.0
 10
967.4157612615
 20
1412.6176238633
 10
967.2922469375
 20
1411.7166546511
 10
967.0547201781
 20
1410.8628951628
 10
966.7111851369
 20
1410.0851153024
 10
966.2732182243
 20
1409.4095246197
 10
965.7555780066
 20
1408.8588891039
 10
965.1757078734
 20
1408.4517640166
 10
964.5531482318
 20
1408.2018686195
 10
963.908878036
 20
1408.1176238633
  0
LINE
  5
19F
330
1F
100
AcDbEntity
  8
0
  6
Continuous
 62
     7
370
    25
100
AcDbLine
 10
963.908878036
 20
1408.1176238633
 30
0.0
 11
963.1995813281
 21
1408.1176238633
 31
0.0
  0
LWPOLYLINE
  5
1A0
330
1F
100
AcDbEntity
  8
0
  6
Continuous
 62
     7
370
    25
100
AcDbPolyline
 90
        9
 70
   128
 43
0.0
 10
963.1995813281
 20
1408.1176238633
 10
963.8438515239
 20
1408.2018686195
 10
964.4664111654
 20
1408.4517640166
 10
965.0462812987
 20
1408.8588891039
 10
965.5639215164
 20
1409.4095246197
 10
966.001888429
 20
1410.0851153024
 10
966.3454234701
 20
1410.8628951628
 10
966.5829502295
 20
1411.7166546511
 10
966.7064645536
 20
1412.6176238633
  0
LINE
  5
1A1
330
1F
100
AcDbEntity
  8
0
  6
Continuous
 62
     7
370
    25
100
AcDbLine
 10
966.7064645536
 20
1412.6176238633
 30
0.0
 11
964.0820667342
 21
1412.6176238633
 31
0.0
  0
LWPOLYLINE
  5
1A2
330
1F
100
AcDbEntity
  8
0
  6
Continuous
 62
     7
370
    25
100
AcDbPolyline
 90
        9
 70
   128
 43
0.0
 10
964.0820667342
 20
1412.6176238633
 10
963.9585524101
 20
1411.7166546511
 10
963.7210256507
 20
1410.8628951628
 10
963.3774906096
 20
1410.0851153024
 10
962.939523697
 20
1409.4095246197
 10
962.4218834793
 20
1408.8588891039
 10
961.8420133461
 20
1408.4517640166
 10
961.2194537045
 20
1408.2018686195
 10
960.5751835087
 20
1408.1176238633
  0
LINE
  5
1A3
330
1F
100
AcDbEntity
  8
0
  6
Continuous
 62
     7
370
    25
100
AcDbLine
 10
960.5751835087
 20
1408.1176238633
 30
0.0
 11
959.8658868007
 21
1408.1176238633
 31
0.0
  0
LWPOLYLINE
  5
1A4
330
1F
100
AcDbEntity
  8
0
  6
Continuous
 62
     7
370
    25
100
AcDbPolyline
 90
        9
 70
   128
 43
0.0
 10
959.8658868007
 20
1408.1176238633
 10
960.5101569965
 20
1408.2018686195
 10
961.1327166381
 20
1408.4517640166
 10
961.7125867714
 20
1408.8588891039
 10
962.2302269891
 20
1409.4095246197
 10
962.6681939017
 20
1410.0851153024
 10
963.0117289428
 20
1410.8628951628
 10
963.2492557022
 20
1411.7166546511
 10
963.3727700263
 20
1412.6176238633
  0
LINE
  5
1A5
330
1F
100
AcDbEntity
  8
0
  6
Continuous
 62
     7
370
    25
100
AcDbLine
 10
963.3727700263
 20
1412.6176238633
 30
0.0
 11
960.7483722069
 21
1412.6176238633
 31
0.0
  0
LWPOLYLINE
  5
1A6
330
1F
100
AcDbEntity
  8
0
  6
Continuous
 62
     7
370
    25
100
AcDbPolyline
 90
        9
 70
   128
 43
0.0
 10
960.7483722069
 20
1412.6176238633
 10
960.6248578828
 20
1411.7166546511
 10
960.3873311234
 20
1410.8628951628
 10
960.0437960823
 20
1410.0851153024
 10
959.6058291697
 20
1409.4095246197
 10
959.088188952
 20
1408.8588891039
 10
958.5083188187
 20
1408.4517640166
 10
957.8857591772
 20
1408.2018686195
 10
957.2414889814
 20
1408.1176238633
  0
LWPOLYLINE
  5
1A7
330
1F
100
AcDbEntity
  8
0
  6
Continuous
 62
     7
370
    25
100
AcDbPolyline
 90
        9
 70
   128
 43
0.0
 10
956.5321922734
 20
1408.1176238633
 10
957.1764624692
 20
1408.2018686195
 10
957.7990221108
 20
1408.4517640166
 10
958.378892244
 20
1408.8588891039
 10
958.8965324617
 20
1409.4095246197
 10
959.3344993743
 20
1410.0851153024
 10
959.6780344155
 20
1410.8628951628
 10
959.9155611749
 20
1411.7166546511
 10
960.039075499
 20
1412.6176238633
  0
LINE
  5
1A8
330
1F
100
AcDbEntity
  8
0
  6
Continuous
 62
     7
370
    25
100
AcDbLine
 10
959.631164504
 20
1413.1176238633
 30
0.0
 11
974.5263953708
 21
1413.1176238633
 31
0.0
  0
LWPOLYLINE
  5
1A9
330
1F
100
AcDbEntity
  8
0
  6
Continuous
 62
     7
370
    25
100
AcDbPolyline
 90
        3
 70
   128
 43
0.0
 10
974.5263953708
 20
1413.1176238633
 10
974.535080414
 20
1413.1069564791
 10
974.9163123534
 20
1412.6176238633
  0
LINE
  5
1AA
330
1F
100
AcDbEntity
  8
0
  6
Continuous
 62
     7
370
    25
100
AcDbLine
 10
957.2414889814
 20
1408.1176238633
 30
0.0
 11
956.5321922734
 21
1408.1176238633
 31
0.0
  0
LINE
  5
1AB
330
1F
100
AcDbEntity
  8
0
  6
Continuous
 62
     7
370
    25
100
AcDbLine
 10
960.039075499
 20
1412.6176238633
 30
0.0
 11
959.2059134617
 21
1412.6176238633
 31
0.0
  0
LINE
  5
1AC
330
1F
100
AcDbEntity
  8
0
  6
Continuous
 62
     7
370
    25
100
AcDbLine
 10
974.5263953708
 20
1413.1176238633
 30
0.0
 11
974.5263953708
 21
1414.0176238633
 31
0.0
  0
LINE
  5
1AD
330
1F
100
AcDbEntity
  8
0
  6
Continuous
 62
     7
370
    25
100
AcDbLine
 10
974.5263953708
 20
1414.0176238633
 30
0.0
 11
959.631164504
 21
1414.0176238633
 31
0.0
  0
LINE
  5
1AE
330
1F
100
AcDbEntity
  8
0
  6
Continuous
 62
     7
370
    25
100
AcDbLine
 10
944.3056644604
 20
1408.1176238633
 30
0.0
 11
944.3056644604
 21
1412.6176238633
 31
0.0
  0
LINE
  5
1AF
330
1F
100
AcDbEntity
  8
0
  6
Continuous
 62
     7
370
    25
100
AcDbLine
 10
943.6007544093
 20
1408.1176238633
 30
0.0
 11
943.6007544093
 21
1412.6176238633
 31
0.0
  0
LINE
  5
1B0
330
1F
100
AcDbEntity
  8
0
  6
Continuous
 62
     7
370
    25
100
AcDbLine
 10
943.6007544093
 20
1412.6176238633
 30
0.0
 11
937.6090189752
 21
1412.6176238633
 31
0.0
  0
LINE
  5
1B1
330
1F
100
AcDbEntity
  8
0
  6
Continuous
 62
     7
370
    25
100
AcDbLine
 10
937.6090189752
 20
1412.6176238633
 30
0.0
 11
937.6090189752
 21
1414.0176238633
 31
0.0
  0
LINE
  5
1B2
330
1F
100
AcDbEntity
  8
0
  6
Continuous
 62
     7
370
    25
100
AcDbLine
 10
944.3056644604
 20
1408.1176238633
 30
0.0
 11
943.6007544093
 21
1408.1176238633
 31
0.0
  0
LINE
  5
1B3
330
1F
100
AcDbEntity
  8
0
  6
Continuous
 62
     7
370
    25
100
AcDbLine
 10
950.2973998945
 20
1412.6176238633
 30
0.0
 11
944.3056644604
 21
1412.6176238633
 31
0.0
  0
LINE
  5
1B4
330
1F
100
AcDbEntity
  8
0
  6
Continuous
 62
     7
370
    25
100
AcDbLine
 10
950.2973998945
 20
1414.0176238633
 30
0.0
 11
937.6090189752
 21
1414.0176238633
 31
0.0
  0
LINE
  5
1B5
330
1F
100
AcDbEntity
  8
0
  6
Continuous
 62
     7
370
    25
100
AcDbLine
 10
954.5932489953
 20
1408.1176238633
 30
0.0
 11
956.5321922734
 21
1408.1176238633
 31
0.0
  0
LINE
  5
1B6
330
1F
100
AcDbEntity
  8
0
  6
Continuous
 62
     7
370
    25
100
AcDbLine
 10
973.398539289
 20
1414.0176238633
 30
0.0
 11
973.398539289
 21
1419.5176238633
 31
0.0
  0
LINE
  5
1B7
330
1F
100
AcDbEntity
  8
0
  6
Continuous
 62
     7
370
    25
100
AcDbLine
 10
973.398539289
 20
1419.5176238633
 30
0.0
 11
958.5033084223
 21
1419.5176238633
 31
0.0
  0
LINE
  5
1B8
330
1F
100
AcDbEntity
  8
0
  6
Continuous
 62
     7
370
    25
100
AcDbLine
 10
938.7438937079
 20
1414.0176238633
 30
0.0
 11
938.7438937079
 21
1419.5176238633
 31
0.0
  0
LINE
  5
1B9
330
1F
100
AcDbEntity
  8
0
  6
Continuous
 62
     7
370
    25
100
AcDbLine
 10
951.4322746272
 20
1419.5176238633
 30
0.0
 11
938.7438937079
 21
1419.5176238633
 31
0.0
  0
LINE
  5
1BA
330
1F
100
AcDbEntity
  8
0
  6
Continuous
 62
     7
370
    25
100
AcDbLine
 10
957.1044549623
 20
1423.1176238633
 30
0.0
 11
957.1044549623
 21
1421.5176238633
 31
0.0
  0
LINE
  5
1BB
330
1F
100
AcDbEntity
  8
0
  6
Continuous
 62
     7
370
    25
100
AcDbLine
 10
955.8208383192
 20
1423.1176238633
 30
0.0
 11
957.1044549623
 21
1423.1176238633
 31
0.0
  0
LINE
  5
1BC
330
1F
100
AcDbEntity
  8
0
  6
Continuous
 62
     7
370
    25
100
AcDbLine
 10
957.1044549623
 20
1421.5176238633
 30
0.0
 11
957.1044549623
 21
1419.5176238633
 31
0.0
  0
LINE
  5
1BD
330
1F
100
AcDbEntity
  8
0
  6
Continuous
 62
     7
370
    25
100
AcDbLine
 10
957.9273841603
 20
1408.1176238633
 30
0.0
 11
959.8658868007
 21
1408.1176238633
 31
0.0
  0
LINE
  5
1BE
330
1F
100
AcDbEntity
  8
0
  6
Continuous
 62
     7
370
    25
100
AcDbLine
 10
970.2157290007
 20
1429.5176238633
 30
0.0
 11
970.1084239133
 21
1429.5176238633
 31
0.0
  0
LINE
  5
1BF
330
1F
100
AcDbEntity
  8
0
  6
Continuous
 62
     7
370
    25
100
AcDbLine
 10
970.1084239133
 20
1428.5176238633
 30
0.0
 11
970.2157290007
 21
1428.5176238633
 31
0.0
  0
LINE
  5
1C0
330
1F
100
AcDbEntity
  8
0
  6
Continuous
 62
     7
370
    25
100
AcDbLine
 10
944.3056644604
 20
1408.1176238633
 30
0.0
 11
946.5754139258
 21
1408.1176238633
 31
0.0
  0
LINE
  5
1C1
330
1F
100
AcDbEntity
  8
0
  6
Continuous
 62
     7
370
    25
100
AcDbLine
 10
960.296290148
 20
1424.1176238633
 30
0.0
 11
960.296290148
 21
1423.1176238633
 31
0.0
  0
LINE
  5
1C2
330
1F
100
AcDbEntity
  8
0
  6
Continuous
 62
     7
370
    25
100
AcDbLine
 10
967.0346088735
 20
1424.1176238633
 30
0.0
 11
960.296290148
 21
1424.1176238633
 31
0.0
  0
LINE
  5
1C3
330
1F
100
AcDbEntity
  8
0
  6
Continuous
 62
     7
370
    25
100
AcDbLine
 10
967.0346088735
 20
1423.1176238633
 30
0.0
 11
967.0346088735
 21
1424.1176238633
 31
0.0
  0
LINE
  5
1C4
330
1F
100
AcDbEntity
  8
0
  6
Continuous
 62
     7
370
    25
100
AcDbLine
 10
969.4462176805
 20
1419.5176238633
 30
0.0
 11
969.4462176805
 21
1423.1176238633
 31
0.0
  0
LINE
  5
1C5
330
1F
100
AcDbEntity
  8
0
  6
Continuous
 62
     7
370
    25
100
AcDbLine
 10
969.4462176805
 20
1423.1176238633
 30
0.0
 11
967.0346088735
 21
1423.1176238633
 31
0.0
  0
LINE
  5
1C6
330
1F
100
AcDbEntity
  8
0
  6
Continuous
 62
     7
370
    25
100
AcDbLine
 10
960.296290148
 20
1423.1176238633
 30
0.0
 11
957.1044549623
 21
1423.1176238633
 31
0.0
  0
LINE
  5
1C7
330
1F
100
AcDbEntity
  8
0
  6
Continuous
 62
     7
370
    25
100
AcDbLine
 10
961.2610786876
 20
1408.1176238633
 30
0.0
 11
963.1995813281
 21
1408.1176238633
 31
0.0
  0
LWPOLYLINE
  5
1C8
330
1F
100
AcDbEntity
  8
0
  6
Continuous
 62
     7
370
    25
100
AcDbPolyline
 90
        9
 70
   128
 43
0.0
 10
935.8911950227
 20
1412.6176238633
 10
936.0147093467
 20
1411.7166546511
 10
936.2522361061
 20
1410.8628951628
 10
936.5957711473
 20
1410.0851153024
 10
937.0337380599
 20
1409.4095246197
 10
937.5513782776
 20
1408.8588891039
 10
938.1312484108
 20
1408.4517640166
 10
938.7538080524
 20
1408.2018686195
 10
939.3980782482
 20
1408.1176238633
  0
LINE
  5
1C9
330
1F
100
AcDbEntity
  8
0
  6
Continuous
 62
     7
370
    25
100
AcDbLine
 10
939.3980782482
 20
1408.1176238633
 30
0.0
 11
943.6007544093
 21
1408.1176238633
 31
0.0
  0
LINE
  5
1CA
330
1F
100
AcDbEntity
  8
0
  6
Continuous
 62
     7
370
    25
100
AcDbLine
 10
960.1200626353
 20
1424.1176238633
 30
0.0
 11
960.296290148
 21
1424.1176238633
 31
0.0
  0
LINE
  5
1CB
330
1F
100
AcDbEntity
  8
0
  6
Continuous
 62
     7
370
    25
100
AcDbLine
 10
964.5947732149
 20
1408.1176238633
 30
0.0
 11
966.5332758554
 21
1408.1176238633
 31
0.0
  0
LINE
  5
1CC
330
1F
100
AcDbEntity
  8
0
  6
Continuous
 62
     7
370
    25
100
AcDbLine
 10
937.6090189752
 20
1412.6176238633
 30
0.0
 11
935.6903772476
 21
1412.6176238633
 31
0.0
  0
LINE
  5
1CD
330
1F
100
AcDbEntity
  8
0
  6
Continuous
 62
     7
370
    25
100
AcDbLine
 10
937.6090189752
 20
1414.0176238633
 30
0.0
 11
935.6903772476
 21
1414.0176238633
 31
0.0
  0
LINE
  5
1CE
330
1F
100
AcDbEntity
  8
0
  6
Continuous
 62
     7
370
    25
100
AcDbLine
 10
967.9284677422
 20
1408.1176238633
 30
0.0
 11
969.8669703827
 21
1408.1176238633
 31
0.0
  0
LINE
  5
1CF
330
1F
100
AcDbEntity
  8
0
  6
Continuous
 62
     7
370
    25
100
AcDbLine
 10
938.7438937079
 20
1419.5176238633
 30
0.0
 11
937.2903772476
 21
1419.5176238633
 31
0.0
  0
LINE
  5
1D0
330
1F
100
AcDbEntity
  8
0
  6
Continuous
 62
     7
370
    25
100
AcDbLine
 10
976.4739890337
 20
1412.6176238633
 30
0.0
 11
976.2731712586
 21
1412.6176238633
 31
0.0
  0
LINE
  5
1D1
330
1F
100
AcDbEntity
  8
0
  6
Continuous
 62
     7
370
    25
100
AcDbLine
 10
976.2731712586
 20
1412.6176238633
 30
0.0
 11
974.9163123534
 21
1412.6176238633
 31
0.0
  0
LINE
  5
1D2
330
1F
100
AcDbEntity
  8
0
  6
Continuous
 62
     7
370
    25
100
AcDbLine
 10
976.4739890337
 20
1414.0176238633
 30
0.0
 11
974.5263953708
 21
1414.0176238633
 31
0.0
  0
LINE
  5
1D3
330
1F
100
AcDbEntity
  8
0
  6
Continuous
 62
     7
370
    25
100
AcDbLine
 10
974.8739890337
 20
1419.5176238633
 30
0.0
 11
973.398539289
 21
1419.5176238633
 31
0.0
  0
LWPOLYLINE
  5
1D4
330
1F
100
AcDbEntity
  8
0
  6
Continuous
 62
     7
370
    25
100
AcDbPolyline
 90
        9
 70
   128
 43
0.0
 10
976.2731712586
 20
1412.6176238633
 10
976.1496569345
 20
1411.7166546511
 10
975.9121301751
 20
1410.8628951628
 10
975.568595134
 20
1410.0851153024
 10
975.1306282214
 20
1409.4095246197
 10
974.6129880037
 20
1408.8588891039
 10
974.0331178704
 20
1408.4517640166
 10
973.4105582289
 20
1408.2018686195
 10
972.7662880331
 20
1408.1176238633
  0
LWPOLYLINE
  5
1D5
330
1F
100
AcDbEntity
  8
0
  6
Continuous
 62
     7
370
    25
100
AcDbPolyline
 90
        9
 70
   128
 43
0.0
 10
972.0569913251
 20
1408.1176238633
 10
972.7012615209
 20
1408.2018686195
 10
973.3238211625
 20
1408.4517640166
 10
973.9036912958
 20
1408.8588891039
 10
974.4213315135
 20
1409.4095246197
 10
974.859298426
 20
1410.0851153024
 10
975.2028334672
 20
1410.8628951628
 10
975.4403602266
 20
1411.7166546511
 10
975.5638745507
 20
1412.6176238633
  0
LINE
  5
1D6
330
1F
100
AcDbEntity
  8
0
  6
Continuous
 62
     7
370
    25
100
AcDbLine
 10
972.7662880331
 20
1408.1176238633
 30
0.0
 11
972.0569913251
 21
1408.1176238633
 31
0.0
  0
LINE
  5
1D7
330
1F
100
AcDbEntity
  8
0
  6
Continuous
 62
     7
370
    25
100
AcDbLine
 10
970.5762670906
 20
1408.1176238633
 30
0.0
 11
972.0569913251
 21
1408.1176238633
 31
0.0
  0
LINE
  5
1D8
330
1F
100
AcDbEntity
  8
0
  6
Continuous
 62
     7
370
    25
100
AcDbLine
 10
970.2417973583
 20
1419.5176238633
 30
0.0
 11
970.2417973583
 21
1419.6176238633
 31
0.0
  0
LINE
  5
1D9
330
1F
100
AcDbEntity
  8
0
  6
Continuous
 62
     7
370
    25
100
AcDbLine
 10
970.2417973583
 20
1420.6176238633
 30
0.0
 11
970.2417973583
 21
1423.1176238633
 31
0.0
  0
LINE
  5
1DA
330
1F
100
AcDbEntity
  8
0
  6
Continuous
 62
     7
370
    25
100
AcDbLine
 10
970.2417973583
 20
1423.1176238633
 30
0.0
 11
970.1084239133
 21
1423.1176238633
 31
0.0
  0
LINE
  5
1DB
330
1F
100
AcDbEntity
  8
0
  6
Continuous
 62
     7
370
    25
100
AcDbLine
 10
971.1425855039
 20
1435.1176238633
 30
0.0
 11
980.4763501134
 21
1435.1176238633
 31
0.0
  0
LINE
  5
1DC
330
1F
100
AcDbEntity
  8
0
  6
Continuous
 62
     7
370
    25
100
AcDbLine
 10
971.1425855039
 20
1436.5176238633
 30
0.0
 11
971.1425855039
 21
1435.1176238633
 31
0.0
  0
LINE
  5
1DD
330
1F
100
AcDbEntity
  8
0
  6
Continuous
 62
     7
370
    25
100
AcDbLine
 10
971.1425855039
 20
1436.5176238633
 30
0.0
 11
977.3999083872
 21
1436.5176238633
 31
0.0
  0
LINE
  5
1DE
330
1F
100
AcDbEntity
  8
0
  6
Continuous
 62
     7
370
    25
100
AcDbLine
 10
977.3999083872
 20
1436.5176238633
 30
0.0
 11
980.0510990711
 21
1436.5176238633
 31
0.0
  0
LWPOLYLINE
  5
1DF
330
1F
100
AcDbEntity
  8
0
  6
Continuous
 62
     7
370
    25
100
AcDbPolyline
 90
        3
 70
   128
 43
0.0
 10
980.4763501134
 20
1436.0176238633
 10
980.4676490274
 20
1436.0282912475
 10
980.0510990711
 20
1436.5176238633
  0
LINE
  5
1E0
330
1F
100
AcDbEntity
  8
0
  6
Continuous
 62
     7
370
    25
100
AcDbLine
 10
980.4763501134
 20
1436.0176238633
 30
0.0
 11
980.4763501134
 21
1435.1176238633
 31
0.0
  0
LINE
  5
1E1
330
1F
100
AcDbEntity
  8
0
  6
Continuous
 62
     7
370
    25
100
AcDbLine
 10
972.2774602366
 20
1435.1176238633
 30
0.0
 11
972.2774602366
 21
1429.6176238633
 31
0.0
  0
LINE
  5
1E2
330
1F
100
AcDbEntity
  8
0
  6
Continuous
 62
     7
370
    25
100
AcDbLine
 10
979.3484940316
 20
1435.1176238633
 30
0.0
 11
979.3484940316
 21
1429.6176238633
 31
0.0
  0
LINE
  5
1E3
330
1F
100
AcDbEntity
  8
0
  6
Continuous
 62
     7
370
    25
100
AcDbLine
 10
972.2774602366
 20
1429.6176238633
 30
0.0
 11
979.3484940316
 21
1429.6176238633
 31
0.0
  0
LINE
  5
1E4
330
1F
100
AcDbEntity
  8
0
  6
Continuous
 62
     7
370
    25
100
AcDbLine
 10
970.1084239133
 20
1441.0176238633
 30
0.0
 11
973.8930251617
 21
1441.0176238633
 31
0.0
  0
LWPOLYLINE
  5
1E5
330
1F
100
AcDbEntity
  8
0
  6
Continuous
 62
     7
370
    25
100
AcDbPolyline
 90
        9
 70
   128
 43
0.0
 10
977.3999083872
 20
1436.5176238633
 10
977.2763940631
 20
1437.4185930755
 10
977.0388673037
 20
1438.2723525638
 10
976.6953322626
 20
1439.0501324242
 10
976.25736535
 20
1439.7257231068
 10
975.7397251323
 20
1440.2763586227
 10
975.159854999
 20
1440.68348371
 10
974.5372953575
 20
1440.9333791071
 10
973.8930251617
 20
1441.0176238633
  0
LINE
  5
1E6
330
1F
100
AcDbEntity
  8
0
  6
Continuous
 62
     7
370
    25
100
AcDbLine
 10
973.8930251617
 20
1441.0176238633
 30
0.0
 11
974.6023218696
 21
1441.0176238633
 31
0.0
  0
LWPOLYLINE
  5
1E7
330
1F
100
AcDbEntity
  8
0
  6
Continuous
 62
     7
370
    25
100
AcDbPolyline
 90
        9
 70
   128
 43
0.0
 10
974.6023218696
 20
1441.0176238633
 10
975.2465920654
 20
1440.9333791071
 10
975.869151707
 20
1440.68348371
 10
976.4490218402
 20
1440.2763586227
 10
976.9666620579
 20
1439.7257231068
 10
977.4046289705
 20
1439.0501324242
 10
977.7481640117
 20
1438.2723525638
 10
977.9856907711
 20
1437.4185930755
 10
978.1092050951
 20
1436.5176238633
  0
LWPOLYLINE
  5
1E8
330
1F
100
AcDbEntity
  8
0
  6
Continuous
 62
     7
370
    25
100
AcDbPolyline
 90
        9
 70
   128
 43
0.0
 10
980.8842611083
 20
1436.5176238633
 10
980.7607467842
 20
1437.4185930755
 10
980.5232200248
 20
1438.2723525638
 10
980.1796849837
 20
1439.0501324242
 10
979.7417180711
 20
1439.7257231068
 10
979.2240778534
 20
1440.2763586227
 10
978.6442077201
 20
1440.68348371
 10
978.0216480786
 20
1440.9333791071
 10
977.3773778828
 20
1441.0176238633
  0
LWPOLYLINE
  5
1E9
330
1F
100
AcDbEntity
  8
0
  6
Continuous
 62
     7
370
    25
100
AcDbPolyline
 90
        9
 70
   128
 43
0.0
 10
978.0866745907
 20
1441.0176238633
 10
978.7309447865
 20
1440.9333791071
 10
979.3535044281
 20
1440.68348371
 10
979.9333745613
 20
1440.2763586227
 10
980.451014779
 20
1439.7257231068
 10
980.8889816916
 20
1439.0501324242
 10
981.2325167328
 20
1438.2723525638
 10
981.4700434922
 20
1437.4185930755
 10
981.5935578162
 20
1436.5176238633
  0
LINE
  5
1EA
330
1F
100
AcDbEntity
  8
0
  6
Continuous
 62
     7
370
    25
100
AcDbLine
 10
981.5935578162
 20
1436.5176238633
 30
0.0
 11
984.2179556356
 21
1436.5176238633
 31
0.0
  0
LWPOLYLINE
  5
1EB
330
1F
100
AcDbEntity
  8
0
  6
Continuous
 62
     7
370
    25
100
AcDbPolyline
 90
        9
 70
   128
 43
0.0
 10
984.2179556356
 20
1436.5176238633
 10
984.0944413115
 20
1437.4185930755
 10
983.8569145521
 20
1438.2723525638
 10
983.513379511
 20
1439.0501324242
 10
983.0754125984
 20
1439.7257231068
 10
982.5577723807
 20
1440.2763586227
 10
981.9779022475
 20
1440.68348371
 10
981.3553426059
 20
1440.9333791071
 10
980.7110724101
 20
1441.0176238633
  0
LINE
  5
1EC
330
1F
100
AcDbEntity
  8
0
  6
Continuous
 62
     7
370
    25
100
AcDbLine
 10
980.7110724101
 20
1441.0176238633
 30
0.0
 11
981.420369118
 21
1441.0176238633
 31
0.0
  0
LWPOLYLINE
  5
1ED
330
1F
100
AcDbEntity
  8
0
  6
Continuous
 62
     7
370
    25
100
AcDbPolyline
 90
        9
 70
   128
 43
0.0
 10
981.420369118
 20
1441.0176238633
 10
982.0646393138
 20
1440.9333791071
 10
982.6871989554
 20
1440.68348371
 10
983.2670690886
 20
1440.2763586227
 10
983.7847093064
 20
1439.7257231068
 10
984.2226762189
 20
1439.0501324242
 10
984.5662112601
 20
1438.2723525638
 10
984.8037380195
 20
1437.4185930755
 10
984.9272523436
 20
1436.5176238633
  0
LINE
  5
1EE
330
1F
100
AcDbEntity
  8
0
  6
Continuous
 62
     7
370
    25
100
AcDbLine
 10
984.9272523436
 20
1436.5176238633
 30
0.0
 11
987.5516501629
 21
1436.5176238633
 31
0.0
  0
LWPOLYLINE
  5
1EF
330
1F
100
AcDbEntity
  8
0
  6
Continuous
 62
     7
370
    25
100
AcDbPolyline
 90
        9
 70
   128
 43
0.0
 10
987.5516501629
 20
1436.5176238633
 10
987.4281358389
 20
1437.4185930755
 10
987.1906090795
 20
1438.2723525638
 10
986.8470740383
 20
1439.0501324242
 10
986.4091071257
 20
1439.7257231068
 10
985.891466908
 20
1440.2763586227
 10
985.3115967748
 20
1440.68348371
 10
984.6890371332
 20
1440.9333791071
 10
984.0447669374
 20
1441.0176238633
  0
LINE
  5
1F0
330
1F
100
AcDbEntity
  8
0
  6
Continuous
 62
     7
370
    25
100
AcDbLine
 10
984.0447669374
 20
1441.0176238633
 30
0.0
 11
984.7540636453
 21
1441.0176238633
 31
0.0
  0
LWPOLYLINE
  5
1F1
330
1F
100
AcDbEntity
  8
0
  6
Continuous
 62
     7
370
    25
100
AcDbPolyline
 90
        9
 70
   128
 43
0.0
 10
984.7540636453
 20
1441.0176238633
 10
985.3983338411
 20
1440.9333791071
 10
986.0208934827
 20
1440.68348371
 10
986.600763616
 20
1440.2763586227
 10
987.1184038337
 20
1439.7257231068
 10
987.5563707463
 20
1439.0501324242
 10
987.8999057874
 20
1438.2723525638
 10
988.1374325468
 20
1437.4185930755
 10
988.2609468709
 20
1436.5176238633
  0
LINE
  5
1F2
330
1F
100
AcDbEntity
  8
0
  6
Continuous
 62
     7
370
    25
100
AcDbLine
 10
988.2609468709
 20
1436.5176238633
 30
0.0
 11
990.8853446903
 21
1436.5176238633
 31
0.0
  0
LWPOLYLINE
  5
1F3
330
1F
100
AcDbEntity
  8
0
  6
Continuous
 62
     7
370
    25
100
AcDbPolyline
 90
        9
 70
   128
 43
0.0
 10
990.8853446903
 20
1436.5176238633
 10
990.7618303662
 20
1437.4185930755
 10
990.5243036068
 20
1438.2723525638
 10
990.1807685656
 20
1439.0501324242
 10
989.7428016531
 20
1439.7257231068
 10
989.2251614353
 20
1440.2763586227
 10
988.6452913021
 20
1440.68348371
 10
988.0227316605
 20
1440.9333791071
 10
987.3784614647
 20
1441.0176238633
  0
LINE
  5
1F4
330
1F
100
AcDbEntity
  8
0
  6
Continuous
 62
     7
370
    25
100
AcDbLine
 10
987.3784614647
 20
1441.0176238633
 30
0.0
 11
988.0877581727
 21
1441.0176238633
 31
0.0
  0
LWPOLYLINE
  5
1F5
330
1F
100
AcDbEntity
  8
0
  6
Continuous
 62
     7
370
    25
100
AcDbPolyline
 90
        9
 70
   128
 43
0.0
 10
988.0877581727
 20
1441.0176238633
 10
988.7320283685
 20
1440.9333791071
 10
989.35458801
 20
1440.68348371
 10
989.9344581433
 20
1440.2763586227
 10
990.452098361
 20
1439.7257231068
 10
990.8900652736
 20
1439.0501324242
 10
991.2336003147
 20
1438.2723525638
 10
991.4711270741
 20
1437.4185930755
 10
991.5946413982
 20
1436.5176238633
  0
LINE
  5
1F6
330
1F
100
AcDbEntity
  8
0
  6
Continuous
 62
     7
370
    25
100
AcDbLine
 10
991.5946413982
 20
1436.5176238633
 30
0.0
 11
994.2190392176
 21
1436.5176238633
 31
0.0
  0
LWPOLYLINE
  5
1F7
330
1F
100
AcDbEntity
  8
0
  6
Continuous
 62
     7
370
    25
100
AcDbPolyline
 90
        9
 70
   128
 43
0.0
 10
994.2190392176
 20
1436.5176238633
 10
994.0955248935
 20
1437.4185930755
 10
993.8579981341
 20
1438.2723525638
 10
993.514463093
 20
1439.0501324242
 10
993.0764961804
 20
1439.7257231068
 10
992.5588559627
 20
1440.2763586227
 10
991.9789858294
 20
1440.68348371
 10
991.3564261878
 20
1440.9333791071
 10
990.712155992
 20
1441.0176238633
  0
LINE
  5
1F8
330
1F
100
AcDbEntity
  8
0
  6
Continuous
 62
     7
370
    25
100
AcDbLine
 10
990.712155992
 20
1441.0176238633
 30
0.0
 11
991.4214527
 21
1441.0176238633
 31
0.0
  0
LWPOLYLINE
  5
1F9
330
1F
100
AcDbEntity
  8
0
  6
Continuous
 62
     7
370
    25
100
AcDbPolyline
 90
        9
 70
   128
 43
0.0
 10
991.4214527
 20
1441.0176238633
 10
992.0657228958
 20
1440.9333791071
 10
992.6882825374
 20
1440.68348371
 10
993.2681526706
 20
1440.2763586227
 10
993.7857928883
 20
1439.7257231068
 10
994.2237598009
 20
1439.0501324242
 10
994.567294842
 20
1438.2723525638
 10
994.8048216014
 20
1437.4185930755
 10
994.9283359255
 20
1436.5176238633
  0
LINE
  5
1FA
330
1F
100
AcDbEntity
  8
0
  6
Continuous
 62
     7
370
    25
100
AcDbLine
 10
994.9283359255
 20
1436.5176238633
 30
0.0
 11
995.7614979627
 21
1436.5176238633
 31
0.0
  0
LWPOLYLINE
  5
1FB
330
1F
100
AcDbEntity
  8
0
  6
Continuous
 62
     7
370
    25
100
AcDbPolyline
 90
        3
 70
   128
 43
0.0
 10
995.7614979627
 20
1436.5176238633
 10
995.3802660233
 20
1436.0282912475
 10
995.3715809801
 20
1436.0176238633
  0
LINE
  5
1FC
330
1F
100
AcDbEntity
  8
0
  6
Continuous
 62
     7
370
    25
100
AcDbLine
 10
995.3715809801
 20
1436.0176238633
 30
0.0
 11
980.4763501134
 21
1436.0176238633
 31
0.0
  0
LINE
  5
1FD
330
1F
100
AcDbEntity
  8
0
  6
Continuous
 62
     7
370
    25
100
AcDbLine
 10
977.3773778828
 20
1441.0176238633
 30
0.0
 11
978.0866745907
 21
1441.0176238633
 31
0.0
  0
LINE
  5
1FE
330
1F
100
AcDbEntity
  8
0
  6
Continuous
 62
     7
370
    25
100
AcDbLine
 10
980.0510990711
 20
1436.5176238633
 30
0.0
 11
980.8842611083
 21
1436.5176238633
 31
0.0
  0
LINE
  5
1FF
330
1F
100
AcDbEntity
  8
0
  6
Continuous
 62
     7
370
    25
100
AcDbLine
 10
995.3715809801
 20
1436.0176238633
 30
0.0
 11
995.3715809801
 21
1435.1176238633
 31
0.0
  0
LINE
  5
200
330
1F
100
AcDbEntity
  8
0
  6
Continuous
 62
     7
370
    25
100
AcDbLine
 10
980.4763501134
 20
1435.1176238633
 30
0.0
 11
995.3715809801
 21
1435.1176238633
 31
0.0
  0
LINE
  5
201
330
1F
100
AcDbEntity
  8
0
  6
Continuous
 62
     7
370
    25
100
AcDbLine
 10
970.0692755097
 20
1436.5176238633
 30
0.0
 11
971.1425855039
 21
1436.5176238633
 31
0.0
  0
LINE
  5
202
330
1F
100
AcDbEntity
  8
0
  6
Continuous
 62
     7
370
    25
100
AcDbLine
 10
970.0692755097
 20
1435.1176238633
 30
0.0
 11
971.1425855039
 21
1435.1176238633
 31
0.0
  0
LINE
  5
203
330
1F
100
AcDbEntity
  8
0
  6
Continuous
 62
     7
370
    25
100
AcDbLine
 10
975.4384346047
 20
1441.0176238633
 30
0.0
 11
977.3773778828
 21
1441.0176238633
 31
0.0
  0
LINE
  5
204
330
1F
100
AcDbEntity
  8
0
  6
Continuous
 62
     7
370
    25
100
AcDbLine
 10
994.2437248984
 20
1435.1176238633
 30
0.0
 11
994.2437248984
 21
1429.6176238633
 31
0.0
  0
LINE
  5
205
330
1F
100
AcDbEntity
  8
0
  6
Continuous
 62
     7
370
    25
100
AcDbLine
 10
979.3484940316
 20
1429.6176238633
 30
0.0
 11
994.2437248984
 21
1429.6176238633
 31
0.0
  0
LINE
  5
206
330
1F
100
AcDbEntity
  8
0
  6
Continuous
 62
     7
370
    25
100
AcDbLine
 10
970.1084239133
 20
1429.6176238633
 30
0.0
 11
972.2774602366
 21
1429.6176238633
 31
0.0
  0
LINE
  5
207
330
1F
100
AcDbEntity
  8
0
  6
Continuous
 62
     7
370
    25
100
AcDbLine
 10
978.7725697696
 20
1441.0176238633
 30
0.0
 11
980.7110724101
 21
1441.0176238633
 31
0.0
  0
LINE
  5
208
330
1F
100
AcDbEntity
  8
0
  6
Continuous
 62
     7
370
    25
100
AcDbLine
 10
971.2266751453
 20
1429.6176238633
 30
0.0
 11
971.2266751453
 21
1426.0176238633
 31
0.0
  0
LINE
  5
209
330
1F
100
AcDbEntity
  8
0
  6
Continuous
 62
     7
370
    25
100
AcDbLine
 10
971.2266751453
 20
1426.0176238633
 30
0.0
 11
970.1084239133
 21
1426.0176238633
 31
0.0
  0
LINE
  5
20A
330
1F
100
AcDbEntity
  8
0
  6
Continuous
 62
     7
370
    25
100
AcDbLine
 10
971.2266751453
 20
1426.0176238633
 30
0.0
 11
972.8225927381
 21
1426.0176238633
 31
0.0
  0
LINE
  5
20B
330
1F
100
AcDbEntity
  8
0
  6
Continuous
 62
     7
370
    25
100
AcDbLine
 10
970.2157290007
 20
1419.6176238633
 30
0.0
 11
971.2266751453
 21
1419.6176238633
 31
0.0
  0
LINE
  5
20C
330
1F
100
AcDbEntity
  8
0
  6
Continuous
 62
     7
370
    25
100
AcDbLine
 10
971.2266751453
 20
1420.6176238633
 30
0.0
 11
970.2157290007
 21
1420.6176238633
 31
0.0
  0
LINE
  5
20D
330
1F
100
AcDbEntity
  8
0
  6
Continuous
 62
     7
370
    25
100
AcDbLine
 10
971.2266751453
 20
1420.6176238633
 30
0.0
 11
971.2266751453
 21
1419.6176238633
 31
0.0
  0
LINE
  5
20E
330
1F
100
AcDbEntity
  8
0
  6
Continuous
 62
     7
370
    25
100
AcDbLine
 10
971.9359718532
 20
1423.4176238633
 30
0.0
 11
972.8225927381
 21
1423.4176238633
 31
0.0
  0
LINE
  5
20F
330
1F
100
AcDbEntity
  8
0
  6
Continuous
 62
     7
370
    25
100
AcDbLine
 10
971.2266751453
 20
1419.6176238633
 30
0.0
 11
972.8225927381
 21
1419.6176238633
 31
0.0
  0
LINE
  5
210
330
1F
100
AcDbEntity
  8
0
  6
Continuous
 62
     7
370
    25
100
AcDbLine
 10
971.9359718532
 20
1420.6176238633
 30
0.0
 11
971.2266751453
 21
1420.6176238633
 31
0.0
  0
LINE
  5
211
330
1F
100
AcDbEntity
  8
0
  6
Continuous
 62
     7
370
    25
100
AcDbLine
 10
971.9359718532
 20
1423.4176238633
 30
0.0
 11
971.9359718532
 21
1420.6176238633
 31
0.0
  0
LINE
  5
212
330
1F
100
AcDbEntity
  8
0
  6
Continuous
 62
     7
370
    25
100
AcDbLine
 10
970.3851697408
 20
1423.4176238633
 30
0.0
 11
970.3851697408
 21
1426.0176238633
 31
0.0
  0
LINE
  5
213
330
1F
100
AcDbEntity
  8
0
  6
Continuous
 62
     7
370
    25
100
AcDbLine
 10
971.9359718532
 20
1423.4176238633
 30
0.0
 11
970.3851697408
 21
1423.4176238633
 31
0.0
  0
LINE
  5
214
330
1F
100
AcDbEntity
  8
0
  6
Continuous
 62
     7
370
    25
100
AcDbLine
 10
989.2983878987
 20
1427.6176238633
 30
0.0
 11
989.2983878987
 21
1429.6176238633
 31
0.0
  0
LINE
  5
215
330
1F
100
AcDbEntity
  8
0
  6
Continuous
 62
     7
370
    25
100
AcDbLine
 10
989.2983878987
 20
1426.0176238633
 30
0.0
 11
989.2983878987
 21
1427.6176238633
 31
0.0
  0
LINE
  5
216
330
1F
100
AcDbEntity
  8
0
  6
Continuous
 62
     7
370
    25
100
AcDbLine
 10
986.106552713
 20
1425.0176238633
 30
0.0
 11
986.106552713
 21
1426.0176238633
 31
0.0
  0
LINE
  5
217
330
1F
100
AcDbEntity
  8
0
  6
Continuous
 62
     7
370
    25
100
AcDbLine
 10
979.3682339875
 20
1425.0176238633
 30
0.0
 11
986.106552713
 21
1425.0176238633
 31
0.0
  0
LINE
  5
218
330
1F
100
AcDbEntity
  8
0
  6
Continuous
 62
     7
370
    25
100
AcDbLine
 10
979.3682339875
 20
1426.0176238633
 30
0.0
 11
979.3682339875
 21
1425.0176238633
 31
0.0
  0
LINE
  5
219
330
1F
100
AcDbEntity
  8
0
  6
Continuous
 62
     7
370
    25
100
AcDbLine
 10
976.9566251805
 20
1429.6176238633
 30
0.0
 11
976.9566251805
 21
1426.0176238633
 31
0.0
  0
LINE
  5
21A
330
1F
100
AcDbEntity
  8
0
  6
Continuous
 62
     7
370
    25
100
AcDbLine
 10
976.9566251805
 20
1426.0176238633
 30
0.0
 11
979.3682339875
 21
1426.0176238633
 31
0.0
  0
LINE
  5
21B
330
1F
100
AcDbEntity
  8
0
  6
Continuous
 62
     7
370
    25
100
AcDbLine
 10
986.106552713
 20
1426.0176238633
 30
0.0
 11
989.2983878987
 21
1426.0176238633
 31
0.0
  0
LINE
  5
21C
330
1F
100
AcDbEntity
  8
0
  6
Continuous
 62
     7
370
    25
100
AcDbLine
 10
976.7803976678
 20
1426.0176238633
 30
0.0
 11
976.9566251805
 21
1426.0176238633
 31
0.0
  0
LINE
  5
21D
330
1F
100
AcDbEntity
  8
0
  6
Continuous
 62
     7
370
    25
100
AcDbLine
 10
982.1062642969
 20
1441.0176238633
 30
0.0
 11
984.0447669374
 21
1441.0176238633
 31
0.0
  0
LINE
  5
21E
330
1F
100
AcDbEntity
  8
0
  6
Continuous
 62
     7
370
    25
100
AcDbLine
 10
979.1920064748
 20
1425.0176238633
 30
0.0
 11
979.3682339875
 21
1425.0176238633
 31
0.0
  0
LINE
  5
21F
330
1F
100
AcDbEntity
  8
0
  6
Continuous
 62
     7
370
    25
100
AcDbLine
 10
985.4399588243
 20
1441.0176238633
 30
0.0
 11
987.3784614647
 21
1441.0176238633
 31
0.0
  0
LINE
  5
220
330
1F
100
AcDbEntity
  8
0
  6
Continuous
 62
     7
370
    25
100
AcDbLine
 10
988.7736533516
 20
1441.0176238633
 30
0.0
 11
990.712155992
 21
1441.0176238633
 31
0.0
  0
LINE
  5
221
330
1F
100
AcDbEntity
  8
0
  6
Continuous
 62
     7
370
    25
100
AcDbLine
 10
997.1183568679
 20
1436.5176238633
 30
0.0
 11
997.319174643
 21
1436.5176238633
 31
0.0
  0
LINE
  5
222
330
1F
100
AcDbEntity
  8
0
  6
Continuous
 62
     7
370
    25
100
AcDbLine
 10
995.7614979627
 20
1436.5176238633
 30
0.0
 11
997.1183568679
 21
1436.5176238633
 31
0.0
  0
LINE
  5
223
330
1F
100
AcDbEntity
  8
0
  6
Continuous
 62
     7
370
    25
100
AcDbLine
 10
995.3715809801
 20
1435.1176238633
 30
0.0
 11
997.319174643
 21
1435.1176238633
 31
0.0
  0
LINE
  5
224
330
1F
100
AcDbEntity
  8
0
  6
Continuous
 62
     7
370
    25
100
AcDbLine
 10
994.2437248984
 20
1429.6176238633
 30
0.0
 11
995.719174643
 21
1429.6176238633
 31
0.0
  0
LWPOLYLINE
  5
225
330
1F
100
AcDbEntity
  8
0
  6
Continuous
 62
     7
370
    25
100
AcDbPolyline
 90
        9
 70
   128
 43
0.0
 10
996.40906016
 20
1436.5176238633
 10
996.2855458359
 20
1437.4185930755
 10
996.0480190765
 20
1438.2723525638
 10
995.7044840354
 20
1439.0501324242
 10
995.2665171228
 20
1439.7257231068
 10
994.7488769051
 20
1440.2763586227
 10
994.1690067719
 20
1440.68348371
 10
993.5464471303
 20
1440.9333791071
 10
992.9021769345
 20
1441.0176238633
  0
LWPOLYLINE
  5
226
330
1F
100
AcDbEntity
  8
0
  6
Continuous
 62
     7
370
    25
100
AcDbPolyline
 90
        9
 70
   128
 43
0.0
 10
993.6114736424
 20
1441.0176238633
 10
994.2557438382
 20
1440.9333791071
 10
994.8783034798
 20
1440.68348371
 10
995.458173613
 20
1440.2763586227
 10
995.9758138307
 20
1439.7257231068
 10
996.4137807433
 20
1439.0501324242
 10
996.7573157845
 20
1438.2723525638
 10
996.9948425439
 20
1437.4185930755
 10
997.1183568679
 20
1436.5176238633
  0
LINE
  5
227
330
1F
100
AcDbEntity
  8
0
  6
Continuous
 62
     7
370
    25
100
AcDbLine
 10
992.9021769345
 20
1441.0176238633
 30
0.0
 11
993.6114736424
 21
1441.0176238633
 31
0.0
  0
LINE
  5
228
330
1F
100
AcDbEntity
  8
0
  6
Continuous
 62
     7
370
    25
100
AcDbLine
 10
991.4214527
 20
1441.0176238633
 30
0.0
 11
992.9021769345
 21
1441.0176238633
 31
0.0
  0
LINE
  5
229
330
1F
100
AcDbEntity
  8
0
  6
Continuous
 62
     7
370
    25
100
AcDbLine
 10
990.2295495163
 20
1426.0176238633
 30
0.0
 11
989.2983878987
 21
1426.0176238633
 31
0.0
  0
LWPOLYLINE
  5
22A
330
1F
100
AcDbEntity
  8
0
  6
Continuous
 62
     7
370
    25
100
AcDbPolyline
 90
        6
 70
   128
 43
0.0
 10
951.8007409503
 20
1450.0176238633
 10
951.8007423237
 20
1450.017683832
 10
952.0931524319
 20
1452.7443189731
 10
953.2050655957
 20
1457.1016227059
 10
954.2232247498
 20
1460.9900414833
 10
954.6379277821
 20
1464.7858192191
  0
LINE
  5
22B
330
1F
100
AcDbEntity
  8
0
  6
Continuous
 62
     7
370
    25
100
AcDbLine
 10
954.6379277821
 20
1464.7858192191
 30
0.0
 11
957.4663413001
 21
1464.7858192191
 31
0.0
  0
LWPOLYLINE
  5
22C
330
1F
100
AcDbEntity
  8
0
  6
Continuous
 62
     7
370
    25
100
AcDbPolyline
 90
        6
 70
   128
 43
0.0
 10
957.4663413001
 20
1464.7858192191
 10
957.3394693804
 20
1462.5885526767
 10
956.9958286523
 20
1460.4345767153
 10
955.9268412798
 20
1456.3408538938
 10
954.8766306596
 20
1452.2449252247
 10
954.6291544684
 20
1449.9836574543
  0
ARC
  5
22D
330
1F
100
AcDbEntity
  8
0
  6
Continuous
 62
     7
370
    25
100
AcDbCircle
 10
951.7290491023
 20
1326.2685232268
 30
0.0
 40
123.7491214031595
100
AcDbArc
 50
88.6571297681
 51
89.9668067094
  0
LINE
  5
22E
330
1F
100
AcDbEntity
  8
0
  6
Continuous
 62
     7
370
    25
100
AcDbLine
 10
951.8007409503
 20
1450.0176238633
 30
0.0
 11
943.5532933528
 21
1450.0176238633
 31
0.0
  0
LWPOLYLINE
  5
22F
330
1F
100
AcDbEntity
  8
0
  6
Continuous
 62
     7
370
    25
100
AcDbPolyline
 90
        6
 70
   128
 43
0.0
 10
946.3904801845
 20
1464.7858192191
 10
946.3904801844
 20
1464.7857592191
 10
945.9757771522
 20
1460.9900414833
 10
944.9576179981
 20
1457.1016227059
 10
943.8457048343
 20
1452.7443189731
 10
943.5532933528
 20
1450.0176238633
  0
LINE
  5
230
330
1F
100
AcDbEntity
  8
0
  6
Continuous
 62
     7
370
    25
100
AcDbLine
 10
954.6379277821
 20
1464.7858192191
 30
0.0
 11
946.3904801845
 21
1464.7858192191
 31
0.0
  0
LINE
  5
231
330
1F
100
AcDbEntity
  8
0
  6
Continuous
 62
     7
370
    25
100
AcDbLine
 10
968.6022996148
 20
1441.0176238633
 30
0.0
 11
968.6022996148
 21
1449.9836574543
 31
0.0
  0
LINE
  5
232
330
1F
100
AcDbEntity
  8
0
  6
Continuous
 62
     7
370
    25
100
AcDbLine
 10
957.4663413001
 20
1474.7858192191
 30
0.0
 11
957.4663413001
 21
1464.7858192191
 31
0.0
  0
LINE
  5
233
330
1F
100
AcDbEntity
  8
0
  6
Continuous
 62
     7
370
    25
100
AcDbLine
 10
965.765112783
 20
1474.7858192191
 30
0.0
 11
957.4663413001
 21
1474.7858192191
 31
0.0
  0
LINE
  5
234
330
1F
100
AcDbEntity
  8
0
  6
Continuous
 62
     7
370
    25
100
AcDbLine
 10
965.765112783
 20
1464.7858192191
 30
0.0
 11
965.765112783
 21
1474.7858192191
 31
0.0
  0
LWPOLYLINE
  5
235
330
1F
100
AcDbEntity
  8
0
  6
Continuous
 62
     7
370
    25
100
AcDbPolyline
 90
        6
 70
   128
 43
0.0
 10
968.6022996148
 20
1449.9836574543
 10
968.3548234235
 20
1452.2449252247
 10
967.3046128033
 20
1456.3408538938
 10
966.2356254309
 20
1460.4345767153
 10
965.8919847028
 20
1462.5885526767
 10
965.765112783
 20
1464.7858192191
  0
LINE
  5
236
330
1F
100
AcDbEntity
  8
0
  6
Continuous
 62
     7
370
    25
100
AcDbLine
 10
949.6423699574
 20
1441.0176238633
 30
0.0
 11
945.6522958584
 21
1441.0176238633
 31
0.0
  0
LINE
  5
237
330
1F
100
AcDbEntity
  8
0
  6
Continuous
 62
     7
370
    25
100
AcDbLine
 10
954.6379277821
 20
1464.7858192191
 30
0.0
 11
954.6379277821
 21
1474.7858192191
 31
0.0
  0
LINE
  5
238
330
1F
100
AcDbEntity
  8
0
  6
Continuous
 62
     7
370
    25
100
AcDbLine
 10
954.6379277821
 20
1474.7858192191
 30
0.0
 11
957.4663413001
 21
1474.7858192191
 31
0.0
  0
LINE
  5
239
330
1F
100
AcDbEntity
  8
0
  6
Continuous
 62
     7
370
    25
100
AcDbLine
 10
946.3904801845
 20
1474.7858192191
 30
0.0
 11
946.3904801845
 21
1464.7858192191
 31
0.0
  0
LINE
  5
23A
330
1F
100
AcDbEntity
  8
0
  6
Continuous
 62
     7
370
    25
100
AcDbLine
 10
954.6379277821
 20
1474.7858192191
 30
0.0
 11
946.3904801845
 21
1474.7858192191
 31
0.0
  0
LWPOLYLINE
  5
23B
330
1F
100
AcDbEntity
  8
0
  6
Continuous
 62
     7
370
    25
100
AcDbPolyline
 90
        4
 70
   128
 43
0.0
 10
943.5532933528
 20
1450.0176238633
 10
943.1666330911
 20
1450.0157999612
 10
942.9834616577
 20
1450.0104781114
 10
942.9974625413
 20
1450.0076160765
  0
ARC
  5
23C
330
1F
100
AcDbEntity
  8
0
  6
Continuous
 62
     7
370
    25
100
AcDbCircle
 10
968.4962132772
 20
1459.156441355
 30
0.0
 40
9.173397342306052
100
AcDbArc
 50
270.6626154602
 51
274.1917657908
  0
LINE
  5
23D
330
1F
100
AcDbEntity
  8
0
  6
Continuous
 62
     7
370
    25
100
AcDbLine
 10
965.765112783
 20
1474.7858192191
 30
0.0
 11
966.3552926809
 21
1474.7858192191
 31
0.0
  0
LINE
  5
23E
330
1F
100
AcDbEntity
  8
0
  6
Continuous
 62
     7
370
    25
100
AcDbLine
 10
945.8090736004
 20
1474.7858192191
 30
0.0
 11
946.3904801845
 21
1474.7858192191
 31
0.0
  0
LWPOLYLINE
  5
23F
330
1F
100
AcDbEntity
  8
0
  6
Continuous
 62
     7
370
    25
100
AcDbPolyline
 90
        6
 70
   128
 43
0.0
 10
954.6291544684
 20
1399.1515902723
 10
954.8766306596
 20
1396.8903225019
 10
955.9268412798
 20
1392.7943938328
 10
956.9958286523
 20
1388.7006710113
 10
957.3394693804
 20
1386.5466950499
 10
957.4663413001
 20
1384.3494285075
  0
LINE
  5
240
330
1F
100
AcDbEntity
  8
0
  6
Continuous
 62
     7
370
    25
100
AcDbLine
 10
957.4663413001
 20
1384.3494285075
 30
0.0
 11
954.6379277821
 21
1384.3494285075
 31
0.0
  0
LWPOLYLINE
  5
241
330
1F
100
AcDbEntity
  8
0
  6
Continuous
 62
     7
370
    25
100
AcDbPolyline
 90
        6
 70
   128
 43
0.0
 10
954.6379277821
 20
1384.3494285075
 10
954.637927782
 20
1384.3494885075
 10
954.2232247498
 20
1388.1452062433
 10
953.2050655957
 20
1392.0336250207
 10
952.0931524319
 20
1396.3909287535
 10
951.8007409503
 20
1399.1176238633
  0
ARC
  5
242
330
1F
100
AcDbEntity
  8
0
  6
Continuous
 62
     7
370
    25
100
AcDbCircle
 10
951.7290491067
 20
1522.8667241285
 30
0.0
 40
123.7491210318951
100
AcDbArc
 50
270.0331932887
 51
271.3428702339
  0
LINE
  5
243
330
1F
100
AcDbEntity
  8
0
  6
Continuous
 62
     7
370
    25
100
AcDbLine
 10
953.7571362603
 20
1408.1176238633
 30
0.0
 11
954.5932489953
 21
1408.1176238633
 31
0.0
  0
LINE
  5
244
330
1F
100
AcDbEntity
  8
0
  6
Continuous
 62
     7
370
    25
100
AcDbLine
 10
954.6291544684
 20
1408.1176238633
 30
0.0
 11
954.6291544684
 21
1399.1515902723
 31
0.0
  0
LINE
  5
245
330
1F
100
AcDbEntity
  8
0
  6
Continuous
 62
     7
370
    25
100
AcDbLine
 10
951.8007409503
 20
1408.1176238633
 30
0.0
 11
951.8007409503
 21
1399.1176238633
 31
0.0
  0
LWPOLYLINE
  5
246
330
1F
100
AcDbEntity
  8
0
  6
Continuous
 62
     7
370
    25
100
AcDbPolyline
 90
        6
 70
   128
 43
0.0
 10
943.5532933528
 20
1399.1176238633
 10
943.5532947261
 20
1399.1175638945
 10
943.8457048343
 20
1396.3909287535
 10
944.9576179981
 20
1392.0336250207
 10
945.9757771522
 20
1388.1452062433
 10
946.3904801845
 20
1384.3494285075
  0
LINE
  5
247
330
1F
100
AcDbEntity
  8
0
  6
Continuous
 62
     7
370
    25
100
AcDbLine
 10
943.5532933528
 20
1399.1176238633
 30
0.0
 11
951.8007409503
 21
1399.1176238633
 31
0.0
  0
LINE
  5
248
330
1F
100
AcDbEntity
  8
0
  6
Continuous
 62
     7
370
    25
100
AcDbLine
 10
946.3904801845
 20
1384.3494285075
 30
0.0
 11
954.6379277821
 21
1384.3494285075
 31
0.0
  0
LINE
  5
249
330
1F
100
AcDbEntity
  8
0
  6
Continuous
 62
     7
370
    25
100
AcDbLine
 10
968.6022996148
 20
1408.1176238633
 30
0.0
 11
968.6022996148
 21
1399.1515902723
 31
0.0
  0
LWPOLYLINE
  5
24A
330
1F
100
AcDbEntity
  8
0
  6
Continuous
 62
     7
370
    25
100
AcDbPolyline
 90
        6
 70
   128
 43
0.0
 10
965.765112783
 20
1384.3494285075
 10
965.8919847028
 20
1386.5466950499
 10
966.2356254309
 20
1388.7006710113
 10
967.3046128033
 20
1392.7943938328
 10
968.3548234235
 20
1396.8903225019
 10
968.6022996148
 20
1399.1515902723
  0
LINE
  5
24B
330
1F
100
AcDbEntity
  8
0
  6
Continuous
 62
     7
370
    25
100
AcDbLine
 10
965.765112783
 20
1374.3494285075
 30
0.0
 11
965.765112783
 21
1384.3494285075
 31
0.0
  0
LINE
  5
24C
330
1F
100
AcDbEntity
  8
0
  6
Continuous
 62
     7
370
    25
100
AcDbLine
 10
965.765112783
 20
1374.3494285075
 30
0.0
 11
957.4663413001
 21
1374.3494285075
 31
0.0
  0
LINE
  5
24D
330
1F
100
AcDbEntity
  8
0
  6
Continuous
 62
     7
370
    25
100
AcDbLine
 10
957.4663413001
 20
1384.3494285075
 30
0.0
 11
957.4663413001
 21
1374.3494285075
 31
0.0
  0
LINE
  5
24E
330
1F
100
AcDbEntity
  8
0
  6
Continuous
 62
     7
370
    25
100
AcDbLine
 10
957.2414889814
 20
1408.1176238633
 30
0.0
 11
957.9273841603
 21
1408.1176238633
 31
0.0
  0
LINE
  5
24F
330
1F
100
AcDbEntity
  8
0
  6
Continuous
 62
     7
370
    25
100
AcDbLine
 10
960.5751835087
 20
1408.1176238633
 30
0.0
 11
961.2610786876
 21
1408.1176238633
 31
0.0
  0
LINE
  5
250
330
1F
100
AcDbEntity
  8
0
  6
Continuous
 62
     7
370
    25
100
AcDbLine
 10
963.908878036
 20
1408.1176238633
 30
0.0
 11
964.5947732149
 21
1408.1176238633
 31
0.0
  0
LINE
  5
251
330
1F
100
AcDbEntity
  8
0
  6
Continuous
 62
     7
370
    25
100
AcDbLine
 10
967.2425725633
 20
1408.1176238633
 30
0.0
 11
967.9284677422
 21
1408.1176238633
 31
0.0
  0
LINE
  5
252
330
1F
100
AcDbEntity
  8
0
  6
Continuous
 62
     7
370
    25
100
AcDbLine
 10
943.5532933528
 20
1408.1176238633
 30
0.0
 11
943.5532933528
 21
1399.1176238633
 31
0.0
  0
LINE
  5
253
330
1F
100
AcDbEntity
  8
0
  6
Continuous
 62
     7
370
    25
100
AcDbLine
 10
957.4663413001
 20
1374.3494285075
 30
0.0
 11
954.6379277821
 21
1374.3494285075
 31
0.0
  0
LINE
  5
254
330
1F
100
AcDbEntity
  8
0
  6
Continuous
 62
     7
370
    25
100
AcDbLine
 10
954.6379277821
 20
1374.3494285075
 30
0.0
 11
954.6379277821
 21
1384.3494285075
 31
0.0
  0
LINE
  5
255
330
1F
100
AcDbEntity
  8
0
  6
Continuous
 62
     7
370
    25
100
AcDbLine
 10
946.3904801845
 20
1384.3494285075
 30
0.0
 11
946.3904801845
 21
1374.3494285075
 31
0.0
  0
LINE
  5
256
330
1F
100
AcDbEntity
  8
0
  6
Continuous
 62
     7
370
    25
100
AcDbLine
 10
946.3904801845
 20
1374.3494285075
 30
0.0
 11
954.6379277821
 21
1374.3494285075
 31
0.0
  0
LWPOLYLINE
  5
257
330
1F
100
AcDbEntity
  8
0
  6
Continuous
 62
     7
370
    25
100
AcDbPolyline
 90
        4
 70
   128
 43
0.0
 10
942.9976247339
 20
1399.1276648052
 10
942.9834616577
 20
1399.1247696152
 10
943.1666330911
 20
1399.1194477654
 10
943.5532933528
 20
1399.1176238633
  0
ARC
  5
258
330
1F
100
AcDbEntity
  8
0
  6
Continuous
 62
     7
370
    25
100
AcDbCircle
 10
968.4967865875
 20
1390.00043768
 30
0.0
 40
9.151760856072086
100
AcDbArc
 50
85.8008870915
 51
89.3394074454
  0
LINE
  5
259
330
1F
100
AcDbEntity
  8
0
  6
Continuous
 62
     7
370
    25
100
AcDbLine
 10
966.3552926809
 20
1374.3494285075
 30
0.0
 11
965.765112783
 21
1374.3494285075
 31
0.0
  0
LINE
  5
25A
330
1F
100
AcDbEntity
  8
0
  6
Continuous
 62
     7
370
    25
100
AcDbLine
 10
946.3904801845
 20
1374.3494285075
 30
0.0
 11
945.8090736004
 21
1374.3494285075
 31
0.0
  0
LWPOLYLINE
  5
25B
330
1F
100
AcDbEntity
  8
0
  6
Continuous
 62
     7
370
    25
100
AcDbPolyline
 90
        6
 70
   128
 43
0.0
 10
975.4743400777
 20
1399.1515902723
 10
975.721816269
 20
1396.8903225019
 10
976.7720268892
 20
1392.7943938328
 10
977.8410142616
 20
1388.7006710113
 10
978.1846549897
 20
1386.5466950499
 10
978.3115269095
 20
1384.3494285075
  0
LINE
  5
25C
330
1F
100
AcDbEntity
  8
0
  6
Continuous
 62
     7
370
    25
100
AcDbLine
 10
978.3115269095
 20
1384.3494285075
 30
0.0
 11
975.4831133914
 21
1384.3494285075
 31
0.0
  0
LWPOLYLINE
  5
25D
330
1F
100
AcDbEntity
  8
0
  6
Continuous
 62
     7
370
    25
100
AcDbPolyline
 90
        6
 70
   128
 43
0.0
 10
975.4831133914
 20
1384.3494285075
 10
975.4831133913
 20
1384.3494885075
 10
975.0684103591
 20
1388.1452062433
 10
974.050251205
 20
1392.0336250207
 10
972.9383380412
 20
1396.3909287535
 10
972.6459265597
 20
1399.1176238633
  0
ARC
  5
25E
330
1F
100
AcDbEntity
  8
0
  6
Continuous
 62
     7
370
    25
100
AcDbCircle
 10
972.5742347163
 20
1522.8667241033
 30
0.0
 40
123.7491210066629
100
AcDbArc
 50
270.0331932885
 51
271.342870234
  0
LINE
  5
25F
330
1F
100
AcDbEntity
  8
0
  6
Continuous
 62
     7
370
    25
100
AcDbLine
 10
972.7662880331
 20
1408.1176238633
 30
0.0
 11
973.1570724163
 21
1408.1176238633
 31
0.0
  0
LINE
  5
260
330
1F
100
AcDbEntity
  8
0
  6
Continuous
 62
     7
370
    25
100
AcDbLine
 10
975.4743400777
 20
1408.1176238633
 30
0.0
 11
975.4743400777
 21
1399.1515902723
 31
0.0
  0
LINE
  5
261
330
1F
100
AcDbEntity
  8
0
  6
Continuous
 62
     7
370
    25
100
AcDbLine
 10
972.6459265597
 20
1408.1176238633
 30
0.0
 11
972.6459265597
 21
1399.1176238633
 31
0.0
  0
LINE
  5
262
330
1F
100
AcDbEntity
  8
0
  6
Continuous
 62
     7
370
    25
100
AcDbLine
 10
975.4831133914
 20
1384.3494285075
 30
0.0
 11
967.2356657939
 21
1384.3494285075
 31
0.0
  0
LINE
  5
263
330
1F
100
AcDbEntity
  8
0
  6
Continuous
 62
     7
370
    25
100
AcDbLine
 10
969.1730045344
 20
1399.1176238633
 30
0.0
 11
972.6459265597
 21
1399.1176238633
 31
0.0
  0
LINE
  5
264
330
1F
100
AcDbEntity
  8
0
  6
Continuous
 62
     7
370
    25
100
AcDbLine
 10
989.4474852241
 20
1408.1176238633
 30
0.0
 11
989.4474852241
 21
1399.1515902723
 31
0.0
  0
LWPOLYLINE
  5
265
330
1F
100
AcDbEntity
  8
0
  6
Continuous
 62
     7
370
    25
100
AcDbPolyline
 90
        6
 70
   128
 43
0.0
 10
986.6102983924
 20
1384.3494285075
 10
986.7371703121
 20
1386.5466950499
 10
987.0808110402
 20
1388.7006710113
 10
988.1497984126
 20
1392.7943938328
 10
989.2000090329
 20
1396.8903225019
 10
989.4474852241
 20
1399.1515902723
  0
LINE
  5
266
330
1F
100
AcDbEntity
  8
0
  6
Continuous
 62
     7
370
    25
100
AcDbLine
 10
986.6102983924
 20
1374.3494285075
 30
0.0
 11
986.6102983924
 21
1384.3494285075
 31
0.0
  0
LINE
  5
267
330
1F
100
AcDbEntity
  8
0
  6
Continuous
 62
     7
370
    25
100
AcDbLine
 10
978.3115269095
 20
1374.3494285075
 30
0.0
 11
986.6102983924
 21
1374.3494285075
 31
0.0
  0
LINE
  5
268
330
1F
100
AcDbEntity
  8
0
  6
Continuous
 62
     7
370
    25
100
AcDbLine
 10
978.3115269095
 20
1384.3494285075
 30
0.0
 11
978.3115269095
 21
1374.3494285075
 31
0.0
  0
LINE
  5
269
330
1F
100
AcDbEntity
  8
0
  6
Continuous
 62
     7
370
    25
100
AcDbLine
 10
978.3115269095
 20
1374.3494285075
 30
0.0
 11
975.4831133914
 21
1374.3494285075
 31
0.0
  0
LINE
  5
26A
330
1F
100
AcDbEntity
  8
0
  6
Continuous
 62
     7
370
    25
100
AcDbLine
 10
975.4831133914
 20
1374.3494285075
 30
0.0
 11
975.4831133914
 21
1384.3494285075
 31
0.0
  0
LINE
  5
26B
330
1F
100
AcDbEntity
  8
0
  6
Continuous
 62
     7
370
    25
100
AcDbLine
 10
967.2356657939
 20
1384.3494285075
 30
0.0
 11
967.2356657939
 21
1374.3494285075
 31
0.0
  0
LINE
  5
26C
330
1F
100
AcDbEntity
  8
0
  6
Continuous
 62
     7
370
    25
100
AcDbLine
 10
975.4831133914
 20
1374.3494285075
 30
0.0
 11
967.2356657939
 21
1374.3494285075
 31
0.0
  0
ARC
  5
26D
330
1F
100
AcDbEntity
  8
0
  6
Continuous
 62
     7
370
    25
100
AcDbCircle
 10
989.3419721968
 20
1390.0004376779
 30
0.0
 40
9.151760858126902
100
AcDbArc
 50
85.8008870919
 51
89.3394074449
  0
LINE
  5
26E
330
1F
100
AcDbEntity
  8
0
  6
Continuous
 62
     7
370
    25
100
AcDbLine
 10
987.2004782902
 20
1374.3494285075
 30
0.0
 11
986.6102983924
 21
1374.3494285075
 31
0.0
  0
LINE
  5
26F
330
1F
100
AcDbEntity
  8
0
  6
Continuous
 62
     7
370
    25
100
AcDbLine
 10
967.2356657939
 20
1374.3494285075
 30
0.0
 11
966.6542592098
 21
1374.3494285075
 31
0.0
  0
LWPOLYLINE
  5
270
330
1F
100
AcDbEntity
  8
0
  6
Continuous
 62
     7
370
    25
100
AcDbPolyline
 90
        6
 70
   128
 43
0.0
 10
972.6459265597
 20
1450.0176238633
 10
972.645927933
 20
1450.017683832
 10
972.9383380412
 20
1452.7443189731
 10
974.050251205
 20
1457.1016227059
 10
975.0684103591
 20
1460.9900414833
 10
975.4831133914
 20
1464.7858192191
  0
LINE
  5
271
330
1F
100
AcDbEntity
  8
0
  6
Continuous
 62
     7
370
    25
100
AcDbLine
 10
975.4831133914
 20
1464.7858192191
 30
0.0
 11
978.3115269095
 21
1464.7858192191
 31
0.0
  0
LWPOLYLINE
  5
272
330
1F
100
AcDbEntity
  8
0
  6
Continuous
 62
     7
370
    25
100
AcDbPolyline
 90
        6
 70
   128
 43
0.0
 10
978.3115269095
 20
1464.7858192191
 10
978.1846549897
 20
1462.5885526767
 10
977.8410142616
 20
1460.4345767153
 10
976.7720268892
 20
1456.3408538938
 10
975.721816269
 20
1452.2449252247
 10
975.4743400777
 20
1449.9836574543
  0
ARC
  5
273
330
1F
100
AcDbEntity
  8
0
  6
Continuous
 62
     7
370
    25
100
AcDbCircle
 10
972.5742347113
 20
1326.2685232023
 30
0.0
 40
123.7491214277401
100
AcDbArc
 50
88.6571297682
 51
89.9668067093
  0
LINE
  5
274
330
1F
100
AcDbEntity
  8
0
  6
Continuous
 62
     7
370
    25
100
AcDbLine
 10
975.4384346047
 20
1441.0176238633
 30
0.0
 11
974.6023218696
 21
1441.0176238633
 31
0.0
  0
LINE
  5
275
330
1F
100
AcDbEntity
  8
0
  6
Continuous
 62
     7
370
    25
100
AcDbLine
 10
972.6459265597
 20
1441.0176238633
 30
0.0
 11
972.6459265597
 21
1450.0176238633
 31
0.0
  0
LINE
  5
276
330
1F
100
AcDbEntity
  8
0
  6
Continuous
 62
     7
370
    25
100
AcDbLine
 10
975.4743400777
 20
1441.0176238633
 30
0.0
 11
975.4743400777
 21
1449.9836574543
 31
0.0
  0
LINE
  5
277
330
1F
100
AcDbEntity
  8
0
  6
Continuous
 62
     7
370
    25
100
AcDbLine
 10
967.2356657939
 20
1464.7858192191
 30
0.0
 11
975.4831133914
 21
1464.7858192191
 31
0.0
  0
LINE
  5
278
330
1F
100
AcDbEntity
  8
0
  6
Continuous
 62
     7
370
    25
100
AcDbLine
 10
972.6459265597
 20
1450.0176238633
 30
0.0
 11
969.1701979555
 21
1450.0176238633
 31
0.0
  0
LINE
  5
279
330
1F
100
AcDbEntity
  8
0
  6
Continuous
 62
     7
370
    25
100
AcDbLine
 10
989.4474852241
 20
1441.0176238633
 30
0.0
 11
989.4474852241
 21
1449.9836574543
 31
0.0
  0
LINE
  5
27A
330
1F
100
AcDbEntity
  8
0
  6
Continuous
 62
     7
370
    25
100
AcDbLine
 10
978.3115269095
 20
1474.7858192191
 30
0.0
 11
978.3115269095
 21
1464.7858192191
 31
0.0
  0
LINE
  5
27B
330
1F
100
AcDbEntity
  8
0
  6
Continuous
 62
     7
370
    25
100
AcDbLine
 10
978.3115269095
 20
1474.7858192191
 30
0.0
 11
986.6102983924
 21
1474.7858192191
 31
0.0
  0
LINE
  5
27C
330
1F
100
AcDbEntity
  8
0
  6
Continuous
 62
     7
370
    25
100
AcDbLine
 10
986.6102983924
 20
1464.7858192191
 30
0.0
 11
986.6102983924
 21
1474.7858192191
 31
0.0
  0
LWPOLYLINE
  5
27D
330
1F
100
AcDbEntity
  8
0
  6
Continuous
 62
     7
370
    25
100
AcDbPolyline
 90
        6
 70
   128
 43
0.0
 10
989.4474852241
 20
1449.9836574543
 10
989.2000090329
 20
1452.2449252247
 10
988.1497984126
 20
1456.3408538938
 10
987.0808110402
 20
1460.4345767153
 10
986.7371703121
 20
1462.5885526767
 10
986.6102983924
 20
1464.7858192191
  0
LINE
  5
27E
330
1F
100
AcDbEntity
  8
0
  6
Continuous
 62
     7
370
    25
100
AcDbLine
 10
988.7736533516
 20
1441.0176238633
 30
0.0
 11
988.0877581727
 21
1441.0176238633
 31
0.0
  0
LINE
  5
27F
330
1F
100
AcDbEntity
  8
0
  6
Continuous
 62
     7
370
    25
100
AcDbLine
 10
985.4399588243
 20
1441.0176238633
 30
0.0
 11
984.7540636453
 21
1441.0176238633
 31
0.0
  0
LINE
  5
280
330
1F
100
AcDbEntity
  8
0
  6
Continuous
 62
     7
370
    25
100
AcDbLine
 10
982.1062642969
 20
1441.0176238633
 30
0.0
 11
981.420369118
 21
1441.0176238633
 31
0.0
  0
LINE
  5
281
330
1F
100
AcDbEntity
  8
0
  6
Continuous
 62
     7
370
    25
100
AcDbLine
 10
978.7725697696
 20
1441.0176238633
 30
0.0
 11
978.0866745907
 21
1441.0176238633
 31
0.0
  0
LINE
  5
282
330
1F
100
AcDbEntity
  8
0
  6
Continuous
 62
     7
370
    25
100
AcDbLine
 10
975.4831133914
 20
1464.7858192191
 30
0.0
 11
975.4831133914
 21
1474.7858192191
 31
0.0
  0
LINE
  5
283
330
1F
100
AcDbEntity
  8
0
  6
Continuous
 62
     7
370
    25
100
AcDbLine
 10
975.4831133914
 20
1474.7858192191
 30
0.0
 11
978.3115269095
 21
1474.7858192191
 31
0.0
  0
LINE
  5
284
330
1F
100
AcDbEntity
  8
0
  6
Continuous
 62
     7
370
    25
100
AcDbLine
 10
967.2356657939
 20
1474.7858192191
 30
0.0
 11
967.2356657939
 21
1464.7858192191
 31
0.0
  0
LINE
  5
285
330
1F
100
AcDbEntity
  8
0
  6
Continuous
 62
     7
370
    25
100
AcDbLine
 10
967.2356657939
 20
1474.7858192191
 30
0.0
 11
975.4831133914
 21
1474.7858192191
 31
0.0
  0
ARC
  5
286
330
1F
100
AcDbEntity
  8
0
  6
Continuous
 62
     7
370
    25
100
AcDbCircle
 10
989.3413988867
 20
1459.1564413514
 30
0.0
 40
9.173397338737006
100
AcDbArc
 50
270.6626154595
 51
274.1917657915
  0
LINE
  5
287
330
1F
100
AcDbEntity
  8
0
  6
Continuous
 62
     7
370
    25
100
AcDbLine
 10
986.6102983924
 20
1474.7858192191
 30
0.0
 11
987.2004782902
 21
1474.7858192191
 31
0.0
  0
LINE
  5
288
330
1F
100
AcDbEntity
  8
0
  6
Continuous
 62
     7
370
    25
100
AcDbLine
 10
966.6542592098
 20
1474.7858192191
 30
0.0
 11
967.2356657939
 21
1474.7858192191
 31
0.0
  0
ARC
  5
289
330
1F
100
AcDbEntity
  8
0
  6
Continuous
 62
     7
370
    25
100
AcDbCircle
 10
950.5891873551
 20
1439.7074303994
 30
0.0
 40
1.020378247365346
100
AcDbArc
 50
131.5347531417
 51
180.8393489139
  0
ELLIPSE
  5
28A
330
1F
100
AcDbEntity
  8
0
  6
Continuous
 62
     7
370
    25
100
AcDbEllipse
 10
956.4461350701
 20
1438.6002051551
 30
0.0
 11
11.62602773607034
 21
7.608452227045518
 31
0.0
210
0.0
220
0.0
230
1.0
 40
0.3906778
 41
1.709536242206782
 42
1.896232789965661
  0
LWPOLYLINE
  5
28B
330
1F
100
AcDbEntity
  8
0
  6
Continuous
 62
     7
370
    25
100
AcDbPolyline
 90
        3
 70
   128
 43
0.0
 10
952.5999429401
 20
1442.2676238633
 10
952.236893986
 20
1442.2154759774
 10
951.8944194679
 20
1442.0463791381
  0
LINE
  5
28C
330
1F
100
AcDbEntity
  8
0
  6
Continuous
 62
     7
370
    25
100
AcDbLine
 10
954.7122390416
 20
1442.2676238633
 30
0.0
 11
952.5999429401
 21
1442.2676238633
 31
0.0
  0
LINE
  5
28D
330
1F
100
AcDbEntity
  8
0
  6
Continuous
 62
     7
370
    25
100
AcDbLine
 10
954.7122390416
 20
1419.6676238633
 30
0.0
 11
954.7122390416
 21
1442.2676238633
 31
0.0
  0
LINE
  5
28E
330
1F
100
AcDbEntity
  8
0
  6
Continuous
 62
     7
370
    25
100
AcDbLine
 10
947.9345745748
 20
1419.6676238633
 30
0.0
 11
947.9345745748
 21
1437.2676238633
 31
0.0
  0
LINE
  5
28F
330
1F
100
AcDbEntity
  8
0
  6
Continuous
 62
     7
370
    25
100
AcDbLine
 10
947.9345745748
 20
1437.2676238633
 30
0.0
 11
949.5689185949
 21
1437.2676238633
 31
0.0
  0
LINE
  5
290
330
1F
100
AcDbEntity
  8
0
  6
Continuous
 62
     7
370
    25
100
AcDbLine
 10
949.5689185949
 20
1439.6924830028
 30
0.0
 11
949.5689185949
 21
1437.2676238633
 31
0.0
  0
LINE
  5
291
330
1F
100
AcDbEntity
  8
0
  6
Continuous
 62
     7
370
    25
100
AcDbLine
 10
954.7122390416
 20
1419.6676238633
 30
0.0
 11
947.9345745748
 21
1419.6676238633
 31
0.0
  0
LWPOLYLINE
  5
292
330
1F
100
AcDbEntity
  8
0
  6
Continuous
 62
     7
370
    25
100
AcDbPolyline
 90
        9
 70
   128
 43
0.0
 10
952.5999429401
 20
1442.2676238633
 10
952.6061015654
 20
1442.4627141853
 10
952.6243407687
 20
1442.6503072957
 10
952.6539596277
 20
1442.8231940963
 10
952.6938199062
 20
1442.9747306445
 10
952.7423897961
 20
1443.0990934756
 10
952.7978027838
 20
1443.1915033958
 10
952.8579293792
 20
1443.2484091437
 10
952.9204589509
 20
1443.2676238633
  0
LINE
  5
293
330
1F
100
AcDbEntity
  8
0
  6
Continuous
 62
     7
370
    25
100
AcDbLine
 10
952.9204589509
 20
1443.2676238633
 30
0.0
 11
953.4224571083
 21
1443.2676238633
 31
0.0
  0
LWPOLYLINE
  5
294
330
1F
100
AcDbEntity
  8
0
  6
Continuous
 62
     7
370
    25
100
AcDbPolyline
 90
        7
 70
   128
 43
0.0
 10
953.4224571083
 20
1443.2676238633
 10
954.1273671594
 20
1443.1209914241
 10
954.3666071373
 20
1442.9694198553
 10
954.5732683119
 20
1442.7374505699
 10
954.6708403852
 20
1442.5304072638
 10
954.7102995984
 20
1442.3250561976
 10
954.7122390416
 20
1442.2676238633
  0
LWPOLYLINE
  5
295
330
1F
100
AcDbEntity
  8
0
  6
Continuous
 62
     7
370
    25
100
AcDbPolyline
 90
        7
 70
   128
 43
0.0
 10
949.9126008544
 20
1440.4712382776
 10
949.8152299435
 20
1440.6372915064
 10
949.7468564589
 20
1440.7958425922
 10
949.7105694561
 20
1440.939728332
 10
949.7080083511
 20
1441.062448091
 10
949.7392888524
 20
1441.1584574953
 10
949.7726967972
 20
1441.200377629
  0
LINE
  5
296
330
1F
100
AcDbEntity
  8
0
  6
Continuous
 62
     7
370
    25
100
AcDbLine
 10
945.0444433654
 20
1437.2676238633
 30
0.0
 11
945.0444433654
 21
1419.6676238633
 31
0.0
  0
LINE
  5
297
330
1F
100
AcDbEntity
  8
0
  6
Continuous
 62
     7
370
    25
100
AcDbLine
 10
945.0444433654
 20
1437.2676238633
 30
0.0
 11
947.9345745748
 21
1437.2676238633
 31
0.0
  0
LINE
  5
298
330
1F
100
AcDbEntity
  8
0
  6
Continuous
 62
     7
370
    25
100
AcDbLine
 10
945.0444433654
 20
1419.6676238633
 30
0.0
 11
947.9345745748
 21
1419.6676238633
 31
0.0
  0
LINE
  5
299
330
1F
100
AcDbEntity
  8
0
  6
Continuous
 62
     7
370
    25
100
AcDbLine
 10
942.1654450245
 20
1442.2676238633
 30
0.0
 11
941.6714030968
 21
1442.2676238633
 31
0.0
  0
LWPOLYLINE
  5
29A
330
1F
100
AcDbEntity
  8
0
  6
Continuous
 62
     7
370
    25
100
AcDbPolyline
 90
        3
 70
   128
 43
0.0
 10
942.4247427193
 20
1442.0463791381
 10
942.306943531
 20
1442.2031352357
 10
942.1654450245
 20
1442.2676238633
  0
ELLIPSE
  5
29B
330
1F
100
AcDbEntity
  8
0
  6
Continuous
 62
     7
370
    25
100
AcDbEllipse
 10
953.5560038607
 20
1438.6002051551
 30
0.0
 11
11.62602773607034
 21
-7.608452227045063
 31
0.0
210
0.0
220
0.0
230
1.0
 40
0.3906778
 41
3.774749174078798
 42
3.961445721837678
  0
ARC
  5
29C
330
1F
100
AcDbEntity
  8
0
  6
Continuous
 62
     7
370
    25
100
AcDbCircle
 10
942.3374729115
 20
1439.7201427922
 30
0.0
 40
1.342527584792422
100
AcDbArc
 50
358.8194646072
 51
34.0187189626
  0
LINE
  5
29D
330
1F
100
AcDbEntity
  8
0
  6
Continuous
 62
     7
370
    25
100
AcDbLine
 10
943.6797155319
 20
1437.2676238633
 30
0.0
 11
943.6797155319
 21
1439.6924830028
 31
0.0
  0
LINE
  5
29E
330
1F
100
AcDbEntity
  8
0
  6
Continuous
 62
     7
370
    25
100
AcDbLine
 10
943.6797155319
 20
1437.2676238633
 30
0.0
 11
945.0444433654
 21
1437.2676238633
 31
0.0
  0
LINE
  5
29F
330
1F
100
AcDbEntity
  8
0
  6
Continuous
 62
     7
370
    25
100
AcDbLine
 10
941.6714030968
 20
1442.2676238633
 30
0.0
 11
941.6714030968
 21
1419.6676238633
 31
0.0
  0
LINE
  5
2A0
330
1F
100
AcDbEntity
  8
0
  6
Continuous
 62
     7
370
    25
100
AcDbLine
 10
945.0444433654
 20
1419.6676238633
 30
0.0
 11
941.6714030968
 21
1419.6676238633
 31
0.0
  0
ARC
  5
2A1
330
1F
100
AcDbEntity
  8
0
  6
Continuous
 62
     7
370
    25
100
AcDbCircle
 10
942.5988455282
 20
1439.7507129535
 30
0.0
 40
2.609453863629543
100
AcDbArc
 50
358.7213388149
 51
35.0686310437
  0
LINE
  5
2A2
330
1F
100
AcDbEntity
  8
0
  6
Continuous
 62
     7
370
    25
100
AcDbLine
 10
945.2076496104
 20
1439.6924830028
 30
0.0
 11
943.6797155319
 21
1439.6924830028
 31
0.0
  0
ARC
  5
2A3
330
1F
100
AcDbEntity
  8
0
  6
Continuous
 62
     7
370
    25
100
AcDbCircle
 10
944.6665582475
 20
1439.913708847
 30
0.0
 40
1.338015403225831
100
AcDbArc
 50
87.085496876
 51
155.3745976296
  0
LINE
  5
2A4
330
1F
100
AcDbEntity
  8
0
  6
Continuous
 62
     7
370
    25
100
AcDbLine
 10
945.2076496104
 20
1439.6924830028
 30
0.0
 11
945.2076496104
 21
1437.2676238633
 31
0.0
  0
ELLIPSE
  5
2A5
330
1F
100
AcDbEntity
  8
0
  6
Continuous
 62
     7
370
    25
100
AcDbEllipse
 10
953.9982135622
 20
1439.3789604298
 30
0.0
 11
10.5446907703739
 21
-7.777269132721586
 31
0.0
210
0.0
220
0.0
230
1.0
 40
0.4027135399
 41
3.813162043109974
 42
3.999858590868847
  0
ARC
  5
2A6
330
1F
100
AcDbEntity
  8
0
  6
Continuous
 62
     7
370
    25
100
AcDbCircle
 10
943.5627438697
 20
1441.6387740184
 30
0.0
 40
1.208796323614087
100
AcDbArc
 50
78.9437685447
 51
160.2936759186
  0
LINE
  5
2A7
330
1F
100
AcDbEntity
  8
0
  6
Continuous
 62
     7
370
    25
100
AcDbLine
 10
946.077090916
 20
1439.6924830028
 30
0.0
 11
945.2076496104
 21
1439.6924830028
 31
0.0
  0
ARC
  5
2A8
330
1F
100
AcDbEntity
  8
0
  6
Continuous
 62
     7
370
    25
100
AcDbCircle
 10
943.5397782786
 20
1439.72473798
 30
0.0
 40
2.537517645865514
100
AcDbArc
 50
359.2716804029
 51
30.6310724167
  0
LINE
  5
2A9
330
1F
100
AcDbEntity
  8
0
  6
Continuous
 62
     7
370
    25
100
AcDbLine
 10
946.077090916
 20
1439.6924830028
 30
0.0
 11
946.077090916
 21
1437.2676238633
 31
0.0
  0
LWPOLYLINE
  5
2AA
330
1F
100
AcDbEntity
  8
0
  6
Continuous
 62
     7
370
    25
100
AcDbPolyline
 90
        3
 70
   128
 43
0.0
 10
943.1146582608
 20
1443.2676238633
 10
943.4934075342
 20
1443.138646608
 10
943.7945575159
 20
1442.8251344128
  0
ARC
  5
2AB
330
1F
100
AcDbEntity
  8
0
  6
Continuous
 62
     7
370
    25
100
AcDbCircle
 10
943.1407309672
 20
1442.2923724213
 30
0.0
 40
0.9755998981016162
100
AcDbArc
 50
91.5314002361
 51
181.4536082364
  0
LINE
  5
2AC
330
1F
100
AcDbEntity
  8
0
  6
Continuous
 62
     7
370
    25
100
AcDbLine
 10
943.1146582608
 20
1443.2676238633
 30
0.0
 11
943.2586962231
 21
1443.2676238633
 31
0.0
  0
LINE
  5
2AD
330
1F
100
AcDbEntity
  8
0
  6
Continuous
 62
     7
370
    25
100
AcDbLine
 10
942.96118503
 20
1443.2676238633
 30
0.0
 11
943.1146582608
 21
1443.2676238633
 31
0.0
  0
ARC
  5
2AE
330
1F
100
AcDbEntity
  8
0
  6
Continuous
 62
     7
370
    25
100
AcDbCircle
 10
942.7909146255
 20
1442.1554668372
 30
0.0
 40
1.125115665813853
100
AcDbArc
 50
81.2956474969
 51
174.2789749308
  0
LINE
  5
2AF
330
1F
100
AcDbEntity
  8
0
  6
Continuous
 62
     7
370
    25
100
AcDbLine
 10
991.0771129896
 20
1428.2176238633
 30
0.0
 11
990.9536095227
 21
1428.2176238633
 31
0.0
  0
LINE
  5
2B0
330
1F
100
AcDbEntity
  8
0
  6
Continuous
 62
     7
370
    25
100
AcDbLine
 10
991.0771129896
 20
1428.2176238633
 30
0.0
 11
991.0771129896
 21
1409.5176238633
 31
0.0
  0
LINE
  5
2B1
330
1F
100
AcDbEntity
  8
0
  6
Continuous
 62
     7
370
    25
100
AcDbLine
 10
991.0771129896
 20
1409.5176238633
 30
0.0
 11
990.9536095227
 21
1409.5176238633
 31
0.0
  0
LINE
  5
2B2
330
1F
100
AcDbEntity
  8
0
  6
Continuous
 62
     7
370
    25
100
AcDbLine
 10
990.9536095227
 20
1429.4676238633
 30
0.0
 11
992.2258972876
 21
1429.4676238633
 31
0.0
  0
LINE
  5
2B3
330
1F
100
AcDbEntity
  8
0
  6
Continuous
 62
     7
370
    25
100
AcDbLine
 10
992.2258972876
 20
1429.4676238633
 30
0.0
 11
992.2258972876
 21
1406.8676238633
 31
0.0
  0
LWPOLYLINE
  5
2B4
330
1F
100
AcDbEntity
  8
0
  6
Continuous
 62
     7
370
    25
100
AcDbPolyline
 90
        7
 70
   128
 43
0.0
 10
990.9361153543
 20
1405.8676238633
 10
991.6410254054
 20
1406.0142563025
 10
991.8802653833
 20
1406.1658278713
 10
992.0869265578
 20
1406.3977971567
 10
992.1844986312
 20
1406.6048404628
 10
992.2239578443
 20
1406.810191529
 10
992.2258972876
 20
1406.8676238633
  0
LINE
  5
2B5
330
1F
100
AcDbEntity
  8
0
  6
Continuous
 62
     7
370
    25
100
AcDbLine
 10
990.9361153543
 20
1405.8676238633
 30
0.0
 11
990.6083796602
 21
1405.8676238633
 31
0.0
  0
ARC
  5
2B6
330
1F
100
AcDbEntity
  8
0
  6
Continuous
 62
     7
370
    25
100
AcDbCircle
 10
990.6179509904
 20
1406.9363929578
 30
0.0
 40
1.068811951524639
100
AcDbArc
 50
237.1169481186
 51
269.4869030493
  0
LINE
  5
2B7
330
1F
100
AcDbEntity
  8
0
  6
Continuous
 62
     7
370
    25
100
AcDbLine
 10
976.53214382
 20
1429.6176238633
 30
0.0
 11
976.53214382
 21
1408.1176238633
 31
0.0
  0
LINE
  5
2B8
330
1F
100
AcDbEntity
  8
0
  6
Continuous
 62
     7
370
    25
100
AcDbLine
 10
976.53214382
 20
1408.1176238633
 30
0.0
 11
973.703730302
 21
1408.1176238633
 31
0.0
  0
LINE
  5
2B9
330
1F
100
AcDbEntity
  8
0
  6
Continuous
 62
     7
370
    25
100
AcDbLine
 10
990.3634296248
 20
1408.1176238633
 30
0.0
 11
990.3634296248
 21
1429.6176238633
 31
0.0
  0
LINE
  5
2BA
330
1F
100
AcDbEntity
  8
0
  6
Continuous
 62
     7
370
    25
100
AcDbLine
 10
976.53214382
 20
1408.1176238633
 30
0.0
 11
990.3634296248
 21
1408.1176238633
 31
0.0
  0
LINE
  5
2BB
330
1F
100
AcDbEntity
  8
0
  6
Continuous
 62
     7
370
    25
100
AcDbLine
 10
973.1570724163
 20
1408.1176238633
 30
0.0
 11
973.703730302
 21
1408.1176238633
 31
0.0
  0
LINE
  5
2BC
330
1F
100
AcDbEntity
  8
0
  6
Continuous
 62
     7
370
    25
100
AcDbLine
 10
990.9536095227
 20
1408.1176238633
 30
0.0
 11
990.3634296248
 21
1408.1176238633
 31
0.0
  0
LINE
  5
2BD
330
1F
100
AcDbEntity
  8
0
  6
Continuous
 62
     7
370
    25
100
AcDbLine
 10
955.6869582107
 20
1441.0176238633
 30
0.0
 11
955.6869582107
 21
1419.5176238633
 31
0.0
  0
LINE
  5
2BE
330
1F
100
AcDbEntity
  8
0
  6
Continuous
 62
     7
370
    25
100
AcDbLine
 10
954.7122390416
 20
1441.0176238633
 30
0.0
 11
955.6869582107
 21
1441.0176238633
 31
0.0
  0
LINE
  5
2BF
330
1F
100
AcDbEntity
  8
0
  6
Continuous
 62
     7
370
    25
100
AcDbLine
 10
969.5182440155
 20
1419.5176238633
 30
0.0
 11
969.5182440155
 21
1441.0176238633
 31
0.0
  0
LINE
  5
2C0
330
1F
100
AcDbEntity
  8
0
  6
Continuous
 62
     7
370
    25
100
AcDbLine
 10
969.5182440155
 20
1441.0176238633
 30
0.0
 11
955.6869582107
 21
1441.0176238633
 31
0.0
  0
LINE
  5
2C1
330
1F
100
AcDbEntity
  8
0
  6
Continuous
 62
     7
370
    25
100
AcDbLine
 10
969.5182440155
 20
1441.0176238633
 30
0.0
 11
970.1084239133
 21
1441.0176238633
 31
0.0
  0
LINE
  5
2C2
330
1F
100
AcDbEntity
  8
0
  6
Continuous
 62
     7
370
    25
100
AcDbLine
 10
948.5821831406
 20
1484.7858192191
 30
0.0
 11
963.5821831406
 21
1484.7858192191
 31
0.0
  0
LINE
  5
2C3
330
1F
100
AcDbEntity
  8
0
  6
Continuous
 62
     7
370
    25
100
AcDbLine
 10
969.42736875
 20
1484.7858192191
 30
0.0
 11
984.42736875
 21
1484.7858192191
 31
0.0
  0
LINE
  5
2C4
330
1F
100
AcDbEntity
  8
0
  6
Continuous
 62
     7
370
    25
100
AcDbLine
 10
950.8531796273
 20
1494.7858192191
 30
0.0
 11
950.8531796273
 21
1491.7858192191
 31
0.0
  0
LINE
  5
2C5
330
1F
100
AcDbEntity
  8
0
  6
Continuous
 62
     7
370
    25
100
AcDbLine
 10
963.4923081448
 20
1494.7858192191
 30
0.0
 11
963.4923081448
 21
1491.7858192191
 31
0.0
  0
LINE
  5
2C6
330
1F
100
AcDbEntity
  8
0
  6
Continuous
 62
     7
370
    25
100
AcDbLine
 10
963.4923081448
 20
1494.7858192191
 30
0.0
 11
950.8531796273
 21
1494.7858192191
 31
0.0
  0
LINE
  5
2C7
330
1F
100
AcDbEntity
  8
0
  6
Continuous
 62
     7
370
    25
100
AcDbLine
 10
963.4923081448
 20
1491.7858192191
 30
0.0
 11
950.8531796273
 21
1491.7858192191
 31
0.0
  0
LINE
  5
2C8
330
1F
100
AcDbEntity
  8
0
  6
Continuous
 62
     7
370
    25
100
AcDbLine
 10
950.8531796273
 20
1504.7858192191
 30
0.0
 11
950.8531796273
 21
1501.7858192191
 31
0.0
  0
LINE
  5
2C9
330
1F
100
AcDbEntity
  8
0
  6
Continuous
 62
     7
370
    25
100
AcDbLine
 10
963.4923081448
 20
1504.7858192191
 30
0.0
 11
963.4923081448
 21
1501.7858192191
 31
0.0
  0
LINE
  5
2CA
330
1F
100
AcDbEntity
  8
0
  6
Continuous
 62
     7
370
    25
100
AcDbLine
 10
963.4923081448
 20
1501.7858192191
 30
0.0
 11
950.8531796273
 21
1501.7858192191
 31
0.0
  0
LINE
  5
2CB
330
1F
100
AcDbEntity
  8
0
  6
Continuous
 62
     7
370
    25
100
AcDbLine
 10
966.189552507
 20
1498.2858192191
 30
0.0
 11
945.3321831406
 21
1498.2858192191
 31
0.0
  0
LINE
  5
2CC
330
1F
100
AcDbEntity
  8
0
  6
Continuous
 62
     7
370
    25
100
AcDbLine
 10
966.8321831406
 20
1498.2858192191
 30
0.0
 11
966.189552507
 21
1498.2858192191
 31
0.0
  0
LINE
  5
2CD
330
1F
100
AcDbEntity
  8
0
  6
Continuous
 62
     7
370
    25
100
AcDbLine
 10
943.4430546232
 20
1494.7858192191
 30
0.0
 11
943.4430546232
 21
1491.7858192191
 31
0.0
  0
LINE
  5
2CE
330
1F
100
AcDbEntity
  8
0
  6
Continuous
 62
     7
370
    25
100
AcDbLine
 10
950.8531796273
 20
1494.7858192191
 30
0.0
 11
943.4430546232
 21
1494.7858192191
 31
0.0
  0
LINE
  5
2CF
330
1F
100
AcDbEntity
  8
0
  6
Continuous
 62
     7
370
    25
100
AcDbLine
 10
950.8531796273
 20
1491.7858192191
 30
0.0
 11
943.4430546232
 21
1491.7858192191
 31
0.0
  0
LINE
  5
2D0
330
1F
100
AcDbEntity
  8
0
  6
Continuous
 62
     7
370
    25
100
AcDbLine
 10
943.4430546232
 20
1504.7858192191
 30
0.0
 11
943.4430546232
 21
1501.7858192191
 31
0.0
  0
LINE
  5
2D1
330
1F
100
AcDbEntity
  8
0
  6
Continuous
 62
     7
370
    25
100
AcDbLine
 10
950.8531796273
 20
1501.7858192191
 30
0.0
 11
943.4430546232
 21
1501.7858192191
 31
0.0
  0
LINE
  5
2D2
330
1F
100
AcDbEntity
  8
0
  6
Continuous
 62
     7
370
    25
100
AcDbLine
 10
968.7213116581
 20
1494.7858192191
 30
0.0
 11
968.7213116581
 21
1491.7858192191
 31
0.0
  0
LINE
  5
2D3
330
1F
100
AcDbEntity
  8
0
  6
Continuous
 62
     7
370
    25
100
AcDbLine
 10
968.7213116581
 20
1494.7858192191
 30
0.0
 11
963.4923081448
 21
1494.7858192191
 31
0.0
  0
LINE
  5
2D4
330
1F
100
AcDbEntity
  8
0
  6
Continuous
 62
     7
370
    25
100
AcDbLine
 10
968.7213116581
 20
1491.7858192191
 30
0.0
 11
963.4923081448
 21
1491.7858192191
 31
0.0
  0
LINE
  5
2D5
330
1F
100
AcDbEntity
  8
0
  6
Continuous
 62
     7
370
    25
100
AcDbLine
 10
968.7213116581
 20
1504.7858192191
 30
0.0
 11
968.7213116581
 21
1501.7858192191
 31
0.0
  0
LINE
  5
2D6
330
1F
100
AcDbEntity
  8
0
  6
Continuous
 62
     7
370
    25
100
AcDbLine
 10
968.7213116581
 20
1501.7858192191
 30
0.0
 11
963.4923081448
 21
1501.7858192191
 31
0.0
  0
LINE
  5
2D7
330
1F
100
AcDbEntity
  8
0
  6
Continuous
 62
     7
370
    25
100
AcDbLine
 10
971.6983652367
 20
1494.7858192191
 30
0.0
 11
971.6983652367
 21
1491.7858192191
 31
0.0
  0
LINE
  5
2D8
330
1F
100
AcDbEntity
  8
0
  6
Continuous
 62
     7
370
    25
100
AcDbLine
 10
984.3374937541
 20
1494.7858192191
 30
0.0
 11
984.3374937541
 21
1491.7858192191
 31
0.0
  0
LINE
  5
2D9
330
1F
100
AcDbEntity
  8
0
  6
Continuous
 62
     7
370
    25
100
AcDbLine
 10
984.3374937541
 20
1494.7858192191
 30
0.0
 11
971.6983652367
 21
1494.7858192191
 31
0.0
  0
LINE
  5
2DA
330
1F
100
AcDbEntity
  8
0
  6
Continuous
 62
     7
370
    25
100
AcDbLine
 10
984.3374937541
 20
1491.7858192191
 30
0.0
 11
971.6983652367
 21
1491.7858192191
 31
0.0
  0
LINE
  5
2DB
330
1F
100
AcDbEntity
  8
0
  6
Continuous
 62
     7
370
    25
100
AcDbLine
 10
971.6983652367
 20
1504.7858192191
 30
0.0
 11
971.6983652367
 21
1501.7858192191
 31
0.0
  0
LINE
  5
2DC
330
1F
100
AcDbEntity
  8
0
  6
Continuous
 62
     7
370
    25
100
AcDbLine
 10
984.3374937541
 20
1504.7858192191
 30
0.0
 11
984.3374937541
 21
1501.7858192191
 31
0.0
  0
LINE
  5
2DD
330
1F
100
AcDbEntity
  8
0
  6
Continuous
 62
     7
370
    25
100
AcDbLine
 10
984.3374937541
 20
1501.7858192191
 30
0.0
 11
971.6983652367
 21
1501.7858192191
 31
0.0
  0
LINE
  5
2DE
330
1F
100
AcDbEntity
  8
0
  6
Continuous
 62
     7
370
    25
100
AcDbLine
 10
987.0347381164
 20
1498.2858192191
 30
0.0
 11
966.8321831406
 21
1498.2858192191
 31
0.0
  0
LINE
  5
2DF
330
1F
100
AcDbEntity
  8
0
  6
Continuous
 62
     7
370
    25
100
AcDbLine
 10
987.67736875
 20
1498.2858192191
 30
0.0
 11
987.0347381164
 21
1498.2858192191
 31
0.0
  0
LINE
  5
2E0
330
1F
100
AcDbEntity
  8
0
  6
Continuous
 62
     7
370
    25
100
AcDbLine
 10
971.6983652367
 20
1501.7858192191
 30
0.0
 11
968.7213116581
 21
1501.7858192191
 31
0.0
  0
LINE
  5
2E1
330
1F
100
AcDbEntity
  8
0
  6
Continuous
 62
     7
370
    25
100
AcDbLine
 10
971.6983652367
 20
1494.7858192191
 30
0.0
 11
968.7213116581
 21
1494.7858192191
 31
0.0
  0
LINE
  5
2E2
330
1F
100
AcDbEntity
  8
0
  6
Continuous
 62
     7
370
    25
100
AcDbLine
 10
971.6983652367
 20
1491.7858192191
 30
0.0
 11
968.7213116581
 21
1491.7858192191
 31
0.0
  0
LINE
  5
2E3
330
1F
100
AcDbEntity
  8
0
  6
Continuous
 62
     7
370
    25
100
AcDbLine
 10
989.5664972674
 20
1504.7858192191
 30
0.0
 11
989.5664972674
 21
1501.7858192191
 31
0.0
  0
LINE
  5
2E4
330
1F
100
AcDbEntity
  8
0
  6
Continuous
 62
     7
370
    25
100
AcDbLine
 10
989.5664972674
 20
1501.7858192191
 30
0.0
 11
984.3374937541
 21
1501.7858192191
 31
0.0
  0
LINE
  5
2E5
330
1F
100
AcDbEntity
  8
0
  6
Continuous
 62
     7
370
    25
100
AcDbLine
 10
989.5664972674
 20
1494.7858192191
 30
0.0
 11
989.5664972674
 21
1491.7858192191
 31
0.0
  0
LINE
  5
2E6
330
1F
100
AcDbEntity
  8
0
  6
Continuous
 62
     7
370
    25
100
AcDbLine
 10
989.5664972674
 20
1494.7858192191
 30
0.0
 11
984.3374937541
 21
1494.7858192191
 31
0.0
  0
LINE
  5
2E7
330
1F
100
AcDbEntity
  8
0
  6
Continuous
 62
     7
370
    25
100
AcDbLine
 10
989.5664972674
 20
1491.7858192191
 30
0.0
 11
984.3374937541
 21
1491.7858192191
 31
0.0
  0
LINE
  5
2E8
330
1F
100
AcDbEntity
  8
0
  6
Continuous
 62
     7
370
    25
100
AcDbLine
 10
919.4588020187
 20
1576.4858192191
 30
0.0
 11
923.2588020187
 21
1576.4858192191
 31
0.0
  0
LINE
  5
2E9
330
1F
100
AcDbEntity
  8
0
  6
Continuous
 62
     7
370
    25
100
AcDbLine
 10
917.5588020187
 20
1574.6658192191
 30
0.0
 11
923.7893777551
 21
1574.6658192191
 31
0.0
  0
LINE
  5
2EA
330
1F
100
AcDbEntity
  8
0
  6
Continuous
 62
     7
370
    25
100
AcDbLine
 10
1010.3565969102
 20
1504.4058192191
 30
0.0
 11
1007.8507498718
 21
1504.4058192191
 31
0.0
  0
LINE
  5
2EB
330
1F
100
AcDbEntity
  8
0
  6
Continuous
 62
     7
370
    25
100
AcDbLine
 10
1015.4507498718
 20
1504.4058192191
 30
0.0
 11
1010.3565969102
 21
1504.4058192191
 31
0.0
  0
LINE
  5
2EC
330
1F
100
AcDbEntity
  8
0
  6
Continuous
 62
     7
370
    25
100
AcDbLine
 10
1011.003673391
 20
1502.5858192191
 30
0.0
 11
1009.7507498718
 21
1502.5858192191
 31
0.0
  0
LINE
  5
2ED
330
1F
100
AcDbEntity
  8
0
  6
Continuous
 62
     7
370
    25
100
AcDbLine
 10
1013.5507498718
 20
1502.5858192191
 30
0.0
 11
1011.003673391
 21
1502.5858192191
 31
0.0
  0
LINE
  5
2EE
330
1F
100
AcDbEntity
  8
0
  6
Continuous
 62
     7
370
    25
100
AcDbLine
 10
974.9942284658
 20
1504.4058192191
 30
0.0
 11
972.4883814274
 21
1504.4058192191
 31
0.0
  0
LINE
  5
2EF
330
1F
100
AcDbEntity
  8
0
  6
Continuous
 62
     7
370
    25
100
AcDbLine
 10
980.0883814274
 20
1504.4058192191
 30
0.0
 11
974.9942284658
 21
1504.4058192191
 31
0.0
  0
LINE
  5
2F0
330
1F
100
AcDbEntity
  8
0
  6
Continuous
 62
     7
370
    25
100
AcDbLine
 10
975.6413049466
 20
1502.5858192191
 30
0.0
 11
974.3883814274
 21
1502.5858192191
 31
0.0
  0
LINE
  5
2F1
330
1F
100
AcDbEntity
  8
0
  6
Continuous
 62
     7
370
    25
100
AcDbLine
 10
978.1883814274
 20
1502.5858192191
 30
0.0
 11
975.6413049466
 21
1502.5858192191
 31
0.0
  0
LINE
  5
2F2
330
1F
100
AcDbEntity
  8
0
  6
Continuous
 62
     7
370
    25
100
AcDbLine
 10
974.3883814274
 20
1576.4858192191
 30
0.0
 11
978.1883814274
 21
1576.4858192191
 31
0.0
  0
LINE
  5
2F3
330
1F
100
AcDbEntity
  8
0
  6
Continuous
 62
     7
370
    25
100
AcDbLine
 10
972.4883814274
 20
1574.6658192191
 30
0.0
 11
980.0883814274
 21
1574.6658192191
 31
0.0
  0
LINE
  5
2F4
330
1F
100
AcDbEntity
  8
0
  6
Continuous
 62
     7
370
    25
100
AcDbLine
 10
929.2424075008
 20
1576.4858192191
 30
0.0
 11
933.0424075008
 21
1576.4858192191
 31
0.0
  0
LINE
  5
2F5
330
1F
100
AcDbEntity
  8
0
  6
Continuous
 62
     7
370
    25
100
AcDbLine
 10
927.3424075008
 20
1574.6658192191
 30
0.0
 11
934.9424075008
 21
1574.6658192191
 31
0.0
  0
LINE
  5
2F6
330
1F
100
AcDbEntity
  8
0
  6
Continuous
 62
     7
370
    25
100
AcDbLine
 10
920.711725538
 20
1502.5858192191
 30
0.0
 11
919.4588020188
 21
1502.5858192191
 31
0.0
  0
LINE
  5
2F7
330
1F
100
AcDbEntity
  8
0
  6
Continuous
 62
     7
370
    25
100
AcDbLine
 10
923.2588020188
 20
1502.5858192191
 30
0.0
 11
920.711725538
 21
1502.5858192191
 31
0.0
  0
LINE
  5
2F8
330
1F
100
AcDbEntity
  8
0
  6
Continuous
 62
     7
370
    25
100
AcDbLine
 10
920.0646490572
 20
1504.4058192191
 30
0.0
 11
917.5588020188
 21
1504.4058192191
 31
0.0
  0
LINE
  5
2F9
330
1F
100
AcDbEntity
  8
0
  6
Continuous
 62
     7
370
    25
100
AcDbLine
 10
925.1588020188
 20
1504.4058192191
 30
0.0
 11
920.0646490572
 21
1504.4058192191
 31
0.0
  0
LINE
  5
2FA
330
1F
100
AcDbEntity
  8
0
  6
Continuous
 62
     7
370
    25
100
AcDbLine
 10
1009.7507498718
 20
1576.4858192191
 30
0.0
 11
1013.5507498718
 21
1576.4858192191
 31
0.0
  0
LINE
  5
2FB
330
1F
100
AcDbEntity
  8
0
  6
Continuous
 62
     7
370
    25
100
AcDbLine
 10
1007.8507498718
 20
1574.6658192191
 30
0.0
 11
1015.4507498718
 21
1574.6658192191
 31
0.0
  0
LINE
  5
2FC
330
1F
100
AcDbEntity
  8
0
  6
Continuous
 62
     7
370
    25
100
AcDbLine
 10
1000.5729914282
 20
1504.4058192191
 30
0.0
 11
998.0671443897
 21
1504.4058192191
 31
0.0
  0
LINE
  5
2FD
330
1F
100
AcDbEntity
  8
0
  6
Continuous
 62
     7
370
    25
100
AcDbLine
 10
1005.6671443897
 20
1504.4058192191
 30
0.0
 11
1000.5729914282
 21
1504.4058192191
 31
0.0
  0
LINE
  5
2FE
330
1F
100
AcDbEntity
  8
0
  6
Continuous
 62
     7
370
    25
100
AcDbLine
 10
1001.220067909
 20
1502.5858192191
 30
0.0
 11
999.9671443897
 21
1502.5858192191
 31
0.0
  0
LINE
  5
2FF
330
1F
100
AcDbEntity
  8
0
  6
Continuous
 62
     7
370
    25
100
AcDbLine
 10
1003.7671443897
 20
1502.5858192191
 30
0.0
 11
1001.220067909
 21
1502.5858192191
 31
0.0
  0
LINE
  5
300
330
1F
100
AcDbEntity
  8
0
  6
Continuous
 62
     7
370
    25
100
AcDbLine
 10
930.4953310201
 20
1502.5858192191
 30
0.0
 11
929.2424075009
 21
1502.5858192191
 31
0.0
  0
LINE
  5
301
330
1F
100
AcDbEntity
  8
0
  6
Continuous
 62
     7
370
    25
100
AcDbLine
 10
933.0424075009
 20
1502.5858192191
 30
0.0
 11
930.4953310201
 21
1502.5858192191
 31
0.0
  0
LINE
  5
302
330
1F
100
AcDbEntity
  8
0
  6
Continuous
 62
     7
370
    25
100
AcDbLine
 10
929.8482545393
 20
1504.4058192191
 30
0.0
 11
927.3424075009
 21
1504.4058192191
 31
0.0
  0
LINE
  5
303
330
1F
100
AcDbEntity
  8
0
  6
Continuous
 62
     7
370
    25
100
AcDbLine
 10
934.9424075009
 20
1504.4058192191
 30
0.0
 11
929.8482545393
 21
1504.4058192191
 31
0.0
  0
LINE
  5
304
330
1F
100
AcDbEntity
  8
0
  6
Continuous
 62
     7
370
    25
100
AcDbLine
 10
972.3137015542
 20
1506.2858192191
 30
0.0
 11
972.3137015542
 21
1507.7858192191
 31
0.0
  0
LINE
  5
305
330
1F
100
AcDbEntity
  8
0
  6
Continuous
 62
     7
370
    25
100
AcDbLine
 10
980.2883814275
 20
1507.7858192191
 30
0.0
 11
972.3137015542
 21
1507.7858192191
 31
0.0
  0
LINE
  5
306
330
1F
100
AcDbEntity
  8
0
  6
Continuous
 62
     7
370
    25
100
AcDbLine
 10
980.2883814275
 20
1506.2858192191
 30
0.0
 11
972.3137015542
 21
1506.2858192191
 31
0.0
  0
LINE
  5
307
330
1F
100
AcDbEntity
  8
0
  6
Continuous
 62
     7
370
    25
100
AcDbLine
 10
971.8688170872
 20
1506.2858192191
 30
0.0
 11
971.8688170872
 21
1507.7858192191
 31
0.0
  0
LINE
  5
308
330
1F
100
AcDbEntity
  8
0
  6
Continuous
 62
     7
370
    25
100
AcDbLine
 10
972.3137015542
 20
1507.7858192191
 30
0.0
 11
972.1185714725
 21
1507.7858192191
 31
0.0
  0
LINE
  5
309
330
1F
100
AcDbEntity
  8
0
  6
Continuous
 62
     7
370
    25
100
AcDbLine
 10
972.3137015542
 20
1506.2858192191
 30
0.0
 11
972.1185714725
 21
1506.2858192191
 31
0.0
  0
LINE
  5
30A
330
1F
100
AcDbEntity
  8
0
  6
Continuous
 62
     7
370
    25
100
AcDbLine
 10
968.7730304877
 20
1506.2858192191
 30
0.0
 11
968.7730304877
 21
1507.7858192191
 31
0.0
  0
LINE
  5
30B
330
1F
100
AcDbEntity
  8
0
  6
Continuous
 62
     7
370
    25
100
AcDbLine
 10
939.5937133335
 20
1506.2858192191
 30
0.0
 11
939.5937133335
 21
1507.7858192191
 31
0.0
  0
LINE
  5
30C
330
1F
100
AcDbEntity
  8
0
  6
Continuous
 62
     7
370
    25
100
AcDbLine
 10
967.2568700529
 20
1507.7858192191
 30
0.0
 11
940.784902522
 21
1507.7858192191
 31
0.0
  0
LINE
  5
30D
330
1F
100
AcDbEntity
  8
0
  6
Continuous
 62
     7
370
    25
100
AcDbLine
 10
967.256870053
 20
1506.2858192191
 30
0.0
 11
940.7849025221
 21
1506.2858192191
 31
0.0
  0
LINE
  5
30E
330
1F
100
AcDbEntity
  8
0
  6
Continuous
 62
     7
370
    25
100
AcDbLine
 10
1004.3925257046
 20
1506.2858192191
 30
0.0
 11
1004.3925257046
 21
1507.7858192191
 31
0.0
  0
LINE
  5
30F
330
1F
100
AcDbEntity
  8
0
  6
Continuous
 62
     7
370
    25
100
AcDbLine
 10
981.5366722492
 20
1506.2858192191
 30
0.0
 11
981.5366722492
 21
1507.7858192191
 31
0.0
  0
LINE
  5
310
330
1F
100
AcDbEntity
  8
0
  6
Continuous
 62
     7
370
    25
100
AcDbLine
 10
1003.6811391097
 20
1507.7858192191
 30
0.0
 11
982.9459242531
 21
1507.7858192191
 31
0.0
  0
LINE
  5
311
330
1F
100
AcDbEntity
  8
0
  6
Continuous
 62
     7
370
    25
100
AcDbLine
 10
1003.6199591904
 20
1506.2858192191
 30
0.0
 11
982.9459242531
 21
1506.2858192191
 31
0.0
  0
LINE
  5
312
330
1F
100
AcDbEntity
  8
0
  6
Continuous
 62
     7
370
    25
100
AcDbLine
 10
934.0831308606
 20
1506.2858192191
 30
0.0
 11
934.0831308606
 21
1507.7858192191
 31
0.0
  0
LINE
  5
313
330
1F
100
AcDbEntity
  8
0
  6
Continuous
 62
     7
370
    25
100
AcDbLine
 10
934.0831308606
 20
1507.7858192191
 30
0.0
 11
927.1424075008
 21
1507.7858192191
 31
0.0
  0
LINE
  5
314
330
1F
100
AcDbEntity
  8
0
  6
Continuous
 62
     7
370
    25
100
AcDbLine
 10
934.0831308606
 20
1506.2858192191
 30
0.0
 11
927.1424075008
 21
1506.2858192191
 31
0.0
  0
LINE
  5
315
330
1F
100
AcDbEntity
  8
0
  6
Continuous
 62
     7
370
    25
100
AcDbLine
 10
935.6911442322
 20
1506.2858192191
 30
0.0
 11
935.6911442322
 21
1507.7858192191
 31
0.0
  0
LINE
  5
316
330
1F
100
AcDbEntity
  8
0
  6
Continuous
 62
     7
370
    25
100
AcDbLine
 10
934.7884190969
 20
1507.7858192191
 30
0.0
 11
934.0831308606
 21
1507.7858192191
 31
0.0
  0
LINE
  5
317
330
1F
100
AcDbEntity
  8
0
  6
Continuous
 62
     7
370
    25
100
AcDbLine
 10
934.788419095
 20
1506.2858192191
 30
0.0
 11
934.0831308606
 21
1506.2858192191
 31
0.0
  0
LINE
  5
318
330
1F
100
AcDbEntity
  8
0
  6
Continuous
 62
     7
370
    25
100
AcDbLine
 10
927.1424075008
 20
1507.7858192191
 30
0.0
 11
924.0047759453
 21
1507.7858192191
 31
0.0
  0
LINE
  5
319
330
1F
100
AcDbEntity
  8
0
  6
Continuous
 62
     7
370
    25
100
AcDbLine
 10
927.1424075009
 20
1506.2858192191
 30
0.0
 11
924.0047759453
 21
1506.2858192191
 31
0.0
  0
LINE
  5
31A
330
1F
100
AcDbEntity
  8
0
  6
Continuous
 62
     7
370
    25
100
AcDbLine
 10
1007.9996649319
 20
1506.2858192191
 30
0.0
 11
1007.9996649319
 21
1507.7858192191
 31
0.0
  0
LINE
  5
31B
330
1F
100
AcDbEntity
  8
0
  6
Continuous
 62
     7
370
    25
100
AcDbLine
 10
1010.0525627705
 20
1506.2858192191
 30
0.0
 11
1010.0525627705
 21
1507.7858192191
 31
0.0
  0
LINE
  5
31C
330
1F
100
AcDbEntity
  8
0
  6
Continuous
 62
     7
370
    25
100
AcDbLine
 10
1015.6507498719
 20
1507.7858192191
 30
0.0
 11
1010.0525627705
 21
1507.7858192191
 31
0.0
  0
LINE
  5
31D
330
1F
100
AcDbEntity
  8
0
  6
Continuous
 62
     7
370
    25
100
AcDbLine
 10
1015.6507498719
 20
1506.2858192191
 30
0.0
 11
1010.0525627705
 21
1506.2858192191
 31
0.0
  0
LINE
  5
31E
330
1F
100
AcDbEntity
  8
0
  6
Continuous
 62
     7
370
    25
100
AcDbLine
 10
1010.0525627705
 20
1507.7858192191
 30
0.0
 11
1009.1521444525
 21
1507.7858192191
 31
0.0
  0
LINE
  5
31F
330
1F
100
AcDbEntity
  8
0
  6
Continuous
 62
     7
370
    25
100
AcDbLine
 10
1010.0525627705
 20
1506.2858192191
 30
0.0
 11
1009.1521444544
 21
1506.2858192191
 31
0.0
  0
LINE
  5
320
330
1F
100
AcDbEntity
  8
0
  6
Continuous
 62
     7
370
    25
100
AcDbLine
 10
922.5338474092
 20
1506.2858192191
 30
0.0
 11
922.5338474092
 21
1507.7858192191
 31
0.0
  0
LINE
  5
321
330
1F
100
AcDbEntity
  8
0
  6
Continuous
 62
     7
370
    25
100
AcDbLine
 10
920.4809495706
 20
1506.2858192191
 30
0.0
 11
920.4809495706
 21
1507.7858192191
 31
0.0
  0
LINE
  5
322
330
1F
100
AcDbEntity
  8
0
  6
Continuous
 62
     7
370
    25
100
AcDbLine
 10
921.3813678891
 20
1507.7858192191
 30
0.0
 11
920.4809495706
 21
1507.7858192191
 31
0.0
  0
LINE
  5
323
330
1F
100
AcDbEntity
  8
0
  6
Continuous
 62
     7
370
    25
100
AcDbLine
 10
921.3813678866
 20
1506.2858192191
 30
0.0
 11
920.4809495706
 21
1506.2858192191
 31
0.0
  0
LINE
  5
324
330
1F
100
AcDbEntity
  8
0
  6
Continuous
 62
     7
370
    25
100
AcDbLine
 10
920.4809495706
 20
1507.7858192191
 30
0.0
 11
917.3588020187
 21
1507.7858192191
 31
0.0
  0
LINE
  5
325
330
1F
100
AcDbEntity
  8
0
  6
Continuous
 62
     7
370
    25
100
AcDbLine
 10
920.4809495706
 20
1506.2858192191
 30
0.0
 11
917.3588020187
 21
1506.2858192191
 31
0.0
  0
LINE
  5
326
330
1F
100
AcDbEntity
  8
0
  6
Continuous
 62
     7
370
    25
100
AcDbLine
 10
972.3137015542
 20
1504.7858192191
 30
0.0
 11
972.3137015542
 21
1506.2858192191
 31
0.0
  0
LINE
  5
327
330
1F
100
AcDbEntity
  8
0
  6
Continuous
 62
     7
370
    25
100
AcDbLine
 10
980.2883814275
 20
1504.7858192191
 30
0.0
 11
972.3137015542
 21
1504.7858192191
 31
0.0
  0
LINE
  5
328
330
1F
100
AcDbEntity
  8
0
  6
Continuous
 62
     7
370
    25
100
AcDbLine
 10
967.256870053
 20
1504.7858192191
 30
0.0
 11
967.256870053
 21
1506.2858192191
 31
0.0
  0
LINE
  5
329
330
1F
100
AcDbEntity
  8
0
  6
Continuous
 62
     7
370
    25
100
AcDbLine
 10
940.7849025221
 20
1504.7858192191
 30
0.0
 11
940.7849025221
 21
1506.2858192191
 31
0.0
  0
LINE
  5
32A
330
1F
100
AcDbEntity
  8
0
  6
Continuous
 62
     7
370
    25
100
AcDbLine
 10
967.256870053
 20
1504.7858192191
 30
0.0
 11
940.7849025221
 21
1504.7858192191
 31
0.0
  0
LINE
  5
32B
330
1F
100
AcDbEntity
  8
0
  6
Continuous
 62
     7
370
    25
100
AcDbLine
 10
972.3137015542
 20
1504.7858192191
 30
0.0
 11
967.256870053
 21
1504.7858192191
 31
0.0
  0
LINE
  5
32C
330
1F
100
AcDbEntity
  8
0
  6
Continuous
 62
     7
370
    25
100
AcDbLine
 10
972.1185714725
 20
1506.2858192191
 30
0.0
 11
967.256870053
 21
1506.2858192191
 31
0.0
  0
LINE
  5
32D
330
1F
100
AcDbEntity
  8
0
  6
Continuous
 62
     7
370
    25
100
AcDbLine
 10
982.9459242531
 20
1504.7858192191
 30
0.0
 11
982.9459242531
 21
1506.2858192191
 31
0.0
  0
LINE
  5
32E
330
1F
100
AcDbEntity
  8
0
  6
Continuous
 62
     7
370
    25
100
AcDbLine
 10
982.9459242531
 20
1504.7858192191
 30
0.0
 11
980.2883814275
 21
1504.7858192191
 31
0.0
  0
LINE
  5
32F
330
1F
100
AcDbEntity
  8
0
  6
Continuous
 62
     7
370
    25
100
AcDbLine
 10
982.9459242531
 20
1506.2858192191
 30
0.0
 11
980.2883814275
 21
1506.2858192191
 31
0.0
  0
LINE
  5
330
330
1F
100
AcDbEntity
  8
0
  6
Continuous
 62
     7
370
    25
100
AcDbLine
 10
1003.6811391098
 20
1504.7858192191
 30
0.0
 11
1003.6811391098
 21
1506.2858192191
 31
0.0
  0
LINE
  5
331
330
1F
100
AcDbEntity
  8
0
  6
Continuous
 62
     7
370
    25
100
AcDbLine
 10
1003.6811391098
 20
1504.7858192191
 30
0.0
 11
982.9459242531
 21
1504.7858192191
 31
0.0
  0
LINE
  5
332
330
1F
100
AcDbEntity
  8
0
  6
Continuous
 62
     7
370
    25
100
AcDbLine
 10
1003.6811391098
 20
1506.2858192191
 30
0.0
 11
982.9459242531
 21
1506.2858192191
 31
0.0
  0
LINE
  5
333
330
1F
100
AcDbEntity
  8
0
  6
Continuous
 62
     7
370
    25
100
AcDbLine
 10
934.0831308607
 20
1504.7858192191
 30
0.0
 11
934.0831308607
 21
1506.2858192191
 31
0.0
  0
LINE
  5
334
330
1F
100
AcDbEntity
  8
0
  6
Continuous
 62
     7
370
    25
100
AcDbLine
 10
940.7849025221
 20
1504.7858192191
 30
0.0
 11
934.0831308607
 21
1504.7858192191
 31
0.0
  0
LINE
  5
335
330
1F
100
AcDbEntity
  8
0
  6
Continuous
 62
     7
370
    25
100
AcDbLine
 10
940.7849025221
 20
1506.2858192191
 30
0.0
 11
934.788419095
 21
1506.2858192191
 31
0.0
  0
LINE
  5
336
330
1F
100
AcDbEntity
  8
0
  6
Continuous
 62
     7
370
    25
100
AcDbLine
 10
934.0831308607
 20
1504.7858192191
 30
0.0
 11
927.1424075009
 21
1504.7858192191
 31
0.0
  0
LINE
  5
337
330
1F
100
AcDbEntity
  8
0
  6
Continuous
 62
     7
370
    25
100
AcDbLine
 10
1010.0525627705
 20
1504.7858192191
 30
0.0
 11
1010.0525627705
 21
1506.2858192191
 31
0.0
  0
LINE
  5
338
330
1F
100
AcDbEntity
  8
0
  6
Continuous
 62
     7
370
    25
100
AcDbLine
 10
1010.0525627705
 20
1504.7858192191
 30
0.0
 11
1003.6811391098
 21
1504.7858192191
 31
0.0
  0
LINE
  5
339
330
1F
100
AcDbEntity
  8
0
  6
Continuous
 62
     7
370
    25
100
AcDbLine
 10
1009.1521444544
 20
1506.2858192191
 30
0.0
 11
1003.6811391098
 21
1506.2858192191
 31
0.0
  0
LINE
  5
33A
330
1F
100
AcDbEntity
  8
0
  6
Continuous
 62
     7
370
    25
100
AcDbLine
 10
927.1424075009
 20
1504.7858192191
 30
0.0
 11
924.0047759454
 21
1504.7858192191
 31
0.0
  0
LINE
  5
33B
330
1F
100
AcDbEntity
  8
0
  6
Continuous
 62
     7
370
    25
100
AcDbLine
 10
1015.6507498719
 20
1504.7858192191
 30
0.0
 11
1010.0525627705
 21
1504.7858192191
 31
0.0
  0
LINE
  5
33C
330
1F
100
AcDbEntity
  8
0
  6
Continuous
 62
     7
370
    25
100
AcDbLine
 10
920.4809495707
 20
1504.7858192191
 30
0.0
 11
920.4809495707
 21
1506.2858192191
 31
0.0
  0
LINE
  5
33D
330
1F
100
AcDbEntity
  8
0
  6
Continuous
 62
     7
370
    25
100
AcDbLine
 10
924.0047759454
 20
1504.7858192191
 30
0.0
 11
920.4809495707
 21
1504.7858192191
 31
0.0
  0
LINE
  5
33E
330
1F
100
AcDbEntity
  8
0
  6
Continuous
 62
     7
370
    25
100
AcDbLine
 10
924.0047759454
 20
1506.2858192191
 30
0.0
 11
921.3813678866
 21
1506.2858192191
 31
0.0
  0
LINE
  5
33F
330
1F
100
AcDbEntity
  8
0
  6
Continuous
 62
     7
370
    25
100
AcDbLine
 10
920.4809495707
 20
1504.7858192191
 30
0.0
 11
917.3588020188
 21
1504.7858192191
 31
0.0
  0
LINE
  5
340
330
1F
100
AcDbEntity
  8
0
  6
Continuous
 62
     7
370
    25
100
AcDbLine
 10
972.1185714725
 20
1507.7858192191
 30
0.0
 11
967.2568700529
 21
1507.7858192191
 31
0.0
  0
LINE
  5
341
330
1F
100
AcDbEntity
  8
0
  6
Continuous
 62
     7
370
    25
100
AcDbLine
 10
980.2883814274
 20
1507.7858192191
 30
0.0
 11
982.9459242531
 21
1507.7858192191
 31
0.0
  0
LINE
  5
342
330
1F
100
AcDbEntity
  8
0
  6
Continuous
 62
     7
370
    25
100
AcDbLine
 10
934.7884190969
 20
1507.7858192191
 30
0.0
 11
940.784902522
 21
1507.7858192191
 31
0.0
  0
LINE
  5
343
330
1F
100
AcDbEntity
  8
0
  6
Continuous
 62
     7
370
    25
100
AcDbLine
 10
1009.1521444525
 20
1507.7858192191
 30
0.0
 11
1003.6811391097
 21
1507.7858192191
 31
0.0
  0
LINE
  5
344
330
1F
100
AcDbEntity
  8
0
  6
Continuous
 62
     7
370
    25
100
AcDbLine
 10
921.3813678891
 20
1507.7858192191
 30
0.0
 11
924.0047759453
 21
1507.7858192191
 31
0.0
  0
LINE
  5
345
330
1F
100
AcDbEntity
  8
0
  6
Continuous
 62
     7
370
    25
100
AcDbLine
 10
893.0327266069
 20
1509.7858192191
 30
0.0
 11
891.6974168192
 21
1509.7858192191
 31
0.0
  0
LWPOLYLINE
  5
346
330
1F
100
AcDbEntity
  8
0
  6
Continuous
 62
     7
370
    25
100
AcDbPolyline
 90
        9
 70
   128
 43
0.0
 10
891.6974168192
 20
1509.7858192191
 10
890.9712214669
 20
1509.8818928171
 10
890.2729333947
 20
1510.1664215566
 10
889.6293874217
 20
1510.6284711576
 10
889.0653146586
 20
1511.2502853132
 10
888.6023921055
 20
1512.007968054
 10
888.2584096164
 20
1512.8724020573
 10
888.0465862455
 20
1513.810367609
 10
887.9750622461
 20
1514.7858192191
  0
LINE
  5
347
330
1F
100
AcDbEntity
  8
0
  6
Continuous
 62
     7
370
    25
100
AcDbLine
 10
887.9750622461
 20
1514.7858192191
 30
0.0
 11
889.3103720338
 21
1514.7858192191
 31
0.0
  0
LWPOLYLINE
  5
348
330
1F
100
AcDbEntity
  8
0
  6
Continuous
 62
     7
370
    25
100
AcDbPolyline
 90
        9
 70
   128
 43
0.0
 10
889.3103720338
 20
1514.7858192191
 10
889.3818960332
 20
1513.810367609
 10
889.5937194041
 20
1512.8724020573
 10
889.9377018932
 20
1512.007968054
 10
890.4006244463
 20
1511.2502853132
 10
890.9646972094
 20
1510.6284711576
 10
891.6082431824
 20
1510.1664215566
 10
892.3065312546
 20
1509.8818928171
 10
893.0327266069
 20
1509.7858192191
  0
LINE
  5
349
330
1F
100
AcDbEntity
  8
0
  6
Continuous
 62
     7
370
    25
100
AcDbLine
 10
887.9750622461
 20
1514.7858192191
 30
0.0
 11
887.9750622461
 21
1554.7858192191
 31
0.0
  0
LINE
  5
34A
330
1F
100
AcDbEntity
  8
0
  6
Continuous
 62
     7
370
    25
100
AcDbLine
 10
889.3103720338
 20
1554.7858192191
 30
0.0
 11
887.9750622461
 21
1554.7858192191
 31
0.0
  0
LINE
  5
34B
330
1F
100
AcDbEntity
  8
0
  6
Continuous
 62
     7
370
    25
100
AcDbLine
 10
889.3103720338
 20
1514.7858192191
 30
0.0
 11
889.3103720338
 21
1554.7858192191
 31
0.0
  0
LWPOLYLINE
  5
34C
330
1F
100
AcDbEntity
  8
0
  6
Continuous
 62
     7
370
    25
100
AcDbPolyline
 90
        9
 70
   128
 43
0.0
 10
887.9750622461
 20
1554.7858192191
 10
888.0465862455
 20
1555.7612708292
 10
888.2584096164
 20
1556.6992363809
 10
888.6023921055
 20
1557.5636703842
 10
889.0653146586
 20
1558.321353125
 10
889.6293874217
 20
1558.9431672806
 10
890.2729333947
 20
1559.4052168817
 10
890.9712214669
 20
1559.6897456211
 10
891.6974168192
 20
1559.7858192191
  0
LINE
  5
34D
330
1F
100
AcDbEntity
  8
0
  6
Continuous
 62
     7
370
    25
100
AcDbLine
 10
891.6974168192
 20
1559.7858192191
 30
0.0
 11
893.0327266069
 21
1559.7858192191
 31
0.0
  0
LWPOLYLINE
  5
34E
330
1F
100
AcDbEntity
  8
0
  6
Continuous
 62
     7
370
    25
100
AcDbPolyline
 90
        9
 70
   128
 43
0.0
 10
893.0327266069
 20
1559.7858192191
 10
892.3065312546
 20
1559.6897456211
 10
891.6082431824
 20
1559.4052168817
 10
890.9646972094
 20
1558.9431672806
 10
890.4006244463
 20
1558.321353125
 10
889.9377018932
 20
1557.5636703842
 10
889.5937194041
 20
1556.6992363809
 10
889.3818960332
 20
1555.7612708292
 10
889.3103720338
 20
1554.7858192191
  0
LINE
  5
34F
330
1F
100
AcDbEntity
  8
0
  6
Continuous
 62
     7
370
    25
100
AcDbLine
 10
904.016224113
 20
1559.7858192191
 30
0.0
 11
904.016224113
 21
1509.7858192191
 31
0.0
  0
LINE
  5
350
330
1F
100
AcDbEntity
  8
0
  6
Continuous
 62
     7
370
    25
100
AcDbLine
 10
904.016224113
 20
1509.7858192191
 30
0.0
 11
893.0327266069
 21
1509.7858192191
 31
0.0
  0
LINE
  5
351
330
1F
100
AcDbEntity
  8
0
  6
Continuous
 62
     7
370
    25
100
AcDbLine
 10
893.0327266069
 20
1559.7858192191
 30
0.0
 11
904.016224113
 21
1559.7858192191
 31
0.0
  0
LWPOLYLINE
  5
352
330
1F
100
AcDbEntity
  8
0
  6
Continuous
 62
     7
370
    25
100
AcDbPolyline
 90
       19
 70
   128
 43
0.0
 10
894.2958984735
 20
1534.7858192191
 10
894.4373243063
 20
1535.8631826706
 10
894.8445437619
 20
1536.8106001896
 10
895.4684401641
 20
1537.513799241
 10
896.233762399
 20
1537.8879636411
 10
897.0482013102
 20
1537.8879636411
 10
897.8135235451
 20
1537.513799241
 10
898.4374199473
 20
1536.8106001896
 10
898.8446394029
 20
1535.8631826706
 10
898.9860652356
 20
1534.7858192191
 10
898.8446394029
 20
1533.7084557676
 10
898.4374199473
 20
1532.7610382486
 10
897.8135235451
 20
1532.0578391972
 10
897.0482013102
 20
1531.6836747971
 10
896.233762399
 20
1531.6836747971
 10
895.4684401641
 20
1532.0578391972
 10
894.8445437619
 20
1532.7610382486
 10
894.4373243063
 20
1533.7084557676
 10
894.2958984735
 20
1534.7858192191
  0
ARC
  5
353
330
1F
100
AcDbEntity
  8
0
  6
Continuous
 62
     7
370
    25
100
AcDbCircle
 10
894.226441472
 20
1534.7858192191
 30
0.0
 40
3.494077937203052
100
AcDbArc
 50
300.6951245972
 51
59.3048754028
  0
LINE
  5
354
330
1F
100
AcDbEntity
  8
0
  6
Continuous
 62
     7
370
    25
100
AcDbLine
 10
917.3588020188
 20
1509.7858192191
 30
0.0
 11
904.4421445298
 21
1509.7858192191
 31
0.0
  0
LINE
  5
355
330
1F
100
AcDbEntity
  8
0
  6
Continuous
 62
     7
370
    25
100
AcDbLine
 10
904.4421445298
 20
1559.7858192191
 30
0.0
 11
904.4421445298
 21
1509.7858192191
 31
0.0
  0
LINE
  5
356
330
1F
100
AcDbEntity
  8
0
  6
Continuous
 62
     7
370
    25
100
AcDbLine
 10
904.4421445298
 20
1559.7858192191
 30
0.0
 11
917.3588020188
 21
1559.7858192191
 31
0.0
  0
LINE
  5
357
330
1F
100
AcDbEntity
  8
0
  6
Continuous
 62
     7
370
    25
100
AcDbLine
 10
904.4421445298
 20
1559.7858192191
 30
0.0
 11
904.016224113
 21
1559.7858192191
 31
0.0
  0
LINE
  5
358
330
1F
100
AcDbEntity
  8
0
  6
Continuous
 62
     7
370
    25
100
AcDbLine
 10
904.016224113
 20
1509.7858192191
 30
0.0
 11
904.4421445298
 21
1509.7858192191
 31
0.0
  0
LWPOLYLINE
  5
359
330
1F
100
AcDbEntity
  8
0
  6
Continuous
 62
     7
370
    25
100
AcDbPolyline
 90
        9
 70
   128
 43
0.0
 10
884.1957022905
 20
1559.7858192191
 10
883.4695069381
 20
1559.6897456211
 10
882.7712188659
 20
1559.4052168817
 10
882.1276728929
 20
1558.9431672806
 10
881.5636001298
 20
1558.321353125
 10
881.1006775767
 20
1557.5636703842
 10
880.7566950876
 20
1556.6992363809
 10
880.5448717167
 20
1555.7612708292
 10
880.4733477174
 20
1554.7858192191
  0
LINE
  5
35A
330
1F
100
AcDbEntity
  8
0
  6
Continuous
 62
     7
370
    25
100
AcDbLine
 10
891.6974168192
 20
1559.7858192191
 30
0.0
 11
884.1957022905
 21
1559.7858192191
 31
0.0
  0
LINE
  5
35B
330
1F
100
AcDbEntity
  8
0
  6
Continuous
 62
     7
370
    25
100
AcDbLine
 10
884.1957022905
 20
1509.7858192191
 30
0.0
 11
891.6974168192
 21
1509.7858192191
 31
0.0
  0
LWPOLYLINE
  5
35C
330
1F
100
AcDbEntity
  8
0
  6
Continuous
 62
     7
370
    25
100
AcDbPolyline
 90
        9
 70
   128
 43
0.0
 10
880.4733477174
 20
1514.7858192191
 10
880.5448717167
 20
1513.810367609
 10
880.7566950876
 20
1512.8724020573
 10
881.1006775767
 20
1512.007968054
 10
881.5636001298
 20
1511.2502853132
 10
882.1276728929
 20
1510.6284711576
 10
882.7712188659
 20
1510.1664215566
 10
883.4695069381
 20
1509.8818928171
 10
884.1957022905
 20
1509.7858192191
  0
LINE
  5
35D
330
1F
100
AcDbEntity
  8
0
  6
Continuous
 62
     7
370
    25
100
AcDbLine
 10
880.4733477174
 20
1554.7858192191
 30
0.0
 11
880.4733477174
 21
1514.7858192191
 31
0.0
  0
LWPOLYLINE
  5
35E
330
1F
100
AcDbEntity
  8
0
  6
Continuous
 62
     7
370
    25
100
AcDbPolyline
 90
        6
 70
   128
 43
0.0
 10
885.4588741571
 20
1534.7858192191
 10
885.6002999898
 20
1533.7084557676
 10
886.0075194454
 20
1532.7610382486
 10
886.6314158476
 20
1532.0578391972
 10
887.3967380825
 20
1531.6836747971
 10
887.9750622461
 20
1531.6442151153
  0
ARC
  5
35F
330
1F
100
AcDbEntity
  8
0
  6
Continuous
 62
     7
370
    25
100
AcDbCircle
 10
888.2061710208
 20
1535.1638820613
 30
0.0
 40
2.773187979633397
100
AcDbArc
 50
94.7803945388
 51
187.8354118467
  0
LINE
  5
360
330
1F
100
AcDbEntity
  8
0
  6
Continuous
 62
     7
370
    25
100
AcDbLine
 10
882.8603925028
 20
1559.7858192191
 30
0.0
 11
884.1957022905
 21
1559.7858192191
 31
0.0
  0
LINE
  5
361
330
1F
100
AcDbEntity
  8
0
  6
Continuous
 62
     7
370
    25
100
AcDbLine
 10
880.4733477174
 20
1554.7858192191
 30
0.0
 11
879.1380379297
 21
1554.7858192191
 31
0.0
  0
LWPOLYLINE
  5
362
330
1F
100
AcDbEntity
  8
0
  6
Continuous
 62
     7
370
    25
100
AcDbPolyline
 90
        9
 70
   128
 43
0.0
 10
879.1380379297
 20
1554.7858192191
 10
879.209561929
 20
1555.7612708292
 10
879.4213852999
 20
1556.6992363809
 10
879.765367789
 20
1557.5636703842
 10
880.2282903421
 20
1558.321353125
 10
880.7923631052
 20
1558.9431672806
 10
881.4359090782
 20
1559.4052168817
 10
882.1341971504
 20
1559.6897456211
 10
882.8603925028
 20
1559.7858192191
  0
LINE
  5
363
330
1F
100
AcDbEntity
  8
0
  6
Continuous
 62
     7
370
    25
100
AcDbLine
 10
879.1380379297
 20
1514.7858192191
 30
0.0
 11
880.4733477174
 21
1514.7858192191
 31
0.0
  0
LINE
  5
364
330
1F
100
AcDbEntity
  8
0
  6
Continuous
 62
     7
370
    25
100
AcDbLine
 10
884.1957022905
 20
1509.7858192191
 30
0.0
 11
882.8603925028
 21
1509.7858192191
 31
0.0
  0
LWPOLYLINE
  5
365
330
1F
100
AcDbEntity
  8
0
  6
Continuous
 62
     7
370
    25
100
AcDbPolyline
 90
        9
 70
   128
 43
0.0
 10
882.8603925028
 20
1509.7858192191
 10
882.1341971504
 20
1509.8818928171
 10
881.4359090782
 20
1510.1664215566
 10
880.7923631052
 20
1510.6284711576
 10
880.2282903421
 20
1511.2502853132
 10
879.765367789
 20
1512.007968054
 10
879.4213852999
 20
1512.8724020573
 10
879.209561929
 20
1513.810367609
 10
879.1380379297
 20
1514.7858192191
  0
LINE
  5
366
330
1F
100
AcDbEntity
  8
0
  6
Continuous
 62
     7
370
    25
100
AcDbLine
 10
879.1380379297
 20
1554.7858192191
 30
0.0
 11
879.1380379297
 21
1514.7858192191
 31
0.0
  0
LWPOLYLINE
  5
367
330
1F
100
AcDbEntity
  8
0
  6
Continuous
 62
     7
370
    25
100
AcDbPolyline
 90
        3
 70
   128
 43
0.0
 10
887.1363026443
 20
1531.7661805768
 10
887.6411894409
 20
1532.0578391972
 10
887.9750622461
 20
1532.3716797208
  0
LWPOLYLINE
  5
368
330
1F
100
AcDbEntity
  8
0
  6
Continuous
 62
     7
370
    25
100
AcDbPolyline
 90
        3
 70
   128
 43
0.0
 10
887.9750622461
 20
1537.1999587174
 10
887.6411894409
 20
1537.513799241
 10
887.1363026443
 20
1537.8054578614
  0
LINE
  5
369
330
1F
100
AcDbEntity
  8
0
  6
Continuous
 62
     7
370
    25
100
AcDbLine
 10
935.496362203
 20
1444.2858192191
 30
0.0
 11
935.5063157969
 21
1444.2858192191
 31
0.0
  0
LINE
  5
36A
330
1F
100
AcDbEntity
  8
0
  6
Continuous
 62
     7
370
    25
100
AcDbLine
 10
895.3063157969
 20
1444.2858192191
 30
0.0
 11
935.496362203
 21
1444.2858192191
 31
0.0
  0
LINE
  5
36B
330
1F
100
AcDbEntity
  8
0
  6
Continuous
 62
     7
370
    25
100
AcDbLine
 10
935.496362203
 20
1499.2858192191
 30
0.0
 11
935.5063157969
 21
1499.2858192191
 31
0.0
  0
LINE
  5
36C
330
1F
100
AcDbEntity
  8
0
  6
Continuous
 62
     7
370
    25
100
AcDbLine
 10
895.3063157969
 20
1499.2858192191
 30
0.0
 11
935.496362203
 21
1499.2858192191
 31
0.0
  0
LINE
  5
36D
330
1F
100
AcDbEntity
  8
0
  6
Continuous
 62
     7
370
    25
100
AcDbLine
 10
895.4063157969
 20
1574.2858192191
 30
0.0
 11
914.8588020187
 21
1574.2858192191
 31
0.0
  0
CIRCLE
  5
36E
330
1F
100
AcDbEntity
  8
0
  6
Continuous
 62
     7
370
    25
100
AcDbCircle
 10
914.7778236499
 20
1404.2903582608
 30
0.0
 40
4.195461043346553
  0
LINE
  5
36F
330
1F
100
AcDbEntity
  8
0
  6
Continuous
 62
     7
370
    25
100
AcDbLine
 10
935.3964117233
 20
1374.2858192191
 30
0.0
 11
935.4063157969
 21
1374.2858192191
 31
0.0
  0
LINE
  5
370
330
1F
100
AcDbEntity
  8
0
  6
Continuous
 62
     7
370
    25
100
AcDbLine
 10
895.4063157969
 20
1374.2858192191
 30
0.0
 11
935.3964117233
 21
1374.2858192191
 31
0.0
  0
ARC
  5
371
330
1F
100
AcDbEntity
  8
0
  6
Continuous
 62
     7
370
    25
100
AcDbCircle
 10
915.7573510223
 20
1404.2571112409
 30
0.0
 40
4.161784928990924
100
AcDbArc
 50
98.3793653916
 51
262.0438543633
  0
ARC
  5
372
330
1F
100
AcDbEntity
  8
0
  6
Continuous
 62
     7
370
    25
100
AcDbCircle
 10
915.7992883241
 20
1404.2870368374
 30
0.0
 40
4.099950114195374
100
AcDbArc
 50
95.5001365076
 51
264.4998634924
  0
ARC
  5
373
330
1F
100
AcDbEntity
  8
0
  6
Continuous
 62
     7
370
    25
100
AcDbCircle
 10
914.8844191025
 20
1404.2579632867
 30
0.0
 40
4.122342567243858
100
AcDbArc
 50
89.4504191636
 51
270.5622729026
  0
ARC
  5
374
330
1F
100
AcDbEntity
  8
0
  6
Continuous
 62
     7
370
    25
100
AcDbCircle
 10
914.9494950346
 20
1404.2576912879
 30
0.0
 40
4.122050114107072
100
AcDbArc
 50
89.4697629079
 51
270.5325345559
  0
ARC
  5
375
330
1F
100
AcDbEntity
  8
0
  6
Continuous
 62
     7
370
    25
100
AcDbCircle
 10
915.730978194
 20
1404.2877235374
 30
0.0
 40
4.097370901882954
100
AcDbArc
 50
94.0905485412
 51
265.2864844128
  0
LINE
  5
376
330
1F
100
AcDbEntity
  8
0
  6
Continuous
 62
     7
370
    25
100
AcDbLine
 10
896.1063157969
 20
1364.2858192191
 30
0.0
 11
896.1063157969
 21
664.2858192191
 31
0.0
  0
LINE
  5
377
330
1F
100
AcDbEntity
  8
0
  6
Continuous
 62
     7
370
    25
100
AcDbLine
 10
896.1063157969
 20
1364.2858192191
 30
0.0
 11
946.1063157969
 21
1364.2858192191
 31
0.0
  0
LINE
  5
378
330
1F
100
AcDbEntity
  8
0
  6
Continuous
 62
     7
370
    25
100
AcDbLine
 10
896.1063157969
 20
664.2858192191
 30
0.0
 11
946.1063157969
 21
714.2858192191
 31
0.0
  0
LINE
  5
379
330
1F
100
AcDbEntity
  8
0
  6
Continuous
 62
     7
370
    25
100
AcDbLine
 10
946.1063157969
 20
1364.2858192191
 30
0.0
 11
946.1063157969
 21
714.2858192191
 31
0.0
  0
LINE
  5
37A
330
1F
100
AcDbEntity
  8
0
  6
Continuous
 62
     8
370
    25
100
AcDbLine
 10
983.7883814274
 20
1573.2858192191
 30
0.0
 11
968.8358566651
 21
1573.2858192191
 31
0.0
  0
LINE
  5
37B
330
1F
100
AcDbEntity
  8
0
  6
Continuous
 62
     8
370
    25
100
AcDbLine
 10
953.291386651
 20
1575.2858192191
 30
0.0
 11
972.8980039645
 21
1575.2858192191
 31
0.0
  0
LINE
  5
37C
330
1F
100
AcDbEntity
  8
0
  6
Continuous
 62
     8
370
    25
100
AcDbLine
 10
979.6787588902
 20
1575.2858192191
 30
0.0
 11
1008.2603724089
 21
1575.2858192191
 31
0.0
  0
LINE
  5
37D
330
1F
100
AcDbEntity
  8
0
  6
Continuous
 62
     8
370
    25
100
AcDbLine
 10
924.0047759453
 20
1575.2858192191
 30
0.0
 11
927.752030038
 21
1575.2858192191
 31
0.0
  0
LINE
  5
37E
330
1F
100
AcDbEntity
  8
0
  6
Continuous
 62
     8
370
    25
100
AcDbLine
 10
934.5327849637
 20
1575.2858192191
 30
0.0
 11
953.291386651
 21
1575.2858192191
 31
0.0
  0
LINE
  5
37F
330
1F
100
AcDbEntity
  8
0
  6
Continuous
 62
     8
370
    25
100
AcDbLine
 10
1009.0047759453
 20
1612.2858192191
 30
0.0
 11
924.0047759453
 21
1612.2858192191
 31
0.0
  0
LINE
  5
380
330
1F
100
AcDbEntity
  8
0
  6
Continuous
 62
     8
370
    25
100
AcDbLine
 10
984.2999011725
 20
1573.2858192191
 30
0.0
 11
983.7883814274
 21
1573.2858192191
 31
0.0
  0
LINE
  5
381
330
1F
100
AcDbEntity
  8
0
  6
Continuous
 62
     8
370
    25
100
AcDbLine
 10
936.6562638005
 20
1573.2858192191
 30
0.0
 11
923.6424075008
 21
1573.2858192191
 31
0.0
  0
LINE
  5
382
330
1F
100
AcDbEntity
  8
0
  6
Continuous
 62
     8
370
    25
100
AcDbLine
 10
1019.1507498718
 20
1573.2858192191
 30
0.0
 11
1008.6541490567
 21
1573.2858192191
 31
0.0
  0
LINE
  5
383
330
1F
100
AcDbEntity
  8
0
  6
Continuous
 62
     8
370
    25
100
AcDbLine
 10
923.6424075008
 20
1573.2858192191
 30
0.0
 11
920.5047759453
 21
1573.2858192191
 31
0.0
  0
LINE
  5
384
330
1F
100
AcDbEntity
  8
0
  6
Continuous
 62
     8
370
    25
100
AcDbLine
 10
920.5047759453
 20
1573.2858192191
 30
0.0
 11
919.7128286786
 21
1573.2858192191
 31
0.0
  0
LINE
  5
385
330
1F
100
AcDbEntity
  8
0
  6
Continuous
 62
     8
370
    25
100
AcDbLine
 10
919.7128286786
 20
1573.2858192191
 30
0.0
 11
913.8588020187
 21
1573.2858192191
 31
0.0
  0
LINE
  5
386
330
1F
100
AcDbEntity
  8
0
  6
Continuous
 62
     8
370
    25
100
AcDbLine
 10
955.8208383192
 20
1421.5176238633
 30
0.0
 11
957.1044549623
 21
1421.5176238633
 31
0.0
  0
LINE
  5
387
330
1F
100
AcDbEntity
  8
0
  6
Continuous
 62
     8
370
    25
100
AcDbLine
 10
950.0334211672
 20
1419.5176238633
 30
0.0
 11
950.0334211672
 21
1419.6676238633
 31
0.0
  0
LINE
  5
388
330
1F
100
AcDbEntity
  8
0
  6
Continuous
 62
     8
370
    25
100
AcDbLine
 10
943.6892307076
 20
1419.6676238633
 30
0.0
 11
943.6892307076
 21
1419.5176238633
 31
0.0
  0
LINE
  5
389
330
1F
100
AcDbEntity
  8
0
  6
Continuous
 62
     8
370
    25
100
AcDbLine
 10
990.2295495163
 20
1427.6176238633
 30
0.0
 11
989.2983878987
 21
1427.6176238633
 31
0.0
  0
LINE
  5
38A
330
1F
100
AcDbEntity
  8
0
  6
Continuous
 62
     8
370
    25
100
AcDbLine
 10
951.8007409503
 20
1442.9077930904
 30
0.0
 11
951.8007409503
 21
1450.0176238633
 31
0.0
  0
LINE
  5
38B
330
1F
100
AcDbEntity
  8
0
  6
Continuous
 62
     8
370
    25
100
AcDbLine
 10
954.6291544684
 20
1442.6188627998
 30
0.0
 11
954.6291544684
 21
1449.9836574543
 31
0.0
  0
LINE
  5
38C
330
1F
100
AcDbEntity
  8
0
  6
Continuous
 62
     8
370
    25
100
AcDbLine
 10
943.5532933528
 20
1443.2102357925
 30
0.0
 11
943.5532933528
 21
1450.0176238633
 31
0.0
  0
LINE
  5
38D
330
1F
100
AcDbEntity
  8
0
  6
Continuous
 62
     8
370
    25
100
AcDbLine
 10
945.809081298
 20
1464.7858192191
 30
0.0
 11
946.3904801845
 21
1464.7858192191
 31
0.0
  0
LINE
  5
38E
330
1F
100
AcDbEntity
  8
0
  6
Continuous
 62
     8
370
    25
100
AcDbLine
 10
965.765112783
 20
1464.7858192191
 30
0.0
 11
966.3552830595
 21
1464.7858192191
 31
0.0
  0
LINE
  5
38F
330
1F
100
AcDbEntity
  8
0
  6
Continuous
 62
     8
370
    25
100
AcDbLine
 10
946.3904801845
 20
1384.3494285075
 30
0.0
 11
945.8091110262
 21
1384.3494285075
 31
0.0
  0
LINE
  5
390
330
1F
100
AcDbEntity
  8
0
  6
Continuous
 62
     8
370
    25
100
AcDbLine
 10
966.3552899517
 20
1384.3494285075
 30
0.0
 11
965.765112783
 21
1384.3494285075
 31
0.0
  0
LWPOLYLINE
  5
391
330
1F
100
AcDbEntity
  8
0
  6
Continuous
 62
     8
370
    25
100
AcDbPolyline
 90
        3
 70
   128
 43
0.0
 10
966.7893858451
 20
1388.2658006265
 10
966.8209627616
 20
1388.1452062433
 10
967.2356657939
 20
1384.3494285075
  0
LINE
  5
392
330
1F
100
AcDbEntity
  8
0
  6
Continuous
 62
     8
370
    25
100
AcDbLine
 10
967.2356657939
 20
1384.3494285075
 30
0.0
 11
966.6542966355
 21
1384.3494285075
 31
0.0
  0
LINE
  5
393
330
1F
100
AcDbEntity
  8
0
  6
Continuous
 62
     8
370
    25
100
AcDbLine
 10
987.2004755611
 20
1384.3494285075
 30
0.0
 11
986.6102983924
 21
1384.3494285075
 31
0.0
  0
ARC
  5
394
330
1F
100
AcDbEntity
  8
0
  6
Continuous
 62
     8
370
    25
100
AcDbCircle
 10
951.8456853514
 20
1464.5545723722
 30
0.0
 40
15.39171767940812
100
AcDbArc
 50
346.2326327777
 51
0.8608504348
  0
LINE
  5
395
330
1F
100
AcDbEntity
  8
0
  6
Continuous
 62
     8
370
    25
100
AcDbLine
 10
966.6542669073
 20
1464.7858192191
 30
0.0
 11
967.2356657939
 21
1464.7858192191
 31
0.0
  0
LINE
  5
396
330
1F
100
AcDbEntity
  8
0
  6
Continuous
 62
     8
370
    25
100
AcDbLine
 10
986.6102983924
 20
1464.7858192191
 30
0.0
 11
987.2004686688
 21
1464.7858192191
 31
0.0
  0
LWPOLYLINE
  5
397
330
1F
100
AcDbEntity
  8
0
  6
Continuous
 62
     8
370
    25
100
AcDbPolyline
 90
        7
 70
   128
 43
0.0
 10
951.8944194679
 20
1442.0463791381
 10
951.7799802619
 20
1442.2272266546
 10
951.6909093642
 20
1442.3987824116
 10
951.6317831461
 20
1442.5522320502
 10
951.6056394518
 20
1442.6796914857
 10
951.6138215176
 20
1442.7746119832
 10
951.6480350459
 20
1442.8264476903
  0
LINE
  5
398
330
1F
100
AcDbEntity
  8
0
  6
Continuous
 62
     8
370
    25
100
AcDbLine
 10
949.5689185949
 20
1439.6924830028
 30
0.0
 11
949.1420485826
 21
1439.6924830028
 31
0.0
  0
LINE
  5
399
330
1F
100
AcDbEntity
  8
0
  6
Continuous
 62
     8
370
    25
100
AcDbLine
 10
944.7345906329
 20
1441.2499935524
 30
0.0
 11
945.4807605461
 21
1441.2499935524
 31
0.0
  0
LINE
  5
39A
330
1F
100
AcDbEntity
  8
0
  6
Continuous
 62
     8
370
    25
100
AcDbLine
 10
944.1024104564
 20
1442.8251344128
 30
0.0
 11
943.7945575159
 21
1442.8251344128
 31
0.0
  0
LINE
  5
39B
330
1F
100
AcDbEntity
  8
0
  6
Continuous
 62
     8
370
    25
100
AcDbLine
 10
973.703730302
 20
1408.1176238633
 30
0.0
 11
973.703730302
 21
1408.2977242348
 31
0.0
  0
LINE
  5
39C
330
1F
100
AcDbEntity
  8
0
  6
Continuous
 62
     8
370
    25
100
AcDbLine
 10
973.703730302
 20
1419.5176238633
 30
0.0
 11
973.703730302
 21
1429.6176238633
 31
0.0
  0
LINE
  5
39D
330
1F
100
AcDbEntity
  8
0
  6
Continuous
 62
     8
370
    25
100
AcDbLine
 10
966.189552507
 20
1488.7858192191
 30
0.0
 11
966.8321831406
 21
1488.7858192191
 31
0.0
  0
LINE
  5
39E
330
1F
100
AcDbEntity
  8
0
  6
Continuous
 62
     8
370
    25
100
AcDbLine
 10
945.3321831406
 20
1488.7858192191
 30
0.0
 11
966.189552507
 21
1488.7858192191
 31
0.0
  0
LINE
  5
39F
330
1F
100
AcDbEntity
  8
0
  6
Continuous
 62
     8
370
    25
100
AcDbLine
 10
987.0347381164
 20
1488.7858192191
 30
0.0
 11
987.67736875
 21
1488.7858192191
 31
0.0
  0
LINE
  5
3A0
330
1F
100
AcDbEntity
  8
0
  6
Continuous
 62
     8
370
    25
100
AcDbLine
 10
966.8321831406
 20
1488.7858192191
 30
0.0
 11
987.0347381164
 21
1488.7858192191
 31
0.0
  0
LINE
  5
3A1
330
1F
100
AcDbEntity
  8
0
  6
Continuous
 62
     8
370
    25
100
AcDbLine
 10
972.3137015542
 20
1507.7858192191
 30
0.0
 11
972.3137015542
 21
1561.2858192191
 31
0.0
  0
LINE
  5
3A2
330
1F
100
AcDbEntity
  8
0
  6
Continuous
 62
     8
370
    25
100
AcDbLine
 10
967.2568700529
 20
1507.7858192191
 30
0.0
 11
967.2568700529
 21
1561.2858192191
 31
0.0
  0
LINE
  5
3A3
330
1F
100
AcDbEntity
  8
0
  6
Continuous
 62
     8
370
    25
100
AcDbLine
 10
982.9459242531
 20
1507.7858192191
 30
0.0
 11
982.9459242531
 21
1561.2858192191
 31
0.0
  0
LINE
  5
3A4
330
1F
100
AcDbEntity
  8
0
  6
Continuous
 62
     8
370
    25
100
AcDbLine
 10
940.784902522
 20
1507.7858192191
 30
0.0
 11
940.784902522
 21
1561.2858192191
 31
0.0
  0
LINE
  5
3A5
330
1F
100
AcDbEntity
  8
0
  6
Continuous
 62
     8
370
    25
100
AcDbLine
 10
1003.6811391097
 20
1507.7858192191
 30
0.0
 11
1003.6811391097
 21
1561.2858192191
 31
0.0
  0
LINE
  5
3A6
330
1F
100
AcDbEntity
  8
0
  6
Continuous
 62
     8
370
    25
100
AcDbLine
 10
934.0831308607
 20
1507.7858192191
 30
0.0
 11
934.0831308607
 21
1561.2858192191
 31
0.0
  0
LINE
  5
3A7
330
1F
100
AcDbEntity
  8
0
  6
Continuous
 62
     8
370
    25
100
AcDbLine
 10
1010.0525627704
 20
1507.7858192191
 30
0.0
 11
1010.0525627704
 21
1561.2858192191
 31
0.0
  0
LINE
  5
3A8
330
1F
100
AcDbEntity
  8
0
  6
Continuous
 62
     8
370
    25
100
AcDbLine
 10
920.4809495707
 20
1507.7858192191
 30
0.0
 11
920.4809495707
 21
1561.2858192191
 31
0.0
  0
LINE
  5
3A9
330
1F
100
AcDbEntity
  8
0
  6
Continuous
 62
     8
370
    25
100
AcDbLine
 10
895.1791997966
 20
1532.3226714412
 30
0.0
 11
895.1791997966
 21
1537.248966997
 31
0.0
  0
LINE
  5
3AA
330
1F
100
AcDbEntity
  8
THICK_LINE
 62
     7
100
AcDbLine
 10
963.5821831406
 20
1374.3494285075
 30
0.0
 11
963.5821831406
 21
789.2858192191
 31
0.0
  0
LINE
  5
3AB
330
1F
100
AcDbEntity
  8
THICK_LINE
 62
     7
100
AcDbLine
 10
948.5821831406
 20
1374.3494285075
 30
0.0
 11
948.5821831406
 21
804.2858192191
 31
0.0
  0
LINE
  5
3AC
330
1F
100
AcDbEntity
  8
THICK_LINE
 62
     7
100
AcDbLine
 10
969.42736875
 20
1374.3494285075
 30
0.0
 11
969.42736875
 21
789.3494285075
 31
0.0
  0
LINE
  5
3AD
330
1F
100
AcDbEntity
  8
THICK_LINE
 62
     7
100
AcDbLine
 10
984.42736875
 20
1374.3494285075
 30
0.0
 11
984.42736875
 21
804.3494285075
 31
0.0
  0
LINE
  5
3AE
330
1F
100
AcDbEntity
  8
THICK_LINE
 62
     7
100
AcDbLine
 10
1024.42736875
 20
764.3494285075
 30
0.0
 11
1446.1063157969
 21
764.3494285075
 31
0.0
  0
LINE
  5
3AF
330
1F
100
AcDbEntity
  8
THICK_LINE
 62
     7
100
AcDbLine
 10
908.5821831406
 20
764.2858192191
 30
0.0
 11
446.1063157969
 21
764.2858192191
 31
0.0
  0
LINE
  5
3B0
330
1F
100
AcDbEntity
  8
THICK_LINE
 62
     7
100
AcDbLine
 10
923.5821831406
 20
749.2858192191
 30
0.0
 11
446.1063157969
 21
749.2858192191
 31
0.0
  0
LINE
  5
3B1
330
1F
100
AcDbEntity
  8
THICK_LINE
 62
     7
100
AcDbLine
 10
948.5821831406
 20
1374.3494285075
 30
0.0
 11
963.5821831406
 21
1374.3494285075
 31
0.0
  0
LINE
  5
3B2
330
1F
100
AcDbEntity
  8
THICK_LINE
 62
     7
100
AcDbLine
 10
969.42736875
 20
1374.3494285075
 30
0.0
 11
984.42736875
 21
1374.3494285075
 31
0.0
  0
LINE
  5
3B3
330
1F
100
AcDbEntity
  8
THICK_LINE
 62
     7
100
AcDbLine
 10
446.1063157969
 20
1364.2858192191
 30
0.0
 11
1446.1063157969
 21
1364.2858192191
 31
0.0
  0
LINE
  5
3B4
330
1F
100
AcDbEntity
  8
THICK_LINE
 62
     7
100
AcDbLine
 10
1446.1063157969
 20
1364.2858192191
 30
0.0
 11
1446.1063157969
 21
1037.4124815503
 31
0.0
  0
LINE
  5
3B5
330
1F
100
AcDbEntity
  8
THICK_LINE
 62
     7
100
AcDbLine
 10
1009.42736875
 20
749.3494285075
 30
0.0
 11
1446.1063157969
 21
749.3494285075
 31
0.0
  0
LINE
  5
3B6
330
1F
100
AcDbEntity
  8
THICK_LINE
 62
     7
100
AcDbLine
 10
1446.1063157969
 20
1037.4124815503
 30
0.0
 11
1474.4967015388
 21
1031.3713275675
 31
0.0
  0
LINE
  5
3B7
330
1F
100
AcDbEntity
  8
THICK_LINE
 62
     7
100
AcDbLine
 10
1474.4967015388
 20
1031.3713275675
 30
0.0
 11
1410.3052435371
 21
1002.3816368571
 31
0.0
  0
LINE
  5
3B8
330
1F
100
AcDbEntity
  8
THICK_LINE
 62
     7
100
AcDbLine
 10
1410.3052435371
 20
1002.3816368571
 30
0.0
 11
1446.1063157969
 21
994.7635723391
 31
0.0
  0
LINE
  5
3B9
330
1F
100
AcDbEntity
  8
THICK_LINE
 62
     7
100
AcDbLine
 10
446.1063157969
 20
749.2858192191
 30
0.0
 11
446.1063157969
 21
764.2858192191
 31
0.0
  0
LINE
  5
3BA
330
1F
100
AcDbEntity
  8
THICK_LINE
  6
Continuous
 62
     7
370
    25
100
AcDbLine
 10
1446.1063157969
 20
557.2903807899
 30
0.0
 11
446.1063157969
 21
557.2903807899
 31
0.0
  0
LINE
  5
3BB
330
1F
100
AcDbEntity
  8
THICK_LINE
 62
     7
100
AcDbLine
 10
446.1063157969
 20
994.7635723391
 30
0.0
 11
446.1063157969
 21
557.2903807899
 31
0.0
  0
LINE
  5
3BC
330
1F
100
AcDbEntity
  8
THICK_LINE
 62
     7
100
AcDbLine
 10
1446.1063157969
 20
749.3494285075
 30
0.0
 11
1446.1063157969
 21
764.3494285075
 31
0.0
  0
LINE
  5
3BD
330
1F
100
AcDbEntity
  8
THICK_LINE
  6
Continuous
 62
     7
370
    25
100
AcDbLine
 10
481.9073880567
 20
1002.3816368571
 30
0.0
 11
446.1063157969
 21
994.7635723391
 31
0.0
  0
LINE
  5
3BE
330
1F
100
AcDbEntity
  8
THICK_LINE
  6
Continuous
 62
     7
370
    25
100
AcDbLine
 10
417.7159300551
 20
1031.3713275675
 30
0.0
 11
481.9073880567
 21
1002.3816368571
 31
0.0
  0
LINE
  5
3BF
330
1F
100
AcDbEntity
  8
THICK_LINE
  6
Continuous
 62
     7
370
    25
100
AcDbLine
 10
446.1063157969
 20
1037.4124815503
 30
0.0
 11
417.7159300551
 21
1031.3713275675
 31
0.0
  0
LINE
  5
3C0
330
1F
100
AcDbEntity
  8
THICK_LINE
  6
Continuous
 62
     7
370
    25
100
AcDbLine
 10
446.1063157969
 20
1364.2858192191
 30
0.0
 11
446.1063157969
 21
1037.4124815503
 31
0.0
  0
LINE
  5
3C1
330
1F
100
AcDbEntity
  8
THICK_LINE
 62
     7
100
AcDbLine
 10
1446.1063157969
 20
994.7635723391
 30
0.0
 11
1446.1063157969
 21
557.2903807899
 31
0.0
  0
ARC
  5
3C2
330
1F
100
AcDbEntity
  8
THICK_LINE
 62
     7
100
AcDbCircle
 10
923.5821831406
 20
789.2858192191
 30
0.0
 40
40.0
100
AcDbArc
 50
270.0
 51
0.0
  0
ARC
  5
3C3
330
1F
100
AcDbEntity
  8
THICK_LINE
 62
     7
100
AcDbCircle
 10
908.5821831406
 20
804.2858192191
 30
0.0
 40
40.00000000000011
100
AcDbArc
 50
270.0
 51
0.0
  0
ARC
  5
3C4
330
1F
100
AcDbEntity
  8
THICK_LINE
 62
     7
100
AcDbCircle
 10
1009.42736875
 20
789.3494285075
 30
0.0
 40
40.00000000000011
100
AcDbArc
 50
180.0
 51
270.0
  0
ARC
  5
3C5
330
1F
100
AcDbEntity
  8
THICK_LINE
 62
     7
100
AcDbCircle
 10
1024.42736875
 20
804.3494285075
 30
0.0
 40
40.0
100
AcDbArc
 50
180.0
 51
270.0
  0
HATCH
  5
3C6
330
1F
100
AcDbEntity
  8
THICK_LINE
 62
    49
420
  4605510
100
AcDbHatch
 10
0.0
 20
0.0
 30
0.0
210
0.0
220
0.0
230
1.0
  2
SOLID
 70
     1
 71
     0
 91
        1
 92
        0
 93
        8
 72
     1
 10
446.1063157969181
 20
749.2858192191075
 11
446.1063157969181
 21
764.2858192191076
 72
     1
 10
446.1063157969181
 20
764.2858192191076
 11
908.5821831406402
 21
764.2858192191076
 72
     2
 10
908.5821831406403
 20
804.2858192191076
 40
39.99999999999999
 50
270.0000000000007
 51
360.0000000000014
 73
     1
 72
     1
 10
948.5821831406404
 20
804.285819219108
 11
948.5821831406403
 21
1374.349428507485
 72
     1
 10
948.5821831406403
 20
1374.349428507485
 11
963.5821831406403
 21
1374.349428507485
 72
     1
 10
963.5821831406403
 20
1374.349428507485
 11
963.5821831406403
 21
789.2858192191075
 72
     2
 10
923.5821831406404
 20
789.2858192191075
 40
39.99999999999999
 50
0.0
 51
90.0000000000005
 73
     0
 72
     1
 10
923.58218314064
 20
749.2858192191075
 11
446.1063157969181
 21
749.2858192191075
 97
        0
 75
     0
 76
     1
 98
        1
 10
0.0
 20
0.0
  0
HATCH
  5
3C7
330
1F
100
AcDbEntity
  8
THICK_LINE
 62
    49
420
  4605510
100
AcDbHatch
 10
0.0
 20
0.0
 30
0.0
210
0.0
220
0.0
230
1.0
  2
SOLID
 70
     1
 71
     0
 91
        1
 92
        0
 93
        8
 72
     1
 10
969.4273687499843
 20
1374.349428507485
 11
984.4273687499843
 21
1374.349428507485
 72
     1
 10
984.4273687499843
 20
1374.349428507485
 11
984.4273687499843
 21
804.3494285074847
 72
     2
 10
1024.427368749984
 20
804.3494285074847
 40
39.99999999999999
 50
180.0
 51
270.0000000000015
 73
     1
 72
     1
 10
1024.427368749985
 20
764.3494285074847
 11
1446.106315796918
 21
764.3494285074847
 72
     1
 10
1446.106315796918
 20
764.3494285074847
 11
1446.106315796918
 21
749.3494285074847
 72
     1
 10
1446.106315796918
 20
749.3494285074847
 11
1009.427368749985
 21
749.3494285074848
 72
     2
 10
1009.427368749984
 20
789.349428507485
 40
39.99999999999999
 50
89.99999999999952
 51
180.000000000001
 73
     0
 72
     1
 10
969.4273687499845
 20
789.3494285074851
 11
969.4273687499843
 21
1374.349428507485
 97
        0
 75
     0
 76
     1
 98
        1
 10
0.0
 20
0.0
  0
HATCH
  5
3C8
330
1F
100
AcDbEntity
  8
THICK_LINE
 62
     7
100
AcDbHatch
 10
0.0
 20
0.0
 30
0.0
210
0.0
220
0.0
230
1.0
  2
AR-SAND
 70
     0
 71
     0
 91
        1
 92
        0
 93
       12
 72
     1
 10
1446.106315796918
 20
1364.285819219108
 11
1446.106315796918
 21
1037.412481550301
 72
     1
 10
1446.106315796918
 20
1037.412481550301
 11
1474.49670153875
 21
1031.371327567478
 72
     1
 10
1474.49670153875
 20
1031.371327567478
 11
1410.305243537107
 21
1002.381636857058
 72
     1
 10
1410.305243537107
 20
1002.381636857058
 11
1446.106315796918
 21
994.7635723390756
 72
     1
 10
1446.106315796918
 20
994.7635723390756
 11
1446.106315796918
 21
557.2903807899063
 72
     1
 10
1446.106315796918
 20
557.2903807899063
 11
446.1063157969181
 21
557.2903807899063
 72
     1
 10
446.1063157969181
 20
557.2903807899063
 11
446.1063157969181
 21
994.7635723390754
 72
     1
 10
446.1063157969181
 20
994.7635723390754
 11
481.9073880567294
 21
1002.381636857058
 72
     1
 10
481.9073880567294
 20
1002.381636857058
 11
417.7159300550857
 21
1031.371327567478
 72
     1
 10
417.7159300550857
 20
1031.371327567478
 11
446.1063157969181
 21
1037.412481550301
 72
     1
 10
446.1063157969181
 20
1037.412481550301
 11
446.1063157969181
 21
1364.285819219107
 72
     1
 10
446.1063157969181
 20
1364.285819219107
 11
1446.106315796918
 21
1364.285819219108
 97
        0
 75
     0
 76
     1
 52
0.0
 41
4.0
 77
     0
 78
     4
 53
37.5
 43
0.0
 44
0.0
 45
-6.400125183936183
 46
195.7652949317369
 79
     6
 49
0.0
 49
-154.432
 49
0.0
 49
-172.72
 49
0.0
 49
-165.1
 53
7.5
 43
0.0
 44
0.0
 45
179.8093132552011
 46
286.7300402273417
 79
     6
 49
0.0
 49
-83.312
 49
0.0
 49
-139.192
 49
0.0
 49
-53.34
 53
-32.5
 43
-124.968
 44
0.0
 45
316.3969480965832
 46
0.5748738714183048
 79
     6
 49
0.0
 49
-50.8
 49
0.0
 49
-182.88
 49
0.0
 49
-238.76
 53
-42.50000000000001
 43
-124.968
 44
0.0
 45
305.4225809889189
 46
89.17172930288652
 79
     6
 49
0.0
 49
-25.4
 49
0.0
 49
-119.888
 49
0.0
 49
-137.16
 98
        1
 10
0.0
 20
0.0
  0
DIMENSION
  5
3C9
330
1F
100
AcDbEntity
  8
THICK_LINE
 62
     7
100
AcDbDimension
  2
_D
 10
242.8312895477
 20
1364.2858192191
 30
0.0
 11
242.8312895477
 21
1497.3421391671
 31
0.0
 70
   160
  1
<>
 71
     2
 42
-1.0
 73
     0
 74
     0
 75
     0
  3
SLDDIMSTYLE1
100
AcDbAlignedDimension
 13
926.0047759453
 23
1614.2858192191
 33
0.0
 14
446.1063157969
 24
1364.2858192191
 34
0.0
 50
90.0
100
AcDbRotatedDimension
  0
DIMENSION
  5
3D5
330
1F
100
AcDbEntity
  8
THICK_LINE
 62
     7
100
AcDbDimension
  2
_D_1
 10
372.0434053026
 20
764.2858192191
 30
0.0
 11
372.0434053026
 21
1051.643561508
 31
0.0
 70
   160
  1
<>
 71
     2
 42
-1.0
 73
     0
 74
     0
 75
     0
  3
SLDDIMSTYLE1
100
AcDbAlignedDimension
 13
446.1063157969
 23
1364.2858192191
 33
0.0
 14
446.1063157969
 24
764.2858192191
 34
0.0
 50
90.0
100
AcDbRotatedDimension
  0
DIMENSION
  5
3DF
330
1F
100
AcDbEntity
  8
THICK_LINE
 62
     7
100
AcDbDimension
  2
_D_2
 10
242.8312895477
 20
1364.2858192191
 30
0.0
 11
242.8312895477
 21
1051.643561508
 31
0.0
 70
   160
  1
<>
 71
     2
 42
-1.0
 73
     0
 74
     0
 75
     0
  3
SLDDIMSTYLE1
100
AcDbAlignedDimension
 13
896.1063157969
 23
664.2858192191
 33
0.0
 14
446.1063157969
 24
1364.2858192191
 34
0.0
 50
90.0
100
AcDbRotatedDimension
  0
INSERT
  5
3EE
330
1F
100
AcDbEntity
  8
THICK_LINE
 62
     7
100
AcDbBlockReference
  2
SW_NOTE_5
 10
1519.5668789809
 20
1399.6226460169
 30
0.0
  0
LEADER
  5
3EF
330
1F
100
AcDbEntity
  8
THICK_LINE
 62
     7
100
AcDbLeader
  3
SLDDIMSTYLE0
 76
     2
 10
1295.3431599128
 20
1275.0082756154
 30
0.0
 10
1519.5668789809
 20
1399.6226460169
 30
0.0
  0
INSERT
  5
3F6
330
1F
100
AcDbEntity
  8
THICK_LINE
 62
     7
100
AcDbBlockReference
  2
SW_NOTE_6
 10
1172.2208067941
 20
1514.2723275455
 30
0.0
  0
LEADER
  5
3F7
330
1F
100
AcDbEntity
  8
THICK_LINE
 62
     7
100
AcDbLeader
  3
SLDDIMSTYLE0
 76
     2
 10
983.9127783896
 20
1408.1176238633
 30
0.0
 10
1172.2208067941
 20
1514.2723275455
 30
0.0
  0
LEADER
  5
3F8
330
1F
100
AcDbEntity
  8
THICK_LINE
 62
     7
100
AcDbLeader
  3
SLDDIMSTYLE0
 76
     2
 10
960.4766938928
 20
1441.0176238633
 30
0.0
 10
1172.2208067941
 20
1514.2723275455
 30
0.0
  0
INSERT
  5
3FE
330
1F
100
AcDbEntity
  8
THICK_LINE
 62
     7
100
AcDbBlockReference
  2
SW_NOTE_7
 10
1130.6072186837
 20
1841.2362341273
 30
0.0
  0
LEADER
  5
405
330
1F
100
AcDbEntity
  8
THICK_LINE
 62
     7
100
AcDbLeader
  3
SLDDIMSTYLE2
 76
     2
 10
965.1108074862
 20
1590.0890693264
 30
0.0
 10
1130.6072186837
 20
1841.2362341273
 30
0.0
  0
INSERT
  5
40C
330
1F
100
AcDbEntity
  8
THICK_LINE
 62
     7
100
AcDbBlockReference
  2
SW_NOTE_8
 10
645.0281910638
 20
1793.7251221824
 30
0.0
  0
LEADER
  5
40D
330
1F
100
AcDbEntity
  8
THICK_LINE
 62
     7
100
AcDbLeader
  3
SLDDIMSTYLE0
 76
     2
 10
904.016224113
 20
1545.4279308761
 30
0.0
 10
645.0281910638
 20
1793.7251221824
 30
0.0
  0
INSERT
  5
413
330
1F
100
AcDbEntity
  8
THICK_LINE
 62
     7
100
AcDbBlockReference
  2
SW_NOTE_9
 10
540.8725015859
 20
1658.6460005816
 30
0.0
  0
LEADER
  5
414
330
1F
100
AcDbEntity
  8
THICK_LINE
 62
     7
100
AcDbLeader
  3
SLDDIMSTYLE0
 76
     2
 10
913.6130639502
 20
1444.2858192191
 30
0.0
 10
540.8725015859
 20
1658.6460005816
 30
0.0
  0
INSERT
  5
41B
330
1F
100
AcDbEntity
  8
THICK_LINE
 62
     7
100
AcDbBlockReference
  2
SW_NOTE_10
 10
764.6590642671
 20
1442.9820223947
 30
0.0
  0
LEADER
  5
41C
330
1F
100
AcDbEntity
  8
THICK_LINE
 62
     7
100
AcDbLeader
  3
SLDDIMSTYLE2
 76
     2
 10
921.7860004942
 20
1190.9838852759
 30
0.0
 10
764.6590642671
 20
1442.9820223947
 30
0.0
  0
ENDSEC
  0
SECTION
  2
OBJECTS
  0
DICTIONARY
  5
C
330
0
100
AcDbDictionary
281
     1
  3
ACAD_DETAILVIEWSTYLE
350
425
  3
ACAD_GROUP
350
D
  3
ACAD_LAYOUT
350
1A
  3
ACAD_MATERIAL
350
43
  3
ACAD_MLEADERSTYLE
350
6B
  3
ACAD_MLINESTYLE
350
17
  3
ACAD_PLOTSETTINGS
350
19
  3
ACAD_PLOTSTYLENAME
350
E
  3
ACAD_SCALELIST
350
47
  3
ACAD_SECTIONVIEWSTYLE
350
426
  3
ACAD_TABLESTYLE
350
69
  3
ACAD_VISUALSTYLE
350
2A
  3
ACDB_RECOMPOSE_DATA
350
422
  3
AcDbVariableDictionary
350
41D
  0
SUN
  5
6D
330
29
100
AcDbSun
 90
        1
290
     0
 63
     7
421
 16777215
 40
1.0
291
     1
 91
  2455826
 92
 54000000
292
     0
 70
     2
 71
   256
280
     1
  0
DICTIONARY
  5
425
102
{ACAD_REACTORS
330
C
102
}
330
C
100
AcDbDictionary
281
     1
  0
DICTIONARY
  5
D
102
{ACAD_REACTORS
330
C
102
}
330
C
100
AcDbDictionary
281
     1
  0
DICTIONARY
  5
1A
102
{ACAD_REACTORS
330
C
102
}
330
C
100
AcDbDictionary
281
     1
  3
Layout1
350
1E
  3
Layout2
350
26
  3
Model
350
22
  0
DICTIONARY
  5
43
102
{ACAD_REACTORS
330
C
102
}
330
C
100
AcDbDictionary
281
     1
  3
ByBlock
350
45
  3
ByLayer
350
44
  3
Global
350
46
  0
DICTIONARY
  5
6B
102
{ACAD_REACTORS
330
C
102
}
330
C
100
AcDbDictionary
281
     1
  3
Standard
350
6C
  0
DICTIONARY
  5
17
102
{ACAD_REACTORS
330
C
102
}
330
C
100
AcDbDictionary
281
     1
  3
Standard
350
18
  0
DICTIONARY
  5
19
102
{ACAD_REACTORS
330
C
102
}
330
C
100
AcDbDictionary
281
     1
  0
ACDBDICTIONARYWDFLT
  5
E
102
{ACAD_REACTORS
330
C
102
}
330
C
100
AcDbDictionary
281
     1
  3
Normal
350
F
100
AcDbDictionaryWithDefault
340
F
  0
DICTIONARY
  5
47
102
{ACAD_REACTORS
330
C
102
}
330
C
100
AcDbDictionary
281
     1
  3
A0
350
48
  3
A1
350
49
  3
A2
350
4A
  3
A3
350
4B
  3
A4
350
4C
  3
A5
350
4D
  3
A6
350
4E
  3
A7
350
4F
  3
A8
350
50
  3
A9
350
51
  3
B0
350
52
  3
B1
350
53
  3
B2
350
54
  3
B3
350
55
  3
B4
350
56
  3
B5
350
57
  3
B6
350
58
  3
B7
350
59
  3
B8
350
5A
  3
B9
350
5B
  3
C0
350
5C
  3
C1
350
5D
  3
C2
350
5E
  3
C3
350
5F
  3
C4
350
60
  3
C5
350
61
  3
C6
350
62
  3
C7
350
63
  3
C8
350
64
  3
C9
350
65
  3
D0
350
66
  3
D1
350
67
  3
D2
350
68
  0
DICTIONARY
  5
426
102
{ACAD_REACTORS
330
C
102
}
330
C
100
AcDbDictionary
281
     1
  0
DICTIONARY
  5
69
102
{ACAD_REACTORS
330
C
102
}
330
C
100
AcDbDictionary
281
     1
  3
Standard
350
6A
  0
DICTIONARY
  5
2A
102
{ACAD_REACTORS
330
C
102
}
330
C
100
AcDbDictionary
281
     1
  3
2dWireframe
350
2F
  3
Basic
350
32
  3
Brighten
350
36
  3
ColorChange
350
3A
  3
Conceptual
350
34
  3
Dim
350
35
  3
EdgeColorOff
350
3D
  3
Facepattern
350
39
  3
Flat
350
2B
  3
FlatWithEdges
350
2C
  3
Gouraud
350
2D
  3
GouraudWithEdges
350
2E
  3
Hidden
350
31
  3
JitterOff
350
3B
  3
Linepattern
350
38
  3
OverhangOff
350
3C
  3
Realistic
350
33
  3
Shaded
350
42
  3
Shaded with edges
350
41
  3
Shades of Gray
350
3E
  3
Sketchy
350
3F
  3
Thicken
350
37
  3
Wireframe
350
30
  3
X-Ray
350
40
  0
XRECORD
  5
422
102
{ACAD_REACTORS
330
C
102
}
330
C
100
AcDbXrecord
280
     1
 90
        1
330
6A
  0
DICTIONARY
  5
41D
102
{ACAD_REACTORS
330
C
102
}
330
C
100
AcDbDictionary
281
     1
  3
CANNOSCALE
350
41E
  3
CMLEADERSTYLE
350
424
  3
CTABLESTYLE
350
423
  0
LAYOUT
  5
1E
102
{ACAD_REACTORS
330
1A
102
}
330
1A
100
AcDbPlotSettings
  1

  2
none_device
  4

  6

 40
0.0
 41
0.0
 42
0.0
 43
0.0
 44
0.0
 45
0.0
 46
0.0
 47
0.0
 48
0.0
 49
0.0
140
0.0
141
0.0
142
1.0
143
1.0
 70
   688
 72
     1
 73
     0
 74
     5
  7

 75
    16
 76
     0
 77
     2
 78
   300
147
1.0
148
0.0
149
0.0
100
AcDbLayout
  1
Layout1
 70
     1
 71
     1
 10
0.0
 20
0.0
 11
420.0
 21
297.0
 12
0.0
 22
0.0
 32
0.0
 14
1.0000000000E+20
 24
1.0000000000E+20
 34
1.0000000000E+20
 15
-1.0000000000E+20
 25
-1.0000000000E+20
 35
-1.0000000000E+20
146
0.0
 13
0.0
 23
0.0
 33
0.0
 16
1.0
 26
0.0
 36
0.0
 17
0.0
 27
1.0
 37
0.0
 76
     0
330
1B
  0
LAYOUT
  5
26
102
{ACAD_REACTORS
330
1A
102
}
330
1A
100
AcDbPlotSettings
  1

  2
none_device
  4

  6

 40
0.0
 41
0.0
 42
0.0
 43
0.0
 44
0.0
 45
0.0
 46
0.0
 47
0.0
 48
0.0
 49
0.0
140
0.0
141
0.0
142
1.0
143
1.0
 70
   688
 72
     1
 73
     0
 74
     5
  7

 75
    16
 76
     0
 77
     2
 78
   300
147
1.0
148
0.0
149
0.0
100
AcDbLayout
  1
Layout2
 70
     1
 71
     2
 10
0.0
 20
0.0
 11
0.0
 21
0.0
 12
0.0
 22
0.0
 32
0.0
 14
0.0
 24
0.0
 34
0.0
 15
0.0
 25
0.0
 35
0.0
146
0.0
 13
0.0
 23
0.0
 33
0.0
 16
1.0
 26
0.0
 36
0.0
 17
0.0
 27
1.0
 37
0.0
 76
     0
330
23
  0
LAYOUT
  5
22
102
{ACAD_REACTORS
330
1A
102
}
330
1A
100
AcDbPlotSettings
  1

  2
none_device
  4
Letter_(8.50_x_11.00_Inches)
  6

 40
6.35
 41
6.35
 42
6.35000508
 43
6.35000508
 44
215.9
 45
279.4
 46
0.0
 47
0.0
 48
0.0
 49
0.0
140
0.0
141
0.0
142
1.0
143
1.0
 70
  1712
 72
     1
 73
     0
 74
     0
  7

 75
     0
 76
     0
 77
     2
 78
   300
147
1.0
148
0.0
149
0.0
100
AcDbLayout
  1
Model
 70
     1
 71
     0
 10
0.0
 20
0.0
 11
1680.0
 21
2376.0
 12
0.0
 22
0.0
 32
0.0
 14
0.0
 24
0.0
 34
0.0
 15
1680.0
 25
2376.0
 35
0.0
146
0.0
 13
0.0
 23
0.0
 33
0.0
 16
1.0
 26
0.0
 36
0.0
 17
0.0
 27
1.0
 37
0.0
 76
     0
330
1F
331
29
  0
MATERIAL
  5
45
102
{ACAD_REACTORS
330
43
102
}
330
43
100
AcDbMaterial
  1
ByBlock
 72
     1
 94
      127
  0
MATERIAL
  5
44
102
{ACAD_REACTORS
330
43
102
}
330
43
100
AcDbMaterial
  1
ByLayer
 72
     1
 94
      127
  0
MATERIAL
  5
46
102
{ACAD_REACTORS
330
43
102
}
330
43
100
AcDbMaterial
  1
Global
 72
     1
 94
      127
  0
MLEADERSTYLE
  5
6C
102
{ACAD_REACTORS
330
6B
102
}
330
6B
100
AcDbMLeaderStyle
170
     2
171
     1
172
     0
 90
        2
 40
0.0
 41
0.0
173
     1
 91
-1056964608
340
14
 92
       -2
290
     1
 42
2.0
291
     1
 43
8.0
  3
Standard
341
0
 44
4.0
300

342
11
174
     1
178
     6
175
     1
176
     0
 93
-1056964608
 45
4.0
292
     0
297
     0
 46
4.0
343
0
 94
-1056964608
 47
1.0
 49
1.0
140
1.0
293
     1
141
0.0
294
     1
177
     0
142
1.0
295
     0
296
     0
143
3.75
1001
ACAD_MLEADERVER
1070
     2
  0
MLINESTYLE
  5
18
102
{ACAD_REACTORS
330
17
102
}
330
17
100
AcDbMlineStyle
  2
Standard
 70
     0
  3

 62
   256
 51
90.0
 52
90.0
 71
     2
 49
0.5
 62
   256
  6
BYLAYER
 49
-0.5
 62
   256
  6
BYLAYER
  0
ACDBPLACEHOLDER
  5
F
102
{ACAD_REACTORS
330
E
102
}
330
E
  0
SCALE
  5
48
102
{ACAD_REACTORS
330
47
102
}
330
47
100
AcDbScale
 70
     0
300
1:1
140
1.0
141
1.0
290
     1
  0
SCALE
  5
49
102
{ACAD_REACTORS
330
47
102
}
330
47
100
AcDbScale
 70
     0
300
1:2
140
1.0
141
2.0
290
     0
  0
SCALE
  5
4A
102
{ACAD_REACTORS
330
47
102
}
330
47
100
AcDbScale
 70
     0
300
1:4
140
1.0
141
4.0
290
     0
  0
SCALE
  5
4B
102
{ACAD_REACTORS
330
47
102
}
330
47
100
AcDbScale
 70
     0
300
1:5
140
1.0
141
5.0
290
     0
  0
SCALE
  5
4C
102
{ACAD_REACTORS
330
47
102
}
330
47
100
AcDbScale
 70
     0
300
1:8
140
1.0
141
8.0
290
     0
  0
SCALE
  5
4D
102
{ACAD_REACTORS
330
47
102
}
330
47
100
AcDbScale
 70
     0
300
1:10
140
1.0
141
10.0
290
     0
  0
SCALE
  5
4E
102
{ACAD_REACTORS
330
47
102
}
330
47
100
AcDbScale
 70
     0
300
1:16
140
1.0
141
16.0
290
     0
  0
SCALE
  5
4F
102
{ACAD_REACTORS
330
47
102
}
330
47
100
AcDbScale
 70
     0
300
1:20
140
1.0
141
20.0
290
     0
  0
SCALE
  5
50
102
{ACAD_REACTORS
330
47
102
}
330
47
100
AcDbScale
 70
     0
300
1:30
140
1.0
141
30.0
290
     0
  0
SCALE
  5
51
102
{ACAD_REACTORS
330
47
102
}
330
47
100
AcDbScale
 70
     0
300
1:40
140
1.0
141
40.0
290
     0
  0
SCALE
  5
52
102
{ACAD_REACTORS
330
47
102
}
330
47
100
AcDbScale
 70
     0
300
1:50
140
1.0
141
50.0
290
     0
  0
SCALE
  5
53
102
{ACAD_REACTORS
330
47
102
}
330
47
100
AcDbScale
 70
     0
300
1:100
140
1.0
141
100.0
290
     0
  0
SCALE
  5
54
102
{ACAD_REACTORS
330
47
102
}
330
47
100
AcDbScale
 70
     0
300
2:1
140
2.0
141
1.0
290
     0
  0
SCALE
  5
55
102
{ACAD_REACTORS
330
47
102
}
330
47
100
AcDbScale
 70
     0
300
4:1
140
4.0
141
1.0
290
     0
  0
SCALE
  5
56
102
{ACAD_REACTORS
330
47
102
}
330
47
100
AcDbScale
 70
     0
300
8:1
140
8.0
141
1.0
290
     0
  0
SCALE
  5
57
102
{ACAD_REACTORS
330
47
102
}
330
47
100
AcDbScale
 70
     0
300
10:1
140
10.0
141
1.0
290
     0
  0
SCALE
  5
58
102
{ACAD_REACTORS
330
47
102
}
330
47
100
AcDbScale
 70
     0
300
100:1
140
100.0
141
1.0
290
     0
  0
SCALE
  5
59
102
{ACAD_REACTORS
330
47
102
}
330
47
100
AcDbScale
 70
     0
300
1/128" = 1'-0"
140
0.0078125
141
12.0
290
     0
  0
SCALE
  5
5A
102
{ACAD_REACTORS
330
47
102
}
330
47
100
AcDbScale
 70
     0
300
1/64" = 1'-0"
140
0.015625
141
12.0
290
     0
  0
SCALE
  5
5B
102
{ACAD_REACTORS
330
47
102
}
330
47
100
AcDbScale
 70
     0
300
1/32" = 1'-0"
140
0.03125
141
12.0
290
     0
  0
SCALE
  5
5C
102
{ACAD_REACTORS
330
47
102
}
330
47
100
AcDbScale
 70
     0
300
1/16" = 1'-0"
140
0.0625
141
12.0
290
     0
  0
SCALE
  5
5D
102
{ACAD_REACTORS
330
47
102
}
330
47
100
AcDbScale
 70
     0
300
3/32" = 1'-0"
140
0.09375
141
12.0
290
     0
  0
SCALE
  5
5E
102
{ACAD_REACTORS
330
47
102
}
330
47
100
AcDbScale
 70
     0
300
1/8" = 1'-0"
140
0.125
141
12.0
290
     0
  0
SCALE
  5
5F
102
{ACAD_REACTORS
330
47
102
}
330
47
100
AcDbScale
 70
     0
300
3/16" = 1'-0"
140
0.1875
141
12.0
290
     0
  0
SCALE
  5
60
102
{ACAD_REACTORS
330
47
102
}
330
47
100
AcDbScale
 70
     0
300
1/4" = 1'-0"
140
0.25
141
12.0
290
     0
  0
SCALE
  5
61
102
{ACAD_REACTORS
330
47
102
}
330
47
100
AcDbScale
 70
     0
300
3/8" = 1'-0"
140
0.375
141
12.0
290
     0
  0
SCALE
  5
62
102
{ACAD_REACTORS
330
47
102
}
330
47
100
AcDbScale
 70
     0
300
1/2" = 1'-0"
140
0.5
141
12.0
290
     0
  0
SCALE
  5
63
102
{ACAD_REACTORS
330
47
102
}
330
47
100
AcDbScale
 70
     0
300
3/4" = 1'-0"
140
0.75
141
12.0
290
     0
  0
SCALE
  5
64
102
{ACAD_REACTORS
330
47
102
}
330
47
100
AcDbScale
 70
     0
300
1" = 1'-0"
140
1.0
141
12.0
290
     0
  0
SCALE
  5
65
102
{ACAD_REACTORS
330
47
102
}
330
47
100
AcDbScale
 70
     0
300
1-1/2" = 1'-0"
140
1.5
141
12.0
290
     0
  0
SCALE
  5
66
102
{ACAD_REACTORS
330
47
102
}
330
47
100
AcDbScale
 70
     0
300
3" = 1'-0"
140
3.0
141
12.0
290
     0
  0
SCALE
  5
67
102
{ACAD_REACTORS
330
47
102
}
330
47
100
AcDbScale
 70
     0
300
6" = 1'-0"
140
6.0
141
12.0
290
     0
  0
SCALE
  5
68
102
{ACAD_REACTORS
330
47
102
}
330
47
100
AcDbScale
 70
     0
300
1'-0" = 1'-0"
140
12.0
141
12.0
290
     0
  0
TABLESTYLE
  5
6A
102
{ACAD_REACTORS
330
69
102
}
102
{ACAD_XDICTIONARY
360
41F
102
}
330
69
100
AcDbTableStyle
  3
Standard
 70
     0
 71
     0
 40
0.06
 41
0.06
280
     0
281
     0
  7
STANDARD
140
4.5
170
     2
 62
     0
 63
   257
283
     0
 90
        4
 91
        0
  1

274
    -2
284
     1
 64
     0
275
    -2
285
     1
 65
     0
276
    -2
286
     1
 66
     0
277
    -2
287
     1
 67
     0
278
    -2
288
     1
 68
     0
279
    -2
289
     1
 69
     0
  7
STANDARD
140
6.0
170
     5
 62
     0
 63
   257
283
     0
 90
        4
 91
        0
  1

274
    -2
284
     1
 64
     0
275
    -2
285
     1
 65
     0
276
    -2
286
     1
 66
     0
277
    -2
287
     1
 67
     0
278
    -2
288
     1
 68
     0
279
    -2
289
     1
 69
     0
  7
STANDARD
140
4.5
170
     5
 62
     0
 63
   257
283
     0
 90
        4
 91
        0
  1

274
    -2
284
     1
 64
     0
275
    -2
285
     1
 65
     0
276
    -2
286
     1
 66
     0
277
    -2
287
     1
 67
     0
278
    -2
288
     1
 68
     0
279
    -2
289
     1
 69
     0
  0
VISUALSTYLE
  5
2F
102
{ACAD_REACTORS
330
2A
102
}
330
2A
100
AcDbVisualStyle
  2
2dWireframe
 70
     4
 71
     0
 72
     2
 73
     0
 90
        0
 40
0.6
 41
30.0
 62
     5
 63
     7
421
 16777215
 74
     1
 91
        4
 64
     7
 65
   257
 75
     1
175
     1
 42
1.0
 92
        0
 66
   257
 43
1.0
 76
     1
 77
     6
 78
     2
 67
     7
 79
     5
170
     0
171
     0
290
     0
174
     0
 93
        1
 44
0.0
173
     0
291
     0
 45
0.0
  0
VISUALSTYLE
  5
32
102
{ACAD_REACTORS
330
2A
102
}
330
2A
100
AcDbVisualStyle
  2
Basic
 70
     7
 71
     1
 72
     0
 73
     1
 90
        0
 40
0.6
 41
30.0
 62
     5
 63
     7
421
 16777215
 74
     0
 91
        4
 64
     7
 65
   257
 75
     1
175
     1
 42
1.0
 92
        8
 66
     7
 43
1.0
 76
     1
 77
     6
 78
     2
 67
     7
 79
     5
170
     0
171
     0
290
     0
174
     0
 93
        1
 44
0.0
173
     0
291
     1
 45
0.0
  0
VISUALSTYLE
  5
36
102
{ACAD_REACTORS
330
2A
102
}
330
2A
100
AcDbVisualStyle
  2
Brighten
 70
    12
 71
     2
 72
     2
 73
     0
 90
        0
 40
0.6
 41
30.0
 62
     5
 63
     7
421
 16777215
 74
     1
 91
        4
 64
     7
 65
   257
 75
     1
175
     1
 42
1.0
 92
        8
 66
     7
 43
1.0
 76
     1
 77
     6
 78
     2
 67
     7
 79
     5
170
     0
171
     0
290
     0
174
     0
 93
        1
 44
50.0
173
     0
291
     1
 45
0.0
  0
VISUALSTYLE
  5
3A
102
{ACAD_REACTORS
330
2A
102
}
330
2A
100
AcDbVisualStyle
  2
ColorChange
 70
    16
 71
     2
 72
     2
 73
     3
 90
        0
 40
0.6
 41
30.0
 62
     5
 63
     8
421
  8421504
 74
     1
 91
        4
 64
     7
 65
   257
 75
     1
175
     1
 42
1.0
 92
        8
 66
     8
424
  8421504
 43
1.0
 76
     1
 77
     6
 78
     2
 67
     7
 79
     5
170
     0
171
     0
290
     0
174
     0
 93
        1
 44
0.0
173
     0
291
     1
 45
0.0
  0
VISUALSTYLE
  5
34
102
{ACAD_REACTORS
330
2A
102
}
330
2A
100
AcDbVisualStyle
  2
Conceptual
 70
     9
 71
     3
 72
     2
 73
     0
 90
        0
 40
0.6
 41
30.0
 62
     5
 63
     7
421
 16777215
 74
     2
 91
        2
 64
     7
 65
   257
 75
     1
175
     1
 42
179.0
 92
        8
 66
     7
 43
1.0
 76
     1
 77
     6
 78
     2
 67
     7
 79
     3
170
     0
171
     0
290
     0
174
     0
 93
        1
 44
0.0
173
     0
291
     0
 45
0.0
  0
VISUALSTYLE
  5
35
102
{ACAD_REACTORS
330
2A
102
}
330
2A
100
AcDbVisualStyle
  2
Dim
 70
    11
 71
     2
 72
     2
 73
     0
 90
        0
 40
0.6
 41
30.0
 62
     5
 63
     7
421
 16777215
 74
     1
 91
        4
 64
     7
 65
   257
 75
     1
175
     1
 42
1.0
 92
        8
 66
     7
 43
1.0
 76
     1
 77
     6
 78
     2
 67
     7
 79
     5
170
     0
171
     0
290
     0
174
     0
 93
        1
 44
-50.0
173
     0
291
     1
 45
0.0
  0
VISUALSTYLE
  5
3D
102
{ACAD_REACTORS
330
2A
102
}
330
2A
100
AcDbVisualStyle
  2
EdgeColorOff
 70
    22
 71
     2
 72
     2
 73
     0
 90
        0
 40
0.6
 41
30.0
 62
     5
 63
     7
421
 16777215
 74
     1
 91
        4
 64
     7
 65
   257
 75
     1
175
     1
 42
1.0
 92
        8
 66
     7
 43
1.0
 76
     1
 77
     6
 78
     2
 67
     7
 79
     5
170
     0
171
     0
290
     0
174
     0
 93
        1
 44
0.0
173
     0
291
     1
 45
0.0
  0
VISUALSTYLE
  5
39
102
{ACAD_REACTORS
330
2A
102
}
330
2A
100
AcDbVisualStyle
  2
Facepattern
 70
    15
 71
     2
 72
     2
 73
     0
 90
        0
 40
0.6
 41
30.0
 62
     5
 63
     7
421
 16777215
 74
     1
 91
        4
 64
     7
 65
   257
 75
     1
175
     1
 42
1.0
 92
        8
 66
     7
 43
1.0
 76
     1
 77
     6
 78
     2
 67
     7
 79
     5
170
     0
171
     0
290
     0
174
     0
 93
        1
 44
0.0
173
     0
291
     1
 45
0.0
  0
VISUALSTYLE
  5
2B
102
{ACAD_REACTORS
330
2A
102
}
330
2A
100
AcDbVisualStyle
  2
Flat
 70
     0
 71
     2
 72
     1
 73
     1
 90
        2
 40
0.6
 41
30.0
 62
     5
 63
     7
421
 16777215
 74
     0
 91
        0
 64
     7
 65
   257
 75
     1
175
     1
 42
1.0
 92
        8
 66
     7
 43
1.0
 76
     1
 77
     6
 78
     2
 67
     7
 79
     5
170
     0
171
     0
290
     0
174
     0
 93
       13
 44
0.0
173
     0
291
     1
 45
0.0
  0
VISUALSTYLE
  5
2C
102
{ACAD_REACTORS
330
2A
102
}
330
2A
100
AcDbVisualStyle
  2
FlatWithEdges
 70
     1
 71
     2
 72
     1
 73
     1
 90
        2
 40
0.6
 41
30.0
 62
     5
 63
     7
421
 16777215
 74
     1
 91
        0
 64
     7
 65
   257
 75
     1
175
     1
 42
1.0
 92
        0
 66
   257
 43
1.0
 76
     1
 77
     6
 78
     2
 67
     7
 79
     5
170
     0
171
     0
290
     0
174
     0
 93
       13
 44
0.0
173
     0
291
     1
 45
0.0
  0
VISUALSTYLE
  5
2D
102
{ACAD_REACTORS
330
2A
102
}
330
2A
100
AcDbVisualStyle
  2
Gouraud
 70
     2
 71
     2
 72
     2
 73
     1
 90
        2
 40
0.6
 41
30.0
 62
     5
 63
     7
421
 16777215
 74
     0
 91
        0
 64
     7
 65
   257
 75
     1
175
     1
 42
1.0
 92
        0
 66
     7
 43
1.0
 76
     1
 77
     6
 78
     2
 67
     7
 79
     5
170
     0
171
     0
290
     0
174
     0
 93
       13
 44
0.0
173
     0
291
     1
 45
0.0
  0
VISUALSTYLE
  5
2E
102
{ACAD_REACTORS
330
2A
102
}
330
2A
100
AcDbVisualStyle
  2
GouraudWithEdges
 70
     3
 71
     2
 72
     2
 73
     1
 90
        2
 40
0.6
 41
30.0
 62
     5
 63
     7
421
 16777215
 74
     1
 91
        0
 64
     7
 65
   257
 75
     1
175
     1
 42
1.0
 92
        0
 66
   257
 43
1.0
 76
     1
 77
     6
 78
     2
 67
     7
 79
     5
170
     0
171
     0
290
     0
174
     0
 93
       13
 44
0.0
173
     0
291
     1
 45
0.0
  0
VISUALSTYLE
  5
31
102
{ACAD_REACTORS
330
2A
102
}
330
2A
100
AcDbVisualStyle
  2
Hidden
 70
     6
 71
     1
 72
     2
 73
     2
 90
        0
 40
0.6
 41
30.0
 62
     5
 63
     7
421
 16777215
 74
     2
 91
        2
 64
     7
 65
   257
 75
     2
175
     1
 42
40.0
 92
        0
 66
   257
 43
1.0
 76
     1
 77
     6
 78
     2
 67
     7
 79
     3
170
     0
171
     0
290
     0
174
     0
 93
        1
 44
0.0
173
     0
291
     0
 45
0.0
  0
VISUALSTYLE
  5
3B
102
{ACAD_REACTORS
330
2A
102
}
330
2A
100
AcDbVisualStyle
  2
JitterOff
 70
    20
 71
     2
 72
     2
 73
     0
 90
        0
 40
0.6
 41
30.0
 62
     5
 63
     7
421
 16777215
 74
     1
 91
        4
 64
     7
 65
   257
 75
     1
175
     1
 42
1.0
 92
       10
 66
     7
 43
1.0
 76
     1
 77
     6
 78
     2
 67
     7
 79
     5
170
     0
171
     0
290
     0
174
     0
 93
        1
 44
0.0
173
     0
291
     1
 45
0.0
  0
VISUALSTYLE
  5
38
102
{ACAD_REACTORS
330
2A
102
}
330
2A
100
AcDbVisualStyle
  2
Linepattern
 70
    14
 71
     2
 72
     2
 73
     0
 90
        0
 40
0.6
 41
30.0
 62
     5
 63
     7
421
 16777215
 74
     1
 91
        4
 64
     7
 65
   257
 75
     7
175
     7
 42
1.0
 92
        8
 66
     7
 43
1.0
 76
     1
 77
     6
 78
     2
 67
     7
 79
     5
170
     0
171
     0
290
     0
174
     0
 93
        1
 44
0.0
173
     0
291
     1
 45
0.0
  0
VISUALSTYLE
  5
3C
102
{ACAD_REACTORS
330
2A
102
}
330
2A
100
AcDbVisualStyle
  2
OverhangOff
 70
    21
 71
     2
 72
     2
 73
     0
 90
        0
 40
0.6
 41
30.0
 62
     5
 63
     7
421
 16777215
 74
     1
 91
        4
 64
     7
 65
   257
 75
     1
175
     1
 42
1.0
 92
        9
 66
     7
 43
1.0
 76
     1
 77
     6
 78
     2
 67
     7
 79
     5
170
     0
171
     0
290
     0
174
     0
 93
        1
 44
0.0
173
     0
291
     1
 45
0.0
  0
VISUALSTYLE
  5
33
102
{ACAD_REACTORS
330
2A
102
}
330
2A
100
AcDbVisualStyle
  2
Realistic
 70
     8
 71
     2
 72
     3
 73
     0
 90
        2
 40
0.6
 41
30.0
 62
     5
 63
     7
421
 16777215
 74
     0
 91
        0
 64
     7
 65
   257
 75
     1
175
     1
 42
1.0
 92
        8
 66
   257
 43
1.0
 76
     1
 77
     6
 78
     2
 67
     7
 79
     3
170
     0
171
     0
290
     0
174
     0
 93
       13
 44
0.0
173
     0
291
     0
 45
0.0
  0
VISUALSTYLE
  5
42
102
{ACAD_REACTORS
330
2A
102
}
330
2A
100
AcDbVisualStyle
  2
Shaded
 70
    27
 71
     2
 72
     2
 73
     1
 90
        2
 40
0.6
 41
30.0
 62
     5
 63
     7
421
 16777215
 74
     0
 91
        4
 64
     7
 65
   257
 75
     1
175
     1
 42
1.0
 92
        8
 66
   257
 43
1.0
 76
     1
 77
     6
 78
     2
 67
     8
425
  7895160
 79
     3
170
     0
171
     0
290
     0
174
     0
 93
        5
 44
0.0
173
     0
291
     0
 45
0.0
  0
VISUALSTYLE
  5
41
102
{ACAD_REACTORS
330
2A
102
}
330
2A
100
AcDbVisualStyle
  2
Shaded with edges
 70
    26
 71
     2
 72
     2
 73
     1
 90
        2
 40
0.6
 41
30.0
 62
     5
 63
     7
421
 16777215
 74
     1
 91
       10
 64
     7
 65
   257
 75
     2
175
     1
 42
1.0
 92
        8
 66
   257
 43
1.0
 76
     1
 77
     6
 78
     2
 67
     7
 79
     3
170
     0
171
     0
290
     0
174
     0
 93
        5
 44
0.0
173
     0
291
     0
 45
0.0
  0
VISUALSTYLE
  5
3E
102
{ACAD_REACTORS
330
2A
102
}
330
2A
100
AcDbVisualStyle
  2
Shades of Gray
 70
    23
 71
     2
 72
     2
 73
     3
 90
        0
 40
0.6
 41
30.0
 62
     5
 63
     7
421
 16777215
 74
     2
 91
        2
 64
     7
 65
     7
 75
     1
175
     1
 42
40.0
 92
        8
 66
     7
 43
1.0
 76
     1
 77
     6
 78
     2
 67
     7
 79
     3
170
     0
171
     0
290
     0
174
     0
 93
        1
 44
0.0
173
     0
291
     0
 45
0.0
  0
VISUALSTYLE
  5
3F
102
{ACAD_REACTORS
330
2A
102
}
330
2A
100
AcDbVisualStyle
  2
Sketchy
 70
    24
 71
     1
 72
     2
 73
     2
 90
        0
 40
0.6
 41
30.0
 62
     5
 63
     7
421
 16777215
 74
     2
 91
        2
 64
     7
 65
     7
 75
     1
175
     1
 42
40.0
 92
       11
 66
     7
 43
1.0
 76
     1
 77
     6
 78
     2
 67
     7
 79
     6
170
     0
171
     0
290
     0
174
     0
 93
        1
 44
0.0
173
     0
291
     0
 45
0.0
  0
VISUALSTYLE
  5
37
102
{ACAD_REACTORS
330
2A
102
}
330
2A
100
AcDbVisualStyle
  2
Thicken
 70
    13
 71
     2
 72
     2
 73
     0
 90
        0
 40
0.6
 41
30.0
 62
     5
 63
     7
421
 16777215
 74
     1
 91
        4
 64
     7
 65
   257
 75
     1
175
     1
 42
1.0
 92
       12
 66
     7
 43
1.0
 76
     1
 77
     6
 78
     2
 67
     7
 79
     5
170
     0
171
     0
290
     0
174
     0
 93
        1
 44
0.0
173
     0
291
     1
 45
0.0
  0
VISUALSTYLE
  5
30
102
{ACAD_REACTORS
330
2A
102
}
330
2A
100
AcDbVisualStyle
  2
Wireframe
 70
     5
 71
     0
 72
     2
 73
     0
 90
        0
 40
0.6
 41
30.0
 62
     5
 63
     7
421
 16777215
 74
     1
 91
        4
 64
     7
 65
   257
 75
     1
175
     1
 42
1.0
 92
        0
 66
   257
 43
1.0
 76
     1
 77
     6
 78
     2
 67
     7
 79
     3
170
     0
171
     0
290
     0
174
     0
 93
        1
 44
0.0
173
     0
291
     0
 45
0.0
  0
VISUALSTYLE
  5
40
102
{ACAD_REACTORS
330
2A
102
}
330
2A
100
AcDbVisualStyle
  2
X-Ray
 70
    25
 71
     2
 72
     2
 73
     1
 90
        1
 40
0.5
 41
30.0
 62
     5
 63
     7
421
 16777215
 74
     1
 91
        0
 64
     7
 65
   257
 75
     1
175
     1
 42
1.0
 92
        8
 66
     7
 43
1.0
 76
     1
 77
     6
 78
     2
 67
     7
 79
     3
170
     0
171
     0
290
     0
174
     0
 93
       13
 44
0.0
173
     0
291
     0
 45
0.0
  0
DICTIONARYVAR
  5
41E
102
{ACAD_REACTORS
330
41D
102
}
330
41D
100
DictionaryVariables
280
     0
  1
1:1
  0
DICTIONARYVAR
  5
424
102
{ACAD_REACTORS
330
41D
102
}
330
41D
100
DictionaryVariables
280
     0
  1
Standard
  0
DICTIONARYVAR
  5
423
102
{ACAD_REACTORS
330
41D
102
}
330
41D
100
DictionaryVariables
280
     0
  1
Standard
  0
DICTIONARY
  5
41F
330
6A
100
AcDbDictionary
280
     1
281
     1
  3
ACAD_ROUNDTRIP_2008_TABLESTYLE_CELLSTYLEMAP
360
420
  0
CELLSTYLEMAP
  5
420
102
{ACAD_REACTORS
330
41F
102
}
330
41F
100
AcDbCellStyleMap
 90
        3
300
CELLSTYLE
  1
TABLEFORMAT_BEGIN
 90
        5
170
     1
 91
        0
 92
    32768
 62
   257
 93
        1
300
CONTENTFORMAT
  1
CONTENTFORMAT_BEGIN
 90
        0
 91
        0
 92
        4
 93
        0
300

 40
0.0
140
1.0
 94
        5
 62
     0
340
11
144
6.0
309
CONTENTFORMAT_END
171
     1
301
MARGIN
  1
CELLMARGIN_BEGIN
 40
1.5
 40
1.5
 40
1.5
 40
1.5
 40
1.5
 40
1.5
309
CELLMARGIN_END
 94
        6
 95
        1
302
GRIDFORMAT
  1
GRIDFORMAT_BEGIN
 90
        0
 91
        1
 62
     0
 92
       -2
340
14
 93
        0
 40
0.045
309
GRIDFORMAT_END
 95
        2
302
GRIDFORMAT
  1
GRIDFORMAT_BEGIN
 90
        0
 91
        1
 62
     0
 92
       -2
340
14
 93
        0
 40
0.045
309
GRIDFORMAT_END
 95
        4
302
GRIDFORMAT
  1
GRIDFORMAT_BEGIN
 90
        0
 91
        1
 62
     0
 92
       -2
340
14
 93
        0
 40
0.045
309
GRIDFORMAT_END
 95
        8
302
GRIDFORMAT
  1
GRIDFORMAT_BEGIN
 90
        0
 91
        1
 62
     0
 92
       -2
340
14
 93
        0
 40
0.045
309
GRIDFORMAT_END
 95
       16
302
GRIDFORMAT
  1
GRIDFORMAT_BEGIN
 90
        0
 91
        1
 62
     0
 92
       -2
340
14
 93
        0
 40
0.045
309
GRIDFORMAT_END
 95
       32
302
GRIDFORMAT
  1
GRIDFORMAT_BEGIN
 90
        0
 91
        1
 62
     0
 92
       -2
340
14
 93
        0
 40
0.045
309
GRIDFORMAT_END
309
TABLEFORMAT_END
  1
CELLSTYLE_BEGIN
 90
        1
 91
        1
300
_TITLE
309
CELLSTYLE_END
300
CELLSTYLE
  1
TABLEFORMAT_BEGIN
 90
        5
170
     1
 91
        0
 92
        0
 62
   257
 93
        1
300
CONTENTFORMAT
  1
CONTENTFORMAT_BEGIN
 90
        0
 91
        0
 92
        4
 93
        0
300

 40
0.0
140
1.0
 94
        5
 62
     0
340
11
144
4.5
309
CONTENTFORMAT_END
171
     1
301
MARGIN
  1
CELLMARGIN_BEGIN
 40
1.5
 40
1.5
 40
1.5
 40
1.5
 40
1.5
 40
1.5
309
CELLMARGIN_END
 94
        6
 95
        1
302
GRIDFORMAT
  1
GRIDFORMAT_BEGIN
 90
        0
 91
        1
 62
     0
 92
       -2
340
14
 93
        0
 40
0.045
309
GRIDFORMAT_END
 95
        2
302
GRIDFORMAT
  1
GRIDFORMAT_BEGIN
 90
        0
 91
        1
 62
     0
 92
       -2
340
14
 93
        0
 40
0.045
309
GRIDFORMAT_END
 95
        4
302
GRIDFORMAT
  1
GRIDFORMAT_BEGIN
 90
        0
 91
        1
 62
     0
 92
       -2
340
14
 93
        0
 40
0.045
309
GRIDFORMAT_END
 95
        8
302
GRIDFORMAT
  1
GRIDFORMAT_BEGIN
 90
        0
 91
        1
 62
     0
 92
       -2
340
14
 93
        0
 40
0.045
309
GRIDFORMAT_END
 95
       16
302
GRIDFORMAT
  1
GRIDFORMAT_BEGIN
 90
        0
 91
        1
 62
     0
 92
       -2
340
14
 93
        0
 40
0.045
309
GRIDFORMAT_END
 95
       32
302
GRIDFORMAT
  1
GRIDFORMAT_BEGIN
 90
        0
 91
        1
 62
     0
 92
       -2
340
14
 93
        0
 40
0.045
309
GRIDFORMAT_END
309
TABLEFORMAT_END
  1
CELLSTYLE_BEGIN
 90
        2
 91
        1
300
_HEADER
309
CELLSTYLE_END
300
CELLSTYLE
  1
TABLEFORMAT_BEGIN
 90
        5
170
     1
 91
        0
 92
        0
 62
   257
 93
        1
300
CONTENTFORMAT
  1
CONTENTFORMAT_BEGIN
 90
        0
 91
        0
 92
        4
 93
        0
300

 40
0.0
140
1.0
 94
        2
 62
     0
340
11
144
4.5
309
CONTENTFORMAT_END
171
     1
301
MARGIN
  1
CELLMARGIN_BEGIN
 40
1.5
 40
1.5
 40
1.5
 40
1.5
 40
1.5
 40
1.5
309
CELLMARGIN_END
 94
        6
 95
        1
302
GRIDFORMAT
  1
GRIDFORMAT_BEGIN
 90
        0
 91
        1
 62
     0
 92
       -2
340
14
 93
        0
 40
0.045
309
GRIDFORMAT_END
 95
        2
302
GRIDFORMAT
  1
GRIDFORMAT_BEGIN
 90
        0
 91
        1
 62
     0
 92
       -2
340
14
 93
        0
 40
0.045
309
GRIDFORMAT_END
 95
        4
302
GRIDFORMAT
  1
GRIDFORMAT_BEGIN
 90
        0
 91
        1
 62
     0
 92
       -2
340
14
 93
        0
 40
0.045
309
GRIDFORMAT_END
 95
        8
302
GRIDFORMAT
  1
GRIDFORMAT_BEGIN
 90
        0
 91
        1
 62
     0
 92
       -2
340
14
 93
        0
 40
0.045
309
GRIDFORMAT_END
 95
       16
302
GRIDFORMAT
  1
GRIDFORMAT_BEGIN
 90
        0
 91
        1
 62
     0
 92
       -2
340
14
 93
        0
 40
0.045
309
GRIDFORMAT_END
 95
       32
302
GRIDFORMAT
  1
GRIDFORMAT_BEGIN
 90
        0
 91
        1
 62
     0
 92
       -2
340
14
 93
        0
 40
0.045
309
GRIDFORMAT_END
309
TABLEFORMAT_END
  1
CELLSTYLE_BEGIN
 90
        3
 91
        2
300
_DATA
309
CELLSTYLE_END
  0
ENDSEC
  0
EOF
