  0
SECTION
  2
HEADER
  9
$ACADVER
  1
AC1021
  9
$ACADMAINTVER
 70
    25
  9
$DWGCODEPAGE
  3
ANSI_1251
  9
$INSBASE
 10
0.0
 20
0.0
 30
0.0
  9
$EXTMIN
 10
0.0
 20
0.0
 30
0.0
  9
$EXTMAX
 10
8400.0
 20
11880.0
 30
0.0
  9
$LIMMIN
 10
0.0
 20
0.0
  9
$LIMMAX
 10
8400.0
 20
11880.0
  9
$ORTHOMODE
 70
     0
  9
$REGENMODE
 70
     1
  9
$FILLMODE
 70
     1
  9
$QTEXTMODE
 70
     0
  9
$MIRRTEXT
 70
     1
  9
$LTSCALE
 40
40.0
  9
$ATTMODE
 70
     1
  9
$TEXTSIZE
 40
140.0
  9
$TRACEWID
 40
1.0
  9
$TEXTSTYLE
  7
STANDARD
  9
$CLAYER
  8
0
  9
$CELTYPE
  6
ByLayer
  9
$CECOLOR
 62
   256
  9
$CELTSCALE
 40
1.0
  9
$DISPSILH
 70
     0
  9
$DIMSCALE
 40
1.0
  9
$DIMASZ
 40
140.0
  9
$DIMEXO
 40
0.4
  9
$DIMDLI
 40
3.75
  9
$DIMRND
 40
0.0
  9
$DIMDLE
 40
0.0
  9
$DIMEXE
 40
40.0
  9
$DIMTP
 40
0.0
  9
$DIMTM
 40
0.0
  9
$DIMTXT
 40
140.0
  9
$DIMCEN
 40
2.5
  9
$DIMTSZ
 40
0.0
  9
$DIMTOL
 70
     0
  9
$DIMLIM
 70
     0
  9
$DIMTIH
 70
     1
  9
$DIMTOH
 70
     1
  9
$DIMSE1
 70
     0
  9
$DIMSE2
 70
     0
  9
$DIMTAD
 70
     1
  9
$DIMZIN
 70
     0
  9
$DIMBLK
  1

  9
$DIMASO
 70
     1
  9
$DIMSHO
 70
     1
  9
$DIMPOST
  1

  9
$DIMAPOST
  1

  9
$DIMALT
 70
     0
  9
$DIMALTD
 70
     3
  9
$DIMALTF
 40
0.0393700787
  9
$DIMLFAC
 40
1.0
  9
$DIMTOFL
 70
     1
  9
$DIMTVP
 40
0.0
  9
$DIMTIX
 70
     0
  9
$DIMSOXD
 70
     0
  9
$DIMSAH
 70
     0
  9
$DIMBLK1
  1

  9
$DIMBLK2
  1

  9
$DIMSTYLE
  2
ISO-25
  9
$DIMCLRD
 70
     0
  9
$DIMCLRE
 70
     0
  9
$DIMCLRT
 70
     0
  9
$DIMTFAC
 40
1.0
  9
$DIMGAP
 40
120.0
  9
$DIMJUST
 70
     0
  9
$DIMSD1
 70
     0
  9
$DIMSD2
 70
     0
  9
$DIMTOLJ
 70
     0
  9
$DIMTZIN
 70
     0
  9
$DIMALTZ
 70
     0
  9
$DIMALTTZ
 70
     0
  9
$DIMUPT
 70
     0
  9
$DIMDEC
 70
     2
  9
$DIMTDEC
 70
     3
  9
$DIMALTU
 70
     2
  9
$DIMALTTD
 70
     3
  9
$DIMTXSTY
  7
STANDARD
  9
$DIMAUNIT
 70
     0
  9
$DIMADEC
 70
     2
  9
$DIMALTRND
 40
0.0
  9
$DIMAZIN
 70
     0
  9
$DIMDSEP
 70
    44
  9
$DIMATFIT
 70
     3
  9
$DIMFRAC
 70
     0
  9
$DIMLDRBLK
  1

  9
$DIMLUNIT
 70
     2
  9
$DIMLWD
 70
    -2
  9
$DIMLWE
 70
    -2
  9
$DIMTMOVE
 70
     0
  9
$DIMFXL
 40
1.0
  9
$DIMFXLON
 70
     0
  9
$DIMJOGANG
 40
0.7853981634
  9
$DIMTFILL
 70
     0
  9
$DIMTFILLCLR
 70
     0
  9
$DIMARCSYM
 70
     0
  9
$DIMLTYPE
  6

  9
$DIMLTEX1
  6

  9
$DIMLTEX2
  6

  9
$LUNITS
 70
     2
  9
$LUPREC
 70
     2
  9
$SKETCHINC
 40
1.0
  9
$FILLETRAD
 40
10.0
  9
$AUNITS
 70
     0
  9
$AUPREC
 70
     2
  9
$MENU
  1
.
  9
$ELEVATION
 40
0.0
  9
$PELEVATION
 40
0.0
  9
$THICKNESS
 40
0.0
  9
$LIMCHECK
 70
     0
  9
$CHAMFERA
 40
0.0
  9
$CHAMFERB
 40
0.0
  9
$CHAMFERC
 40
0.0
  9
$CHAMFERD
 40
0.0
  9
$SKPOLY
 70
     0
  9
$TDCREATE
 40
2457904.796527778
  9
$TDUCREATE
 40
2457904.671527778
  9
$TDUPDATE
 40
2457904.796530984
  9
$TDUUPDATE
 40
2457904.671530984
  9
$TDINDWG
 40
0.0000000116
  9
$TDUSRTIMER
 40
0.0000000116
  9
$USRTIMER
 70
     1
  9
$ANGBASE
 50
0.0
  9
$ANGDIR
 70
     0
  9
$PDMODE
 70
     0
  9
$PDSIZE
 40
-1.0
  9
$PLINEWID
 40
0.0
  9
$SPLFRAME
 70
     0
  9
$SPLINETYPE
 70
     6
  9
$SPLINESEGS
 70
     8
  9
$HANDSEED
  5
538
  9
$SURFTAB1
 70
     6
  9
$SURFTAB2
 70
     6
  9
$SURFTYPE
 70
     6
  9
$SURFU
 70
     6
  9
$SURFV
 70
     6
  9
$UCSBASE
  2

  9
$UCSNAME
  2

  9
$UCSORG
 10
0.0
 20
0.0
 30
0.0
  9
$UCSXDIR
 10
1.0
 20
0.0
 30
0.0
  9
$UCSYDIR
 10
0.0
 20
1.0
 30
0.0
  9
$UCSORTHOREF
  2

  9
$UCSORTHOVIEW
 70
     0
  9
$UCSORGTOP
 10
0.0
 20
0.0
 30
0.0
  9
$UCSORGBOTTOM
 10
0.0
 20
0.0
 30
0.0
  9
$UCSORGLEFT
 10
0.0
 20
0.0
 30
0.0
  9
$UCSORGRIGHT
 10
0.0
 20
0.0
 30
0.0
  9
$UCSORGFRONT
 10
0.0
 20
0.0
 30
0.0
  9
$UCSORGBACK
 10
0.0
 20
0.0
 30
0.0
  9
$PUCSBASE
  2

  9
$PUCSNAME
  2

  9
$PUCSORG
 10
0.0
 20
0.0
 30
0.0
  9
$PUCSXDIR
 10
1.0
 20
0.0
 30
0.0
  9
$PUCSYDIR
 10
0.0
 20
1.0
 30
0.0
  9
$PUCSORTHOREF
  2

  9
$PUCSORTHOVIEW
 70
     0
  9
$PUCSORGTOP
 10
0.0
 20
0.0
 30
0.0
  9
$PUCSORGBOTTOM
 10
0.0
 20
0.0
 30
0.0
  9
$PUCSORGLEFT
 10
0.0
 20
0.0
 30
0.0
  9
$PUCSORGRIGHT
 10
0.0
 20
0.0
 30
0.0
  9
$PUCSORGFRONT
 10
0.0
 20
0.0
 30
0.0
  9
$PUCSORGBACK
 10
0.0
 20
0.0
 30
0.0
  9
$USERI1
 70
     0
  9
$USERI2
 70
     0
  9
$USERI3
 70
     0
  9
$USERI4
 70
     0
  9
$USERI5
 70
     0
  9
$USERR1
 40
0.0
  9
$USERR2
 40
0.0
  9
$USERR3
 40
0.0
  9
$USERR4
 40
0.0
  9
$USERR5
 40
0.0
  9
$WORLDVIEW
 70
     1
  9
$SHADEDGE
 70
     3
  9
$SHADEDIF
 70
    70
  9
$TILEMODE
 70
     1
  9
$MAXACTVP
 70
    64
  9
$PINSBASE
 10
0.0
 20
0.0
 30
0.0
  9
$PLIMCHECK
 70
     0
  9
$PEXTMIN
 10
1.0000000000E+20
 20
1.0000000000E+20
 30
1.0000000000E+20
  9
$PEXTMAX
 10
-1.0000000000E+20
 20
-1.0000000000E+20
 30
-1.0000000000E+20
  9
$PLIMMIN
 10
0.0
 20
0.0
  9
$PLIMMAX
 10
420.0
 20
297.0
  9
$UNITMODE
 70
     0
  9
$VISRETAIN
 70
     1
  9
$PLINEGEN
 70
     0
  9
$PSLTSCALE
 70
     1
  9
$TREEDEPTH
 70
  3020
  9
$CMLSTYLE
  2
Standard
  9
$CMLJUST
 70
     0
  9
$CMLSCALE
 40
20.0
  9
$PROXYGRAPHICS
 70
     1
  9
$MEASUREMENT
 70
     1
  9
$CELWEIGHT
370
    -1
  9
$ENDCAPS
280
     0
  9
$JOINSTYLE
280
     0
  9
$LWDISPLAY
290
     1
  9
$INSUNITS
 70
     4
  9
$HYPERLINKBASE
  1

  9
$STYLESHEET
  1

  9
$XEDIT
290
     1
  9
$CEPSNTYPE
380
     0
  9
$PSTYLEMODE
290
     1
  9
$FINGERPRINTGUID
  2
{FE7E96CA-75AA-4F59-97BC-8011CB4CBF60}
  9
$VERSIONGUID
  2
{FAEB1C32-E019-11D5-929B-00C0DF256EC4}
  9
$EXTNAMES
290
     1
  9
$PSVPSCALE
 40
0.0
  9
$OLESTARTUP
290
     0
  9
$SORTENTS
280
   127
  9
$INDEXCTL
280
     0
  9
$HIDETEXT
280
     1
  9
$XCLIPFRAME
290
     0
  9
$HALOGAP
280
     0
  9
$OBSCOLOR
 70
   257
  9
$OBSLTYPE
280
     0
  9
$INTERSECTIONDISPLAY
280
     0
  9
$INTERSECTIONCOLOR
 70
   257
  9
$DIMASSOC
280
     2
  9
$PROJECTNAME
  1

  9
$CAMERADISPLAY
290
     0
  9
$LENSLENGTH
 40
50.0
  9
$CAMERAHEIGHT
 40
0.0
  9
$STEPSPERSEC
 40
2.0
  9
$STEPSIZE
 40
6.0
  9
$3DDWFPREC
 40
2.0
  9
$PSOLWIDTH
 40
5.0
  9
$PSOLHEIGHT
 40
80.0
  9
$LOFTANG1
 40
1.5707963268
  9
$LOFTANG2
 40
1.5707963268
  9
$LOFTMAG1
 40
0.0
  9
$LOFTMAG2
 40
0.0
  9
$LOFTPARAM
 70
     7
  9
$LOFTNORMALS
280
     1
  9
$LATITUDE
 40
37.795
  9
$LONGITUDE
 40
-122.394
  9
$NORTHDIRECTION
 40
0.0
  9
$TIMEZONE
 70
 -8000
  9
$LIGHTGLYPHDISPLAY
280
     1
  9
$TILEMODELIGHTSYNCH
280
     1
  9
$CMATERIAL
347
44
  9
$SOLIDHIST
280
     0
  9
$SHOWHIST
280
     1
  9
$DWFFRAME
280
     2
  9
$DGNFRAME
280
     2
  9
$REALWORLDSCALE
290
     1
  9
$INTERFERECOLOR
 62
   256
  9
$CSHADOW
280
     0
  9
$SHADOWPLANELOCATION
 40
0.0
  0
ENDSEC
  0
SECTION
  2
CLASSES
  0
CLASS
  1
ACDBDICTIONARYWDFLT
  2
AcDbDictionaryWithDefault
  3
ObjectDBX Classes
 90
        0
 91
        4
280
     0
281
     0
  0
CLASS
  1
VISUALSTYLE
  2
AcDbVisualStyle
  3
ObjectDBX Classes
 90
     4095
 91
        4
280
     0
281
     0
  0
CLASS
  1
MATERIAL
  2
AcDbMaterial
  3
ObjectDBX Classes
 90
     1153
 91
        4
280
     0
281
     0
  0
CLASS
  1
SCALE
  2
AcDbScale
  3
ObjectDBX Classes
 90
     1153
 91
        4
280
     0
281
     0
  0
CLASS
  1
TABLESTYLE
  2
AcDbTableStyle
  3
ObjectDBX Classes
 90
     4095
 91
        4
280
     0
281
     0
  0
CLASS
  1
MLEADERSTYLE
  2
AcDbMLeaderStyle
  3
ACDB_MLEADERSTYLE_CLASS
 90
     4095
 91
        4
280
     0
281
     0
  0
CLASS
  1
SUN
  2
AcDbSun
  3
SCENEOE
 90
     1153
 91
        4
280
     0
281
     0
  0
CLASS
  1
DICTIONARYVAR
  2
AcDbDictionaryVar
  3
ObjectDBX Classes
 90
        0
 91
        4
280
     0
281
     0
  0
CLASS
  1
CELLSTYLEMAP
  2
AcDbCellStyleMap
  3
ObjectDBX Classes
 90
     1152
 91
        4
280
     0
281
     0
  0
ENDSEC
  0
SECTION
  2
TABLES
  0
TABLE
  2
VPORT
  5
8
330
0
100
AcDbSymbolTable
 70
     1
  0
VPORT
  5
29
330
8
100
AcDbSymbolTableRecord
100
AcDbViewportTableRecord
  2
*Active
 70
     0
 10
0.0
 20
0.0
 11
1.0
 21
1.0
 12
4200.0
 22
5940.0
 13
0.0
 23
0.0
 14
10.0
 24
10.0
 15
10.0
 25
10.0
 16
0.0
 26
0.0
 36
1.0
 17
0.0
 27
0.0
 37
0.0
 40
11880.0
 41
0.7070707071
 42
50.0
 43
0.0
 44
0.0
 50
0.0
 51
0.0
 71
     0
 72
  2000
 73
     1
 74
     3
 75
     0
 76
     0
 77
     0
 78
     0
281
     0
 65
     1
110
0.0
120
0.0
130
0.0
111
1.0
121
0.0
131
0.0
112
0.0
122
1.0
132
0.0
 79
     0
146
0.0
348
2F
 60
     3
 61
     5
292
     1
282
     1
141
0.0
142
0.0
 63
   250
361
6D
  0
ENDTAB
  0
TABLE
  2
LTYPE
  5
5
330
0
100
AcDbSymbolTable
 70
     6
  0
LTYPE
  5
14
330
5
100
AcDbSymbolTableRecord
100
AcDbLinetypeTableRecord
  2
ByBlock
 70
     0
  3

 72
    65
 73
     0
 40
0.0
  0
LTYPE
  5
15
330
5
100
AcDbSymbolTableRecord
100
AcDbLinetypeTableRecord
  2
ByLayer
 70
     0
  3

 72
    65
 73
     0
 40
0.0
  0
LTYPE
  5
16
330
5
100
AcDbSymbolTableRecord
100
AcDbLinetypeTableRecord
  2
Continuous
 70
     0
  3
Solid line
 72
    65
 73
     0
 40
0.0
  0
LTYPE
  5
6E
330
5
100
AcDbSymbolTableRecord
100
AcDbLinetypeTableRecord
  2
HIDDEN
 70
     0
  3
Hidden __ __ __ __ __ __ __ __ __ __ __ __ __ __
 72
    65
 73
     2
 40
1.905
 49
1.27
 74
     0
 49
-0.635
 74
     0
  0
LTYPE
  5
6F
330
5
100
AcDbSymbolTableRecord
100
AcDbLinetypeTableRecord
  2
PHANTOM
 70
     0
  3
Phantom ______  __  __  ______  __  __  ______
 72
    65
 73
     6
 40
12.7
 49
6.35
 74
     0
 49
-1.27
 74
     0
 49
1.27
 74
     0
 49
-1.27
 74
     0
 49
1.27
 74
     0
 49
-1.27
 74
     0
  0
LTYPE
  5
70
330
5
100
AcDbSymbolTableRecord
100
AcDbLinetypeTableRecord
  2
CENTER
 70
     0
  3
Center ____ _ ____ _ ____ _ ____ _ ____ _ ____
 72
    65
 73
     4
 40
10.16
 49
6.35
 74
     0
 49
-1.27
 74
     0
 49
1.27
 74
     0
 49
-1.27
 74
     0
  0
LTYPE
  5
71
330
5
100
AcDbSymbolTableRecord
100
AcDbLinetypeTableRecord
  2
CENTERX2
 70
     0
  3
Center (2x) ________  __  ________  __  _____
 72
    65
 73
     4
 40
20.32
 49
12.7
 74
     0
 49
-2.54
 74
     0
 49
2.54
 74
     0
 49
-2.54
 74
     0
  0
LTYPE
  5
72
330
5
100
AcDbSymbolTableRecord
100
AcDbLinetypeTableRecord
  2
DOT2
 70
     0
  3
Dot (.5x) ........................................
 72
    65
 73
     2
 40
0.635
 49
0.0
 74
     0
 49
-0.635
 74
     0
  0
ENDTAB
  0
TABLE
  2
LAYER
  5
2
330
0
100
AcDbSymbolTable
 70
     7
  0
LAYER
  5
10
330
2
100
AcDbSymbolTableRecord
100
AcDbLayerTableRecord
  2
0
 70
     0
 62
     7
  6
Continuous
370
    -3
390
F
347
46
  0
LAYER
  5
73
330
2
100
AcDbSymbolTableRecord
100
AcDbLayerTableRecord
  2
THIN_LINE
 70
     0
 62
     7
  6
Continuous
370
    -3
390
F
347
46
  0
LAYER
  5
74
330
2
100
AcDbSymbolTableRecord
100
AcDbLayerTableRecord
  2
THICK_LINE
 70
     0
 62
     7
  6
Continuous
370
    25
390
F
347
46
  0
LAYER
  5
75
330
2
100
AcDbSymbolTableRecord
100
AcDbLayerTableRecord
  2
ПОДЧЕРКТИПОРАЗМЕР
 70
     0
 62
    -7
  6
Continuous
290
     0
370
    -3
390
F
347
46
  0
LAYER
  5
76
330
2
100
AcDbSymbolTableRecord
100
AcDbLayerTableRecord
  2
THIN_LIONE
 70
     0
 62
     7
  6
Continuous
370
    -3
390
F
347
46
  0
LAYER
  5
77
330
2
100
AcDbSymbolTableRecord
100
AcDbLayerTableRecord
  2
THICK_LIONE
 70
     0
 62
     7
  6
Continuous
370
    25
390
F
347
46
  0
LAYER
  5
78
330
2
100
AcDbSymbolTableRecord
100
AcDbLayerTableRecord
  2
ПОДЧЕРКТИПАРАЗМЕР
 70
     0
 62
    -7
  6
Continuous
290
     0
370
    -3
390
F
347
46
  0
ENDTAB
  0
TABLE
  2
STYLE
  5
3
330
0
100
AcDbSymbolTable
 70
     6
  0
STYLE
  5
11
330
3
100
AcDbSymbolTableRecord
100
AcDbTextStyleTableRecord
  2
STANDARD
 70
     0
 40
0.0
 41
1.0
 50
0.0
 71
     0
 42
140.0
  3
ARIAL.TTF
  4

1001
ACAD
1000
ARIAL
1071
       34
  0
STYLE
  5
9E
330
3
100
AcDbSymbolTableRecord
100
AcDbTextStyleTableRecord
  2
SLDTEXTSTYLE0
 70
     0
 40
0.0
 41
1.0
 50
0.0
 71
     0
 42
140.0
  3
GOSTA.TTF
  4
bigfont
1001
ACAD
1000
GOST 2.304 A
1071
 16777474
  0
STYLE
  5
A8
330
3
100
AcDbSymbolTableRecord
100
AcDbTextStyleTableRecord
  2
SLDTEXTSTYLE1
 70
     0
 40
0.0
 41
1.0
 50
0.0
 71
     0
 42
140.0
  3
GOSTA.TTF
  4

1001
ACAD
1000
GOST 2.304 A
1071
 16777474
  0
STYLE
  5
AF
330
3
100
AcDbSymbolTableRecord
100
AcDbTextStyleTableRecord
  2
SLDTEXTSTYLE2
 70
     0
 40
0.0
 41
0.6
 50
0.0
 71
     0
 42
140.0
  3
GOSTA.TTF
  4
bigfont
1001
ACAD
1000
GOST 2.304 A
1071
 16777474
  0
STYLE
  5
CC
330
3
100
AcDbSymbolTableRecord
100
AcDbTextStyleTableRecord
  2
SLDTEXTSTYLE3
 70
     0
 40
0.0
 41
1.0
 50
0.0
 71
     0
 42
140.0
  3
ARIBLK.TTF
  4

1001
ACAD
1000
Arial Black
1071
      290
  0
STYLE
  5
49F
330
3
100
AcDbSymbolTableRecord
100
AcDbTextStyleTableRecord
  2
SLDTEXTSTYLE4
 70
     0
 40
0.0
 41
0.948
 50
0.0
 71
     0
 42
140.0
  3
ARIAL.TTF
  4

1001
ACAD
1000
Arial
1071
      290
  0
ENDTAB
  0
TABLE
  2
VIEW
  5
6
330
0
100
AcDbSymbolTable
 70
     0
  0
ENDTAB
  0
TABLE
  2
UCS
  5
7
330
0
100
AcDbSymbolTable
 70
     0
  0
ENDTAB
  0
TABLE
  2
APPID
  5
9
330
0
100
AcDbSymbolTable
 70
     2
  0
APPID
  5
12
330
9
100
AcDbSymbolTableRecord
100
AcDbRegAppTableRecord
  2
ACAD
 70
     0
  0
APPID
  5
532
330
9
100
AcDbSymbolTableRecord
100
AcDbRegAppTableRecord
  2
ACAD_MLEADERVER
 70
     0
  0
ENDTAB
  0
TABLE
  2
DIMSTYLE
  5
A
330
0
100
AcDbSymbolTable
 70
     4
100
AcDbDimStyleTable
  0
DIMSTYLE
105
27
330
A
100
AcDbSymbolTableRecord
100
AcDbDimStyleTableRecord
  2
ISO-25
 70
     0
 41
2.5
 42
0.625
 43
3.75
 44
1.25
 73
     0
 74
     0
 77
     1
 78
     8
140
2.5
141
2.5
143
0.0393700787
147
0.625
171
     3
172
     1
178
     0
271
     2
272
     2
274
     3
278
    44
283
     0
284
     8
340
11
  0
DIMSTYLE
105
4A0
102
{ACAD_REACTORS
330
49E
330
4AA
330
4B4
330
4C9
330
4D3
102
}
330
A
100
AcDbSymbolTableRecord
100
AcDbDimStyleTableRecord
  2
SLDDIMSTYLE0
 70
     0
 41
140.0
 44
0.0
 45
0.000000001
 73
     0
 74
     0
 77
     2
 78
    12
 79
     3
140
140.0
147
35.0
173
     1
178
     0
271
     2
272
     3
276
     2
284
    12
340
49F
  0
DIMSTYLE
105
4BF
102
{ACAD_REACTORS
330
4BE
330
4DD
330
4EA
102
}
330
A
100
AcDbSymbolTableRecord
100
AcDbDimStyleTableRecord
  2
SLDDIMSTYLE1
 70
     0
 41
140.0
 44
0.0
 45
0.000000001
 73
     0
 74
     0
 77
     2
 78
    12
 79
     3
140
140.0
147
35.0
172
     1
173
     1
178
     0
271
     2
272
     3
276
     2
284
    12
289
     0
340
49F
  0
DIMSTYLE
105
4FD
330
A
100
AcDbSymbolTableRecord
100
AcDbDimStyleTableRecord
  2
SLDDIMSTYLE2
 70
     0
 41
140.0
 44
0.0
 45
0.000000001
146
140.0
147
0.0
173
     1
178
     0
271
     0
272
     0
276
     2
340
11
  0
ENDTAB
  0
TABLE
  2
BLOCK_RECORD
  5
1
330
0
100
AcDbSymbolTable
 70
    21
  0
BLOCK_RECORD
  5
1F
330
1
100
AcDbSymbolTableRecord
100
AcDbBlockTableRecord
  2
*Model_Space
340
22
 70
     0
280
     1
281
     0
  0
BLOCK_RECORD
  5
1B
330
1
100
AcDbSymbolTableRecord
100
AcDbBlockTableRecord
  2
*Paper_Space
340
1E
 70
     0
280
     1
281
     0
  0
BLOCK_RECORD
  5
23
330
1
100
AcDbSymbolTableRecord
100
AcDbBlockTableRecord
  2
*Paper_Space0
340
26
 70
     0
280
     1
281
     0
  0
BLOCK_RECORD
  5
A1
330
1
100
AcDbSymbolTableRecord
100
AcDbBlockTableRecord
  2
SW_NOTE_0
340
0
102
{BLKREFS
331
AC
102
}
 70
     0
280
     1
281
     0
  0
BLOCK_RECORD
  5
A4
330
1
100
AcDbSymbolTableRecord
100
AcDbBlockTableRecord
  2
SW_SYMBOL_GWLD_NUM
340
0
102
{BLKREFS
331
AA
331
B5
331
BD
331
C3
102
}
 70
     0
280
     1
281
     0
  0
BLOCK_RECORD
  5
B1
330
1
100
AcDbSymbolTableRecord
100
AcDbBlockTableRecord
  2
SW_NOTE_1
340
0
102
{BLKREFS
331
B7
102
}
 70
     0
280
     1
281
     0
  0
BLOCK_RECORD
  5
B9
330
1
100
AcDbSymbolTableRecord
100
AcDbBlockTableRecord
  2
SW_NOTE_2
340
0
102
{BLKREFS
331
BE
102
}
 70
     0
280
     1
281
     0
  0
BLOCK_RECORD
  5
BF
330
1
100
AcDbSymbolTableRecord
100
AcDbBlockTableRecord
  2
SW_NOTE_3
340
0
102
{BLKREFS
331
C5
102
}
 70
     0
280
     1
281
     0
  0
BLOCK_RECORD
  5
4A1
330
1
100
AcDbSymbolTableRecord
100
AcDbBlockTableRecord
  2
_D
340
0
 70
     0
280
     1
281
     0
  0
BLOCK_RECORD
  5
4AB
330
1
100
AcDbSymbolTableRecord
100
AcDbBlockTableRecord
  2
_D_1
340
0
 70
     0
280
     1
281
     0
  0
BLOCK_RECORD
  5
4B5
330
1
100
AcDbSymbolTableRecord
100
AcDbBlockTableRecord
  2
_D_2
340
0
 70
     0
280
     1
281
     0
  0
BLOCK_RECORD
  5
4C0
330
1
100
AcDbSymbolTableRecord
100
AcDbBlockTableRecord
  2
_D_3
340
0
 70
     0
280
     1
281
     0
  0
BLOCK_RECORD
  5
4CA
330
1
100
AcDbSymbolTableRecord
100
AcDbBlockTableRecord
  2
_D_4
340
0
 70
     0
280
     1
281
     0
  0
BLOCK_RECORD
  5
4D4
330
1
100
AcDbSymbolTableRecord
100
AcDbBlockTableRecord
  2
_D_5
340
0
 70
     0
280
     1
281
     0
  0
BLOCK_RECORD
  5
4DE
330
1
100
AcDbSymbolTableRecord
100
AcDbBlockTableRecord
  2
_D_6
340
0
 70
     0
280
     1
281
     0
  0
BLOCK_RECORD
  5
4EB
330
1
100
AcDbSymbolTableRecord
100
AcDbBlockTableRecord
  2
_D_7
340
0
 70
     0
280
     1
281
     0
  0
BLOCK_RECORD
  5
4F7
330
1
100
AcDbSymbolTableRecord
100
AcDbBlockTableRecord
  2
SW_NOTE_4
340
0
102
{BLKREFS
331
4FC
102
}
 70
     0
280
     1
281
     0
  0
BLOCK_RECORD
  5
4FF
330
1
100
AcDbSymbolTableRecord
100
AcDbBlockTableRecord
  2
SW_NOTE_5
340
0
102
{BLKREFS
331
504
102
}
 70
     0
280
     1
281
     0
  0
BLOCK_RECORD
  5
506
330
1
100
AcDbSymbolTableRecord
100
AcDbBlockTableRecord
  2
SW_NOTE_6
340
0
102
{BLKREFS
331
50B
102
}
 70
     0
280
     1
281
     0
  0
BLOCK_RECORD
  5
50D
330
1
100
AcDbSymbolTableRecord
100
AcDbBlockTableRecord
  2
SW_NOTE_7
340
0
102
{BLKREFS
331
512
102
}
 70
     0
280
     1
281
     0
  0
BLOCK_RECORD
  5
514
330
1
100
AcDbSymbolTableRecord
100
AcDbBlockTableRecord
  2
SW_NOTE_8
340
0
102
{BLKREFS
331
519
102
}
 70
     0
280
     1
281
     0
  0
BLOCK_RECORD
  5
51B
330
1
100
AcDbSymbolTableRecord
100
AcDbBlockTableRecord
  2
SW_NOTE_9
340
0
102
{BLKREFS
331
523
102
}
 70
     0
280
     1
281
     0
  0
BLOCK_RECORD
  5
527
330
1
100
AcDbSymbolTableRecord
100
AcDbBlockTableRecord
  2
SW_NOTE_10
340
0
102
{BLKREFS
331
52C
102
}
 70
     0
280
     1
281
     0
  0
ENDTAB
  0
ENDSEC
  0
SECTION
  2
BLOCKS
  0
BLOCK
  5
20
330
1F
100
AcDbEntity
  8
0
100
AcDbBlockBegin
  2
*Model_Space
 70
     0
 10
0.0
 20
0.0
 30
0.0
  3
*Model_Space
  1

  0
ENDBLK
  5
21
330
1F
100
AcDbEntity
  8
0
100
AcDbBlockEnd
  0
BLOCK
  5
1C
330
1B
100
AcDbEntity
 67
     1
  8
0
100
AcDbBlockBegin
  2
*Paper_Space
 70
     0
 10
0.0
 20
0.0
 30
0.0
  3
*Paper_Space
  1

  0
ENDBLK
  5
1D
330
1B
100
AcDbEntity
 67
     1
  8
0
100
AcDbBlockEnd
  0
BLOCK
  5
24
330
23
100
AcDbEntity
  8
0
100
AcDbBlockBegin
  2
*Paper_Space0
 70
     0
 10
0.0
 20
0.0
 30
0.0
  3
*Paper_Space0
  1

  0
ENDBLK
  5
25
330
23
100
AcDbEntity
  8
0
100
AcDbBlockEnd
  0
BLOCK
  5
A2
330
A1
100
AcDbEntity
  8
0
100
AcDbBlockBegin
  2
SW_NOTE_0
 70
     0
 10
0.0
 20
0.0
 30
0.0
  3
SW_NOTE_0
  1

  0
INSERT
  5
AA
330
A1
100
AcDbEntity
  8
0
  6
Continuous
 62
     0
370
     0
100
AcDbBlockReference
  2
SW_SYMBOL_GWLD_NUM
 10
0.0
 20
18.2938856016
 30
0.0
 41
0.0044146943
 42
0.0044146943
 43
0.0044146943
  0
MTEXT
  5
AB
330
A1
100
AcDbEntity
  8
0
  6
Continuous
 62
     0
370
     0
100
AcDbMText
 10
225.1083403826
 20
176.5877712032
 30
0.0
 40
140.0
 41
0.0
 46
0.0
 71
     1
 72
     1
  1
 докум
  7
SLDTEXTSTYLE0
 73
     1
 44
1.0
  0
ENDBLK
  5
A3
330
A1
100
AcDbEntity
  8
0
100
AcDbBlockEnd
  0
BLOCK
  5
A5
330
A4
100
AcDbEntity
  8
0
100
AcDbBlockBegin
  2
SW_SYMBOL_GWLD_NUM
 70
     0
 10
0.0
 20
0.0
 30
0.0
  3
SW_SYMBOL_GWLD_NUM
  1

  0
CIRCLE
  5
A7
330
A4
100
AcDbEntity
  8
0
  6
Continuous
 62
     0
370
     0
100
AcDbCircle
 10
42000.0
 20
33000.0
 30
0.0
 40
5000.0
  0
MTEXT
  5
A9
330
A4
100
AcDbEntity
  8
0
  6
Continuous
 62
     0
370
     0
100
AcDbMText
 10
16000.0
 20
20000.0
 30
0.0
 40
31712.2752150117
 41
0.0
 46
0.0
 71
     5
 72
     1
  1
N
  7
SLDTEXTSTYLE1
 73
     1
 44
1.0
  0
ENDBLK
  5
A6
330
A4
100
AcDbEntity
  8
0
100
AcDbBlockEnd
  0
BLOCK
  5
B2
330
B1
100
AcDbEntity
  8
0
100
AcDbBlockBegin
  2
SW_NOTE_1
 70
     0
 10
0.0
 20
0.0
 30
0.0
  3
SW_NOTE_1
  1

  0
MTEXT
  5
B4
330
B1
100
AcDbEntity
  8
0
  6
Continuous
 62
     0
370
     0
100
AcDbMText
 10
-126.134122288
 20
0.0
 30
0.0
 40
100.0
 41
0.0
 46
0.0
 71
     1
 72
     1
  1
Инв.
  7
SLDTEXTSTYLE2
 11
-3.491481338843133E-15
 21
1.0
 31
0.0
 73
     1
 44
1.0
  0
INSERT
  5
B5
330
B1
100
AcDbEntity
  8
0
  6
Continuous
 62
     0
370
     0
100
AcDbBlockReference
  2
SW_SYMBOL_GWLD_NUM
 10
-13.067061144
 20
268.0555358529
 30
0.0
 41
0.0031533531
 42
0.0031533531
 43
0.0031533531
 50
90.0
  0
MTEXT
  5
B6
330
B1
100
AcDbEntity
  8
0
  6
Continuous
 62
     0
370
     0
100
AcDbMText
 10
-126.134122288
 20
428.8472235203
 30
0.0
 40
100.0
 41
0.0
 46
0.0
 71
     1
 72
     1
  1
подл.
  7
SLDTEXTSTYLE2
 11
-3.491481338843133E-15
 21
1.0
 31
0.0
 73
     1
 44
1.0
  0
ENDBLK
  5
B3
330
B1
100
AcDbEntity
  8
0
100
AcDbBlockEnd
  0
BLOCK
  5
BA
330
B9
100
AcDbEntity
  8
0
100
AcDbBlockBegin
  2
SW_NOTE_2
 70
     0
 10
0.0
 20
0.0
 30
0.0
  3
SW_NOTE_2
  1

  0
MTEXT
  5
BC
330
B9
100
AcDbEntity
  8
0
  6
Continuous
 62
     0
370
     0
100
AcDbMText
 10
-126.134122288
 20
0.0
 30
0.0
 40
100.0
 41
0.0
 46
0.0
 71
     1
 72
     1
  1
Взам. инв. 
  7
SLDTEXTSTYLE2
 11
-3.491481338843133E-15
 21
1.0
 31
0.0
 73
     1
 44
1.0
  0
INSERT
  5
BD
330
B9
100
AcDbEntity
  8
0
  6
Continuous
 62
     0
370
     0
100
AcDbBlockReference
  2
SW_SYMBOL_GWLD_NUM
 10
-13.067061144
 20
718.8610732555
 30
0.0
 41
0.0031533531
 42
0.0031533531
 43
0.0031533531
 50
90.0
  0
ENDBLK
  5
BB
330
B9
100
AcDbEntity
  8
0
100
AcDbBlockEnd
  0
BLOCK
  5
C0
330
BF
100
AcDbEntity
  8
0
100
AcDbBlockBegin
  2
SW_NOTE_3
 70
     0
 10
0.0
 20
0.0
 30
0.0
  3
SW_NOTE_3
  1

  0
MTEXT
  5
C2
330
BF
100
AcDbEntity
  8
0
  6
Continuous
 62
     0
370
     0
100
AcDbMText
 10
-126.134122288
 20
0.0
 30
0.0
 40
100.0
 41
0.0
 46
0.0
 71
     1
 72
     1
  1
Инв. 
  7
SLDTEXTSTYLE2
 11
-3.491481338843133E-15
 21
1.0
 31
0.0
 73
     1
 44
1.0
  0
INSERT
  5
C3
330
BF
100
AcDbEntity
  8
0
  6
Continuous
 62
     0
370
     0
100
AcDbBlockReference
  2
SW_SYMBOL_GWLD_NUM
 10
-13.067061144
 20
328.6110982299
 30
0.0
 41
0.0031533531
 42
0.0031533531
 43
0.0031533531
 50
90.0
  0
MTEXT
  5
C4
330
BF
100
AcDbEntity
  8
0
  6
Continuous
 62
     0
370
     0
100
AcDbMText
 10
-126.134122288
 20
489.4027858973
 30
0.0
 40
100.0
 41
0.0
 46
0.0
 71
     1
 72
     1
  1
 дубл.
  7
SLDTEXTSTYLE2
 11
-3.491481338843133E-15
 21
1.0
 31
0.0
 73
     1
 44
1.0
  0
ENDBLK
  5
C1
330
BF
100
AcDbEntity
  8
0
100
AcDbBlockEnd
  0
BLOCK
  5
4A2
330
4A1
100
AcDbEntity
  8
0
100
AcDbBlockBegin
  2
_D
 70
     0
 10
0.0
 20
0.0
 30
0.0
  3
_D
  1

  0
SOLID
  5
4A4
330
4A1
100
AcDbEntity
  8
THICK_LINE
 62
     7
100
AcDbTrace
 10
3987.4705215757
 20
2472.3262511306
 30
0.0
 11
4127.4705215757
 21
2450.7877895922
 31
0.0
 12
4127.4705215757
 22
2493.8647126691
 32
0.0
 13
4127.4705215757
 23
2493.8647126691
 33
0.0
  0
SOLID
  5
4A5
330
4A1
100
AcDbEntity
  8
THICK_LINE
 62
     7
100
AcDbTrace
 10
7383.1510463286
 20
2472.3262511306
 30
0.0
 11
7243.1510463286
 21
2493.8647126691
 31
0.0
 12
7243.1510463286
 22
2450.7877895922
 32
0.0
 13
7243.1510463286
 23
2450.7877895922
 33
0.0
  0
LINE
  5
4A6
330
4A1
100
AcDbEntity
  8
THICK_LINE
 62
     7
100
AcDbLine
 10
3987.4705215757
 20
2963.19821073
 30
0.0
 11
3987.4705215757
 21
2432.3262511306
 31
0.0
  0
LINE
  5
4A7
330
4A1
100
AcDbEntity
  8
THICK_LINE
 62
     7
100
AcDbLine
 10
7383.1510463286
 20
2987.738254064
 30
0.0
 11
7383.1510463286
 21
2432.3262511306
 31
0.0
  0
LINE
  5
4A8
330
4A1
100
AcDbEntity
  8
THICK_LINE
 62
     7
100
AcDbLine
 10
3987.4705215757
 20
2472.3262511306
 30
0.0
 11
7383.1510463286
 21
2472.3262511306
 31
0.0
  0
MTEXT
  5
4A9
330
4A1
100
AcDbEntity
  8
THICK_LINE
 62
     7
100
AcDbMText
 10
5347.3441450987
 20
2652.7957440119
 30
0.0
 40
140.0
 41
0.0
 46
0.0
 71
     1
 72
     1
  1
3500
  7
SLDTEXTSTYLE4
 73
     1
 44
1.0
  0
ENDBLK
  5
4A3
330
4A1
100
AcDbEntity
  8
0
100
AcDbBlockEnd
  0
BLOCK
  5
4AC
330
4AB
100
AcDbEntity
  8
0
100
AcDbBlockBegin
  2
_D_1
 70
     0
 10
0.0
 20
0.0
 30
0.0
  3
_D_1
  1

  0
SOLID
  5
4AE
330
4AB
100
AcDbEntity
  8
THICK_LINE
 62
     7
100
AcDbTrace
 10
4357.5017107188
 20
7141.3451173845
 30
0.0
 11
4497.5017107188
 21
7119.8066558461
 31
0.0
 12
4497.5017107188
 22
7162.883578923
 32
0.0
 13
4497.5017107188
 23
7162.883578923
 33
0.0
  0
SOLID
  5
4AF
330
4AB
100
AcDbEntity
  8
THICK_LINE
 62
     7
100
AcDbTrace
 10
6757.5017107188
 20
7141.3451173845
 30
0.0
 11
6617.5017107188
 21
7162.883578923
 31
0.0
 12
6617.5017107188
 22
7119.8066558461
 32
0.0
 13
6617.5017107188
 23
7119.8066558461
 33
0.0
  0
LINE
  5
4B0
330
4AB
100
AcDbEntity
  8
THICK_LINE
 62
     7
100
AcDbLine
 10
4357.5017107188
 20
7793.3450797883
 30
0.0
 11
4357.5017107188
 21
7101.3451173845
 31
0.0
  0
LINE
  5
4B1
330
4AB
100
AcDbEntity
  8
THICK_LINE
 62
     7
100
AcDbLine
 10
6757.5017107188
 20
7943.3450797883
 30
0.0
 11
6757.5017107188
 21
7101.3451173845
 31
0.0
  0
LINE
  5
4B2
330
4AB
100
AcDbEntity
  8
THICK_LINE
 62
     7
100
AcDbLine
 10
4357.5017107188
 20
7141.3451173845
 30
0.0
 11
6757.5017107188
 21
7141.3451173845
 31
0.0
  0
MTEXT
  5
4B3
330
4AB
100
AcDbEntity
  8
THICK_LINE
 62
     7
100
AcDbMText
 10
5347.3441450987
 20
7321.8146102658
 30
0.0
 40
140.0
 41
0.0
 46
0.0
 71
     1
 72
     1
  1
2400
  7
SLDTEXTSTYLE4
 73
     1
 44
1.0
  0
ENDBLK
  5
4AD
330
4AB
100
AcDbEntity
  8
0
100
AcDbBlockEnd
  0
BLOCK
  5
4B6
330
4B5
100
AcDbEntity
  8
0
100
AcDbBlockBegin
  2
_D_2
 70
     0
 10
0.0
 20
0.0
 30
0.0
  3
_D_2
  1

  0
SOLID
  5
4B8
330
4B5
100
AcDbEntity
  8
THICK_LINE
 62
     7
100
AcDbTrace
 10
3277.0165077075
 20
9637.2394611764
 30
0.0
 11
3417.0165077075
 21
9615.700999638
 31
0.0
 12
3417.0165077075
 22
9658.7779227149
 32
0.0
 13
3417.0165077075
 23
9658.7779227149
 33
0.0
  0
SOLID
  5
4B9
330
4B5
100
AcDbEntity
  8
THICK_LINE
 62
     7
100
AcDbTrace
 10
4697.9245354439
 20
9637.2394611764
 30
0.0
 11
4557.9245354439
 21
9658.7779227149
 31
0.0
 12
4557.9245354439
 22
9615.700999638
 32
0.0
 13
4557.9245354439
 23
9615.700999638
 33
0.0
  0
LINE
  5
4BA
330
4B5
100
AcDbEntity
  8
THICK_LINE
 62
     7
100
AcDbLine
 10
3277.0165077075
 20
8940.6682083169
 30
0.0
 11
3277.0165077075
 21
9677.2394611764
 31
0.0
  0
LINE
  5
4BB
330
4B5
100
AcDbEntity
  8
THICK_LINE
 62
     7
100
AcDbLine
 10
4697.9245354439
 20
8940.6682083169
 30
0.0
 11
4697.9245354439
 21
9677.2394611764
 31
0.0
  0
LINE
  5
4BC
330
4B5
100
AcDbEntity
  8
THICK_LINE
 62
     7
100
AcDbLine
 10
3277.0165077075
 20
9637.2394611764
 30
0.0
 11
4697.9245354439
 21
9637.2394611764
 31
0.0
  0
MTEXT
  5
4BD
330
4B5
100
AcDbEntity
  8
THICK_LINE
 62
     7
100
AcDbMText
 10
3781.8977002522
 20
9817.7089540577
 30
0.0
 40
140.0
 41
0.0
 46
0.0
 71
     1
 72
     1
  1
1420
  7
SLDTEXTSTYLE4
 73
     1
 44
1.0
  0
ENDBLK
  5
4B7
330
4B5
100
AcDbEntity
  8
0
100
AcDbBlockEnd
  0
BLOCK
  5
4C1
330
4C0
100
AcDbEntity
  8
0
100
AcDbBlockBegin
  2
_D_3
 70
     0
 10
0.0
 20
0.0
 30
0.0
  3
_D_3
  1

  0
SOLID
  5
4C3
330
4C0
100
AcDbEntity
  8
THICK_LINE
 62
     7
100
AcDbTrace
 10
3472.4705215757
 20
2106.3906094146
 30
0.0
 11
3612.4705215757
 21
2084.8521478761
 31
0.0
 12
3612.4705215757
 22
2127.929070953
 32
0.0
 13
3612.4705215757
 23
2127.929070953
 33
0.0
  0
SOLID
  5
4C4
330
4C0
100
AcDbEntity
  8
THICK_LINE
 62
     7
100
AcDbTrace
 10
4502.4705215757
 20
2106.3906094146
 30
0.0
 11
4362.4705215757
 21
2127.929070953
 31
0.0
 12
4362.4705215757
 22
2084.8521478761
 32
0.0
 13
4362.4705215757
 23
2084.8521478761
 33
0.0
  0
LINE
  5
4C5
330
4C0
100
AcDbEntity
  8
THICK_LINE
 62
     7
100
AcDbLine
 10
3472.4705215757
 20
2968.8441060775
 30
0.0
 11
3472.4705215757
 21
2066.3906094146
 31
0.0
  0
LINE
  5
4C6
330
4C0
100
AcDbEntity
  8
THICK_LINE
 62
     7
100
AcDbLine
 10
4502.4705215757
 20
2968.8441060775
 30
0.0
 11
4502.4705215757
 21
2066.3906094146
 31
0.0
  0
LINE
  5
4C7
330
4C0
100
AcDbEntity
  8
THICK_LINE
 62
     7
100
AcDbLine
 10
3472.4705215757
 20
2106.3906094146
 30
0.0
 11
4502.4705215757
 21
2106.3906094146
 31
0.0
  0
MTEXT
  5
4C8
330
4C0
100
AcDbEntity
  8
THICK_LINE
 62
     7
100
AcDbMText
 10
3762.7154568316
 20
2286.8601022959
 30
0.0
 40
140.0
 41
0.0
 46
0.0
 71
     1
 72
     1
  1
1030
  7
SLDTEXTSTYLE4
 73
     1
 44
1.0
  0
ENDBLK
  5
4C2
330
4C0
100
AcDbEntity
  8
0
100
AcDbBlockEnd
  0
BLOCK
  5
4CB
330
4CA
100
AcDbEntity
  8
0
100
AcDbBlockBegin
  2
_D_4
 70
     0
 10
0.0
 20
0.0
 30
0.0
  3
_D_4
  1

  0
SOLID
  5
4CD
330
4CA
100
AcDbEntity
  8
THICK_LINE
 62
     7
100
AcDbTrace
 10
1868.4399409997
 20
2969.2441060775
 30
0.0
 11
1889.9784025382
 21
3109.2441060775
 31
0.0
 12
1846.9014794613
 22
3109.2441060775
 32
0.0
 13
1846.9014794613
 23
3109.2441060775
 33
0.0
  0
SOLID
  5
4CE
330
4CA
100
AcDbEntity
  8
THICK_LINE
 62
     7
100
AcDbTrace
 10
1868.4399409997
 20
9237.2394611764
 30
0.0
 11
1846.9014794613
 21
9097.2394611764
 31
0.0
 12
1889.9784025382
 22
9097.2394611764
 32
0.0
 13
1889.9784025382
 23
9097.2394611764
 33
0.0
  0
LINE
  5
4CF
330
4CA
100
AcDbEntity
  8
THICK_LINE
 62
     7
100
AcDbLine
 10
3945.0705215757
 20
2969.2441060775
 30
0.0
 11
1828.4399409997
 21
2969.2441060775
 31
0.0
  0
LINE
  5
4D0
330
4CA
100
AcDbEntity
  8
THICK_LINE
 62
     7
100
AcDbLine
 10
3946.1175882468
 20
9237.2394611764
 30
0.0
 11
1828.4399409997
 21
9237.2394611764
 31
0.0
  0
LINE
  5
4D1
330
4CA
100
AcDbEntity
  8
THICK_LINE
 62
     7
100
AcDbLine
 10
1868.4399409997
 20
2969.2441060775
 30
0.0
 11
1868.4399409997
 21
9237.2394611764
 31
0.0
  0
MTEXT
  5
4D2
330
4CA
100
AcDbEntity
  8
THICK_LINE
 62
     7
100
AcDbMText
 10
1687.9704481184
 20
5914.7370767077
 30
0.0
 40
140.0
 41
0.0
 46
0.0
 71
     1
 72
     1
  1
6300
  7
SLDTEXTSTYLE4
 11
-1.608122649676637E-16
 21
1.0
 31
0.0
 73
     1
 44
1.0
  0
ENDBLK
  5
4CC
330
4CA
100
AcDbEntity
  8
0
100
AcDbBlockEnd
  0
BLOCK
  5
4D5
330
4D4
100
AcDbEntity
  8
0
100
AcDbBlockBegin
  2
_D_5
 70
     0
 10
0.0
 20
0.0
 30
0.0
  3
_D_5
  1

  0
SOLID
  5
4D7
330
4D4
100
AcDbEntity
  8
THICK_LINE
 62
     7
100
AcDbTrace
 10
2060.4399409997
 20
2969.2441060775
 30
0.0
 11
2081.9784025382
 21
3109.2441060775
 31
0.0
 12
2038.9014794613
 22
3109.2441060775
 32
0.0
 13
2038.9014794613
 23
3109.2441060775
 33
0.0
  0
SOLID
  5
4D8
330
4D4
100
AcDbEntity
  8
THICK_LINE
 62
     7
100
AcDbTrace
 10
2060.4399409997
 20
7794.2441060775
 30
0.0
 11
2038.9014794613
 21
7654.2441060775
 31
0.0
 12
2081.9784025382
 22
7654.2441060775
 32
0.0
 13
2081.9784025382
 23
7654.2441060775
 33
0.0
  0
LINE
  5
4D9
330
4D4
100
AcDbEntity
  8
THICK_LINE
 62
     7
100
AcDbLine
 10
3945.0705215757
 20
2969.2441060775
 30
0.0
 11
2020.4399409997
 21
2969.2441060775
 31
0.0
  0
LINE
  5
4DA
330
4D4
100
AcDbEntity
  8
THICK_LINE
 62
     7
100
AcDbLine
 10
4357.0705215757
 20
7794.2441060775
 30
0.0
 11
2020.4399409997
 21
7794.2441060775
 31
0.0
  0
LINE
  5
4DB
330
4D4
100
AcDbEntity
  8
THICK_LINE
 62
     7
100
AcDbLine
 10
2060.4399409997
 20
2969.2441060775
 30
0.0
 11
2060.4399409997
 21
7794.2441060775
 31
0.0
  0
MTEXT
  5
4DC
330
4D4
100
AcDbEntity
  8
THICK_LINE
 62
     7
100
AcDbMText
 10
1879.9704481184
 20
5914.7370767077
 30
0.0
 40
140.0
 41
0.0
 46
0.0
 71
     1
 72
     1
  1
4800
  7
SLDTEXTSTYLE4
 11
-1.608122649676637E-16
 21
1.0
 31
0.0
 73
     1
 44
1.0
  0
ENDBLK
  5
4D6
330
4D4
100
AcDbEntity
  8
0
100
AcDbBlockEnd
  0
BLOCK
  5
4DF
330
4DE
100
AcDbEntity
  8
0
100
AcDbBlockBegin
  2
_D_6
 70
     0
 10
0.0
 20
0.0
 30
0.0
  3
_D_6
  1

  0
SOLID
  5
4E1
330
4DE
100
AcDbEntity
  8
THICK_LINE
 62
     7
100
AcDbTrace
 10
2332.1841014982
 20
8402.7431323668
 30
0.0
 11
2353.7225630366
 21
8542.7431323668
 31
0.0
 12
2310.6456399597
 22
8542.7431323668
 32
0.0
 13
2310.6456399597
 23
8542.7431323668
 33
0.0
  0
SOLID
  5
4E2
330
4DE
100
AcDbEntity
  8
THICK_LINE
 62
     7
100
AcDbTrace
 10
2332.1841014982
 20
7793.7450797883
 30
0.0
 11
2310.6456399597
 21
7653.7450797883
 31
0.0
 12
2353.7225630366
 22
7653.7450797883
 32
0.0
 13
2353.7225630366
 23
7653.7450797883
 33
0.0
  0
LINE
  5
4E3
330
4DE
100
AcDbEntity
  8
THICK_LINE
 62
     7
100
AcDbLine
 10
4357.1017107188
 20
8402.7431323668
 30
0.0
 11
2292.1841014982
 21
8402.7431323668
 31
0.0
  0
LINE
  5
4E4
330
4DE
100
AcDbEntity
  8
THICK_LINE
 62
     7
100
AcDbLine
 10
4357.1017107188
 20
7793.7450797883
 30
0.0
 11
2292.1841014982
 21
7793.7450797883
 31
0.0
  0
LINE
  5
4E5
330
4DE
100
AcDbEntity
  8
THICK_LINE
 62
     7
100
AcDbLine
 10
2332.1841014982
 20
8402.7431323668
 30
0.0
 11
2332.1841014982
 21
8671.9739015976
 31
0.0
  0
LINE
  5
4E6
330
4DE
100
AcDbEntity
  8
THICK_LINE
 62
     7
100
AcDbLine
 10
2332.1841014982
 20
8402.7431323668
 30
0.0
 11
2332.1841014982
 21
7793.7450797883
 31
0.0
  0
LINE
  5
4E7
330
4DE
100
AcDbEntity
  8
THICK_LINE
 62
     7
100
AcDbLine
 10
2332.1841014982
 20
7793.7450797883
 30
0.0
 11
2332.1841014982
 21
7524.5143105575
 31
0.0
  0
MTEXT
  5
4E8
330
4DE
100
AcDbEntity
  8
THICK_LINE
 62
     7
100
AcDbMText
 10
2151.7146179301
 20
7811.2900414181
 30
0.0
 40
140.0
 41
0.0
 46
0.0
 71
     1
 72
     1
  1
%%c
  7
SLDTEXTSTYLE4
 11
-7.044195017643634E-15
 21
1.0
 31
0.0
 73
     1
 44
1.0
  0
MTEXT
  5
4E9
330
4DE
100
AcDbEntity
  8
THICK_LINE
 62
     7
100
AcDbMText
 10
2151.3257255626
 20
8015.4081032288
 30
0.0
 40
140.0
 41
0.0
 46
0.0
 71
     1
 72
     1
  1
600
  7
SLDTEXTSTYLE4
 11
-7.044195017643634E-15
 21
1.0
 31
0.0
 73
     1
 44
1.0
  0
ENDBLK
  5
4E0
330
4DE
100
AcDbEntity
  8
0
100
AcDbBlockEnd
  0
BLOCK
  5
4EC
330
4EB
100
AcDbEntity
  8
0
100
AcDbBlockBegin
  2
_D_7
 70
     0
 10
0.0
 20
0.0
 30
0.0
  3
_D_7
  1

  0
SOLID
  5
4EE
330
4EB
100
AcDbEntity
  8
THICK_LINE
 62
     7
100
AcDbTrace
 10
7314.3056293279
 20
8252.7431323668
 30
0.0
 11
7335.8440908664
 21
8392.7431323668
 31
0.0
 12
7292.7671677895
 22
8392.7431323668
 32
0.0
 13
7292.7671677895
 23
8392.7431323668
 33
0.0
  0
SOLID
  5
4EF
330
4EB
100
AcDbEntity
  8
THICK_LINE
 62
     7
100
AcDbTrace
 10
7314.3056293279
 20
7943.7450797883
 30
0.0
 11
7292.7671677895
 21
7803.7450797883
 31
0.0
 12
7335.8440908664
 22
7803.7450797883
 32
0.0
 13
7335.8440908664
 23
7803.7450797883
 33
0.0
  0
LINE
  5
4F0
330
4EB
100
AcDbEntity
  8
THICK_LINE
 62
     7
100
AcDbLine
 10
6757.9017107188
 20
8252.7431323668
 30
0.0
 11
7354.3056293279
 21
8252.7431323668
 31
0.0
  0
LINE
  5
4F1
330
4EB
100
AcDbEntity
  8
THICK_LINE
 62
     7
100
AcDbLine
 10
6757.9017107188
 20
7943.7450797883
 30
0.0
 11
7354.3056293279
 21
7943.7450797883
 31
0.0
  0
LINE
  5
4F2
330
4EB
100
AcDbEntity
  8
THICK_LINE
 62
     7
100
AcDbLine
 10
7314.3056293279
 20
8252.7431323668
 30
0.0
 11
7314.3056293279
 21
8851.3843904327
 31
0.0
  0
LINE
  5
4F3
330
4EB
100
AcDbEntity
  8
THICK_LINE
 62
     7
100
AcDbLine
 10
7314.3056293279
 20
8252.7431323668
 30
0.0
 11
7314.3056293279
 21
7943.7450797883
 31
0.0
  0
LINE
  5
4F4
330
4EB
100
AcDbEntity
  8
THICK_LINE
 62
     7
100
AcDbLine
 10
7314.3056293279
 20
7943.7450797883
 30
0.0
 11
7314.3056293279
 21
7674.5143105575
 31
0.0
  0
MTEXT
  5
4F5
330
4EB
100
AcDbEntity
  8
THICK_LINE
 62
     7
100
AcDbMText
 10
7133.8361457598
 20
8326.4330218624
 30
0.0
 40
140.0
 41
0.0
 46
0.0
 71
     1
 72
     1
  1
%%c
  7
SLDTEXTSTYLE4
 11
-7.044195017643634E-15
 21
1.0
 31
0.0
 73
     1
 44
1.0
  0
MTEXT
  5
4F6
330
4EB
100
AcDbEntity
  8
THICK_LINE
 62
     7
100
AcDbMText
 10
7133.4472533924
 20
8530.5510836731
 30
0.0
 40
140.0
 41
0.0
 46
0.0
 71
     1
 72
     1
  1
300
  7
SLDTEXTSTYLE4
 11
-7.044195017643634E-15
 21
1.0
 31
0.0
 73
     1
 44
1.0
  0
ENDBLK
  5
4ED
330
4EB
100
AcDbEntity
  8
0
100
AcDbBlockEnd
  0
BLOCK
  5
4F8
330
4F7
100
AcDbEntity
  8
0
100
AcDbBlockBegin
  2
SW_NOTE_4
 70
     0
 10
0.0
 20
0.0
 30
0.0
  3
SW_NOTE_4
  1

  0
LINE
  5
4FA
330
4F7
100
AcDbEntity
  8
THICK_LINE
 62
     0
100
AcDbLine
 10
789.8173730211
 20
0.0
 30
0.0
 11
0.0
 21
0.0
 31
0.0
  0
MTEXT
  5
4FB
330
4F7
100
AcDbEntity
  8
THICK_LINE
 62
     0
100
AcDbMText
 10
16.8878762846
 20
189.4670247665
 30
0.0
 40
148.1666666667
 41
0.0
 46
0.0
 71
     1
 72
     1
  1
Конус УНВ
  7
SLDTEXTSTYLE0
 73
     1
 44
1.0
  0
ENDBLK
  5
4F9
330
4F7
100
AcDbEntity
  8
0
100
AcDbBlockEnd
  0
BLOCK
  5
500
330
4FF
100
AcDbEntity
  8
0
100
AcDbBlockBegin
  2
SW_NOTE_5
 70
     0
 10
0.0
 20
0.0
 30
0.0
  3
SW_NOTE_5
  1

  0
LINE
  5
502
330
4FF
100
AcDbEntity
  8
THICK_LINE
 62
     0
100
AcDbLine
 10
1448.8847057657
 20
0.0
 30
0.0
 11
0.0
 21
0.0
 31
0.0
  0
MTEXT
  5
503
330
4FF
100
AcDbEntity
  8
THICK_LINE
 62
     0
100
AcDbMText
 10
18.3532022686
 20
188.3132021913
 30
0.0
 40
148.1666666667
 41
0.0
 46
0.0
 71
     1
 72
     1
  1
Люстра освещения
  7
SLDTEXTSTYLE0
 73
     1
 44
1.0
  0
ENDBLK
  5
501
330
4FF
100
AcDbEntity
  8
0
100
AcDbBlockEnd
  0
BLOCK
  5
507
330
506
100
AcDbEntity
  8
0
100
AcDbBlockBegin
  2
SW_NOTE_6
 70
     0
 10
0.0
 20
0.0
 30
0.0
  3
SW_NOTE_6
  1

  0
LINE
  5
509
330
506
100
AcDbEntity
  8
THICK_LINE
 62
     0
100
AcDbLine
 10
-1744.656016366
 20
0.0
 30
0.0
 11
0.0
 21
0.0
 31
0.0
  0
MTEXT
  5
50A
330
506
100
AcDbEntity
  8
THICK_LINE
 62
     0
100
AcDbMText
 10
-1762.6064505328
 20
187.0165216717
 30
0.0
 40
148.1666666667
 41
0.0
 46
0.0
 71
     1
 72
     1
  1
Заградительный огонь
  7
SLDTEXTSTYLE0
 73
     1
 44
1.0
  0
ENDBLK
  5
508
330
506
100
AcDbEntity
  8
0
100
AcDbBlockEnd
  0
BLOCK
  5
50E
330
50D
100
AcDbEntity
  8
0
100
AcDbBlockBegin
  2
SW_NOTE_7
 70
     0
 10
0.0
 20
0.0
 30
0.0
  3
SW_NOTE_7
  1

  0
LINE
  5
510
330
50D
100
AcDbEntity
  8
THICK_LINE
 62
     0
100
AcDbLine
 10
-1457.3772747679
 20
0.0
 30
0.0
 11
0.0
 21
0.0
 31
0.0
  0
MTEXT
  5
511
330
50D
100
AcDbEntity
  8
THICK_LINE
 62
     0
100
AcDbMText
 10
-1475.3277089347
 20
189.4670247665
 30
0.0
 40
148.1666666667
 41
0.0
 46
0.0
 71
     1
 72
     1
  1
Вращающийся блок
  7
SLDTEXTSTYLE0
 73
     1
 44
1.0
  0
ENDBLK
  5
50F
330
50D
100
AcDbEntity
  8
0
100
AcDbBlockEnd
  0
BLOCK
  5
515
330
514
100
AcDbEntity
  8
0
100
AcDbBlockBegin
  2
SW_NOTE_8
 70
     0
 10
0.0
 20
0.0
 30
0.0
  3
SW_NOTE_8
  1

  0
LINE
  5
517
330
514
100
AcDbEntity
  8
THICK_LINE
 62
     0
100
AcDbLine
 10
537.6596252756
 20
0.0
 30
0.0
 11
0.0
 21
0.0
 31
0.0
  0
MTEXT
  5
518
330
514
100
AcDbEntity
  8
THICK_LINE
 62
     0
100
AcDbMText
 10
18.4002966789
 20
190.1044672226
 30
0.0
 40
148.1666666667
 41
0.0
 46
0.0
 71
     1
 72
     1
  1
Стойка
  7
SLDTEXTSTYLE0
 73
     1
 44
1.0
  0
ENDBLK
  5
516
330
514
100
AcDbEntity
  8
0
100
AcDbBlockEnd
  0
BLOCK
  5
51C
330
51B
100
AcDbEntity
  8
0
100
AcDbBlockBegin
  2
SW_NOTE_9
 70
     0
 10
0.0
 20
0.0
 30
0.0
  3
SW_NOTE_9
  1

  0
LINE
  5
51E
330
51B
100
AcDbEntity
  8
THICK_LINE
 62
     0
100
AcDbLine
 10
1764.1502122717
 20
0.0
 30
0.0
 11
0.0
 21
0.0
 31
0.0
  0
LINE
  5
51F
330
51B
100
AcDbEntity
  8
THICK_LINE
 62
     0
100
AcDbLine
 10
1764.1502122717
 20
0.0
 30
0.0
 11
0.0
 21
0.0
 31
0.0
  0
LINE
  5
520
330
51B
100
AcDbEntity
  8
THICK_LINE
 62
     0
100
AcDbLine
 10
1764.1502122717
 20
0.0
 30
0.0
 11
0.0
 21
0.0
 31
0.0
  0
MTEXT
  5
521
330
51B
100
AcDbEntity
  8
THICK_LINE
 62
     0
100
AcDbMText
 10
16.6199713337
 20
428.1324619571
 30
0.0
 40
148.1666666667
 41
0.0
 46
0.0
 71
     1
 72
     1
  1
Тросовый якорь
  7
SLDTEXTSTYLE0
 73
     1
 44
1.0
  0
MTEXT
  5
522
330
51B
100
AcDbEntity
  8
THICK_LINE
 62
     0
100
AcDbMText
 10
16.6199713337
 20
190.5769022326
 30
0.0
 40
148.1666666667
 41
0.0
 46
0.0
 71
     1
 72
     1
  1
(стальной трос D=4мм)
  7
SLDTEXTSTYLE0
 73
     1
 44
1.0
  0
ENDBLK
  5
51D
330
51B
100
AcDbEntity
  8
0
100
AcDbBlockEnd
  0
BLOCK
  5
528
330
527
100
AcDbEntity
  8
0
100
AcDbBlockBegin
  2
SW_NOTE_10
 70
     0
 10
0.0
 20
0.0
 30
0.0
  3
SW_NOTE_10
  1

  0
LINE
  5
52A
330
527
100
AcDbEntity
  8
THICK_LINE
 62
     0
100
AcDbLine
 10
431.4735035734
 20
0.0
 30
0.0
 11
0.0
 21
0.0
 31
0.0
  0
MTEXT
  5
52B
330
527
100
AcDbEntity
  8
THICK_LINE
 62
     0
100
AcDbMText
 10
16.2916590162
 20
189.0977329744
 30
0.0
 40
148.1666666667
 41
0.0
 46
0.0
 71
     1
 72
     1
  1
Опора
  7
SLDTEXTSTYLE0
 73
     1
 44
1.0
  0
ENDBLK
  5
529
330
527
100
AcDbEntity
  8
0
100
AcDbBlockEnd
  0
ENDSEC
  0
SECTION
  2
ENTITIES
  0
LINE
  5
79
330
1F
100
AcDbEntity
  8
THICK_LINE
100
AcDbLine
 10
800.0
 20
11680.0
 30
0.0
 11
3600.0
 21
11680.0
 31
0.0
  0
LINE
  5
7A
330
1F
100
AcDbEntity
  8
THICK_LINE
100
AcDbLine
 10
800.0
 20
11680.0
 30
0.0
 11
800.0
 21
11120.0
 31
0.0
  0
LINE
  5
7B
330
1F
100
AcDbEntity
  8
THICK_LINE
100
AcDbLine
 10
800.0
 20
11120.0
 30
0.0
 11
3600.0
 21
11120.0
 31
0.0
  0
LINE
  5
7C
330
1F
100
AcDbEntity
  8
THICK_LINE
100
AcDbLine
 10
3600.0
 20
11680.0
 30
0.0
 11
3600.0
 21
11120.0
 31
0.0
  0
LINE
  5
7D
330
1F
100
AcDbEntity
  8
THICK_LINE
100
AcDbLine
 10
1085.966310128
 20
803.388901736
 30
0.0
 11
1085.966310128
 21
203.388901736
 31
0.0
  0
LINE
  5
7E
330
1F
100
AcDbEntity
  8
THICK_LINE
100
AcDbLine
 10
7805.966310128
 20
803.388901736
 30
0.0
 11
7805.966310128
 21
203.388901736
 31
0.0
  0
LINE
  5
7F
330
1F
100
AcDbEntity
  8
THICK_LINE
100
AcDbLine
 10
7805.966310128
 20
803.388901736
 30
0.0
 11
7805.966310128
 21
203.388901736
 31
0.0
  0
LINE
  5
80
330
1F
100
AcDbEntity
  8
THICK_LINE
100
AcDbLine
 10
320.102234108
 20
199.872316944
 30
0.0
 11
320.102234108
 21
5999.872316944
 31
0.0
  0
LINE
  5
81
330
1F
100
AcDbEntity
  8
THICK_LINE
100
AcDbLine
 10
320.102234108
 20
199.872316944
 30
0.0
 11
800.102234108
 21
199.872316944
 31
0.0
  0
LINE
  5
82
330
1F
100
AcDbEntity
  8
THIN_LINE
100
AcDbLine
 10
520.102234108
 20
199.872316944
 30
0.0
 11
520.102234108
 21
5999.872316944
 31
0.0
  0
LINE
  5
83
330
1F
100
AcDbEntity
  8
THICK_LINE
100
AcDbLine
 10
800.102234108
 20
199.872316944
 30
0.0
 11
800.102234108
 21
5999.872316944
 31
0.0
  0
LINE
  5
84
330
1F
100
AcDbEntity
  8
THICK_LINE
100
AcDbLine
 10
320.102234108
 20
1199.872316944
 30
0.0
 11
800.102234108
 21
1199.872316944
 31
0.0
  0
LINE
  5
85
330
1F
100
AcDbEntity
  8
THICK_LINE
100
AcDbLine
 10
320.102234108
 20
2599.872316944
 30
0.0
 11
800.102234108
 21
2599.872316944
 31
0.0
  0
LINE
  5
86
330
1F
100
AcDbEntity
  8
THICK_LINE
100
AcDbLine
 10
320.102234108
 20
3599.872316944
 30
0.0
 11
800.102234108
 21
3599.872316944
 31
0.0
  0
LINE
  5
87
330
1F
100
AcDbEntity
  8
THICK_LINE
100
AcDbLine
 10
320.102234108
 20
4599.872316944
 30
0.0
 11
800.102234108
 21
4599.872316944
 31
0.0
  0
LINE
  5
88
330
1F
100
AcDbEntity
  8
THICK_LINE
100
AcDbLine
 10
320.0
 20
200.0
 30
0.0
 11
8200.0
 21
200.0
 31
0.0
  0
LINE
  5
89
330
1F
100
AcDbEntity
  8
THIN_LINE
100
AcDbLine
 10
800.0
 20
402.416970868
 30
0.0
 11
3400.0
 21
402.416970868
 31
0.0
  0
LINE
  5
8A
330
1F
100
AcDbEntity
  8
THICK_LINE
100
AcDbLine
 10
7806.031447776
 20
524.160149076
 30
0.0
 11
8199.906436088
 21
524.160149076
 31
0.0
  0
LINE
  5
8B
330
1F
100
AcDbEntity
  8
THIN_LINE
100
AcDbLine
 10
800.0
 20
602.935146736
 30
0.0
 11
3400.0
 21
602.935146736
 31
0.0
  0
LINE
  5
8C
330
1F
100
AcDbEntity
  8
THICK_LINE
100
AcDbLine
 10
800.0
 20
803.453322604
 30
0.0
 11
8199.906436088
 21
803.453322604
 31
0.0
  0
LINE
  5
8D
330
1F
100
AcDbEntity
  8
THICK_LINE
100
AcDbLine
 10
800.0
 20
1200.0
 30
0.0
 11
320.0
 21
1200.0
 31
0.0
  0
LINE
  5
8E
330
1F
100
AcDbEntity
  8
THICK_LINE
100
AcDbLine
 10
320.0
 20
200.0
 30
0.0
 11
320.0
 21
6000.0
 31
0.0
  0
LINE
  5
8F
330
1F
100
AcDbEntity
  8
THIN_LINE
100
AcDbLine
 10
520.0
 20
200.0
 30
0.0
 11
520.0
 21
6000.0
 31
0.0
  0
LINE
  5
90
330
1F
100
AcDbEntity
  8
THICK_LINE
100
AcDbLine
 10
800.0
 20
200.0
 30
0.0
 11
800.0
 21
11680.0
 31
0.0
  0
LINE
  5
91
330
1F
100
AcDbEntity
  8
THICK_LINE
100
AcDbLine
 10
800.0
 20
2600.0
 30
0.0
 11
320.0
 21
2600.0
 31
0.0
  0
LINE
  5
92
330
1F
100
AcDbEntity
  8
THICK_LINE
100
AcDbLine
 10
1480.0
 20
803.453322604
 30
0.0
 11
1480.0
 21
200.0
 31
0.0
  0
LINE
  5
93
330
1F
100
AcDbEntity
  8
THICK_LINE
100
AcDbLine
 10
800.0
 20
3600.0
 30
0.0
 11
320.0
 21
3600.0
 31
0.0
  0
LINE
  5
94
330
1F
100
AcDbEntity
  8
THICK_LINE
100
AcDbLine
 10
2400.0
 20
200.0
 30
0.0
 11
2400.0
 21
803.453322604
 31
0.0
  0
LINE
  5
95
330
1F
100
AcDbEntity
  8
THICK_LINE
100
AcDbLine
 10
3000.0
 20
803.453322604
 30
0.0
 11
3000.0
 21
200.0
 31
0.0
  0
LINE
  5
96
330
1F
100
AcDbEntity
  8
THICK_LINE
100
AcDbLine
 10
800.0
 20
4600.0
 30
0.0
 11
320.0
 21
4600.0
 31
0.0
  0
LINE
  5
97
330
1F
100
AcDbEntity
  8
THICK_LINE
100
AcDbLine
 10
3400.0
 20
803.453322604
 30
0.0
 11
3400.0
 21
200.0
 31
0.0
  0
LINE
  5
98
330
1F
100
AcDbEntity
  8
THICK_LINE
100
AcDbLine
 10
3600.0
 20
11680.0
 30
0.0
 11
3600.0
 21
11120.0
 31
0.0
  0
LINE
  5
99
330
1F
100
AcDbEntity
  8
THICK_LINE
100
AcDbLine
 10
320.0
 20
6000.0
 30
0.0
 11
800.0
 21
6000.0
 31
0.0
  0
LINE
  5
9A
330
1F
100
AcDbEntity
  8
THICK_LINE
100
AcDbLine
 10
7806.031447776
 20
803.453322604
 30
0.0
 11
7806.031447776
 21
201.898795
 31
0.0
  0
LINE
  5
9B
330
1F
100
AcDbEntity
  8
THICK_LINE
100
AcDbLine
 10
8200.0
 20
11680.0
 30
0.0
 11
8200.0
 21
200.0
 31
0.0
  0
LINE
  5
9C
330
1F
100
AcDbEntity
  8
THICK_LINE
100
AcDbLine
 10
800.0
 20
11120.0
 30
0.0
 11
3600.0
 21
11120.0
 31
0.0
  0
LINE
  5
9D
330
1F
100
AcDbEntity
  8
THICK_LINE
100
AcDbLine
 10
800.0
 20
11680.0
 30
0.0
 11
8200.0
 21
11680.0
 31
0.0
  0
MTEXT
  5
9F
330
1F
100
AcDbEntity
  8
0
  6
Continuous
 62
     7
370
     0
100
AcDbMText
 10
818.0677801046
 20
393.2415143693
 30
0.0
 40
140.0
 41
0.0
 46
0.0
 71
     1
 72
     1
  1
Изм.
  7
SLDTEXTSTYLE0
 73
     1
 44
1.0
  0
MTEXT
  5
A0
330
1F
100
AcDbEntity
  8
0
  6
Continuous
 62
     7
370
     0
100
AcDbMText
 10
1122.9987951634
 20
398.7760068399
 30
0.0
 40
140.0
 41
0.0
 46
0.0
 71
     1
 72
     1
  1
Лист
  7
SLDTEXTSTYLE0
 73
     1
 44
1.0
  0
INSERT
  5
AC
330
1F
100
AcDbEntity
  8
0
  6
Continuous
 62
     7
370
     0
100
AcDbBlockReference
  2
SW_NOTE_0
 10
1636.2573478691
 20
222.1882356368
 30
0.0
  0
MTEXT
  5
AD
330
1F
100
AcDbEntity
  8
0
  6
Continuous
 62
     7
370
     0
100
AcDbMText
 10
2473.7918403397
 20
398.7760068399
 30
0.0
 40
140.0
 41
0.0
 46
0.0
 71
     1
 72
     1
  1
Подп.
  7
SLDTEXTSTYLE0
 73
     1
 44
1.0
  0
MTEXT
  5
AE
330
1F
100
AcDbEntity
  8
0
  6
Continuous
 62
     7
370
     0
100
AcDbMText
 10
3026.3953177515
 20
393.2415143693
 30
0.0
 40
140.0
 41
0.0
 46
0.0
 71
     1
 72
     1
  1
Дата
  7
SLDTEXTSTYLE0
 73
     1
 44
1.0
  0
MTEXT
  5
B0
330
1F
100
AcDbEntity
  8
0
  6
Continuous
 62
     7
370
     0
100
AcDbMText
 10
7819.265437556
 20
706.2036267575
 30
0.0
 40
100.0
 41
0.0
 46
0.0
 71
     1
 72
     1
  1
Лист
  7
SLDTEXTSTYLE2
 73
     1
 44
1.0
  0
INSERT
  5
B7
330
1F
100
AcDbEntity
  8
0
  6
Continuous
 62
     7
370
     0
100
AcDbBlockReference
  2
SW_NOTE_1
 10
509.8323246183
 20
205.6856998969
 30
0.0
  0
MTEXT
  5
B8
330
1F
100
AcDbEntity
  8
0
  6
Continuous
 62
     7
370
     0
100
AcDbMText
 10
386.1323940131
 20
1348.124515692
 30
0.0
 40
100.0
 41
0.0
 46
0.0
 71
     1
 72
     1
  1
Подп. и дата
  7
SLDTEXTSTYLE2
 11
-3.491481338843133E-15
 21
1.0
 31
0.0
 73
     1
 44
1.0
  0
INSERT
  5
BE
330
1F
100
AcDbEntity
  8
0
  6
Continuous
 62
     7
370
     0
100
AcDbBlockReference
  2
SW_NOTE_2
 10
523.3355012423
 20
2617.2798726336
 30
0.0
  0
INSERT
  5
C5
330
1F
100
AcDbEntity
  8
0
  6
Continuous
 62
     7
370
     0
100
AcDbBlockReference
  2
SW_NOTE_3
 10
506.7320238305
 20
3620.07291781
 30
0.0
  0
MTEXT
  5
C6
330
1F
100
AcDbEntity
  8
0
  6
Continuous
 62
     7
370
     0
100
AcDbMText
 10
386.1323940131
 20
4797.9349479275
 30
0.0
 40
100.0
 41
0.0
 46
0.0
 71
     1
 72
     1
  1
Подп. и дата
  7
SLDTEXTSTYLE2
 11
-3.491481338843133E-15
 21
1.0
 31
0.0
 73
     1
 44
1.0
  0
MTEXT
  5
C7
330
1F
100
AcDbEntity
  8
0
  6
Continuous
 62
     7
370
     0
100
AcDbMText
 10
6182.6278178188
 20
180.1739084696
 30
0.0
 40
140.0
 41
0.0
 46
0.0
 71
     1
 72
     1
  1
Формат А4
  7
SLDTEXTSTYLE0
 73
     1
 44
1.0
  0
MTEXT
  5
C8
330
1F
100
AcDbEntity
  8
0
  6
Continuous
 62
     7
370
     0
100
AcDbMText
 10
4145.213240335
 20
188.7976120176
 30
0.0
 40
140.0
 41
0.0
 46
0.0
 71
     1
 72
     1
  1
Копировал
  7
SLDTEXTSTYLE0
 73
     1
 44
1.0
  0
MTEXT
  5
C9
330
1F
100
AcDbEntity
  8
0
  6
Continuous
 62
     7
370
     0
100
AcDbMText
 10
5205.8721069135
 20
612.4888465619
 30
0.0
 40
211.6666666667
 41
0.0
 46
0.0
 71
     2
 72
     1
  1
Ветроуказатель WIND. 600
  7
SLDTEXTSTYLE0
 73
     1
 44
1.0
  0
MTEXT
  5
CA
330
1F
100
AcDbEntity
  8
0
  6
Continuous
 62
     7
370
     0
100
AcDbMText
 10
7929.8798678133
 20
479.6830429617
 30
0.0
 40
200.0
 41
0.0
 46
0.0
 71
     1
 72
     1
  1
1
  7
SLDTEXTSTYLE1
 73
     1
 44
1.0
  0
MTEXT
  5
CB
330
1F
100
AcDbEntity
  8
0
  6
Continuous
 62
     7
370
     0
100
AcDbMText
 10
2083.5516833656
 20
11475.9041313315
 30
0.0
 40
211.6666666667
 41
0.0
 46
0.0
 71
     2
 72
     1
  1
WELTPLAST
  7
SLDTEXTSTYLE1
 73
     1
 44
1.0
  0
MTEXT
  5
CD
330
1F
100
AcDbEntity
  8
THICK_LINE
100
AcDbMText
 10
8056.570725153
 20
55.2624982731
 30
0.0
 40
40.0
 41
0.0
 46
0.0
 71
     1
 72
     1
  1
TESIS
  7
SLDTEXTSTYLE3
 73
     1
 44
1.0
  0
LINE
  5
CE
330
1F
100
AcDbEntity
  8
0
  6
Continuous
 62
     7
370
    25
100
AcDbLine
 10
3960.6383419419
 20
7034.2729712251
 30
0.0
 11
3960.6320468019
 21
7034.2441060775
 31
0.0
  0
LINE
  5
CF
330
1F
100
AcDbEntity
  8
0
  6
Continuous
 62
     7
370
    25
100
AcDbLine
 10
3956.270288421
 20
7014.2441060775
 30
0.0
 11
3081.7377330486
 21
3004.2441060775
 31
0.0
  0
LINE
  5
D0
330
1F
100
AcDbEntity
  8
0
  6
Continuous
 62
     7
370
    25
100
AcDbLine
 10
3085.8317527661
 20
3004.2441060775
 30
0.0
 11
3960.3643081385
 21
7014.2441060775
 31
0.0
  0
LINE
  5
D1
330
1F
100
AcDbEntity
  8
0
  6
Continuous
 62
     7
370
    25
100
AcDbLine
 10
3917.983778745
 20
7035.2056212565
 30
0.0
 11
3917.4108817757
 21
7034.2441060775
 31
0.0
  0
LINE
  5
D2
330
1F
100
AcDbEntity
  8
0
  6
Continuous
 62
     7
370
    25
100
AcDbLine
 10
3911.4526090222
 20
7024.2441060775
 30
0.0
 11
1516.2269621182
 21
3004.2441060775
 31
0.0
  0
LINE
  5
D3
330
1F
100
AcDbEntity
  8
0
  6
Continuous
 62
     7
370
    25
100
AcDbLine
 10
1520.8831582344
 20
3004.2441060775
 30
0.0
 11
3916.1088051384
 21
7024.2441060775
 31
0.0
  0
LINE
  5
D4
330
1F
100
AcDbEntity
  8
0
  6
Continuous
 62
     7
370
    25
100
AcDbLine
 10
7362.6504884174
 20
3004.2441060775
 30
0.0
 11
4090.7114069505
 21
7024.2441060775
 31
0.0
  0
LINE
  5
D5
330
1F
100
AcDbEntity
  8
0
  6
Continuous
 62
     7
370
    25
100
AcDbLine
 10
4082.5722550066
 20
7034.2441060775
 30
0.0
 11
4082.2097615539
 21
7034.6894761299
 31
0.0
  0
LINE
  5
D6
330
1F
100
AcDbEntity
  8
0
  6
Continuous
 62
     7
370
    25
100
AcDbLine
 10
4085.5539534026
 20
7024.2441060775
 30
0.0
 11
7357.4930348695
 21
3004.2441060775
 31
0.0
  0
LINE
  5
D7
330
1F
100
AcDbEntity
  8
0
  6
Continuous
 62
     7
370
    25
100
AcDbLine
 10
3033.9445522823
 20
3004.2441060775
 30
0.0
 11
3033.9445522823
 21
2994.2441060775
 31
0.0
  0
LINE
  5
D8
330
1F
100
AcDbEntity
  8
0
  6
Continuous
 62
     7
370
    25
100
AcDbLine
 10
3151.2764750651
 20
2994.2441060775
 30
0.0
 11
3151.2764750651
 21
3004.2441060775
 31
0.0
  0
LINE
  5
D9
330
1F
100
AcDbEntity
  8
0
  6
Continuous
 62
     7
370
    25
100
AcDbLine
 10
7434.4426975746
 20
2994.2441060775
 30
0.0
 11
7434.4426975746
 21
3004.2441060775
 31
0.0
  0
LINE
  5
DA
330
1F
100
AcDbEntity
  8
0
  6
Continuous
 62
     7
370
    25
100
AcDbLine
 10
1585.6925921149
 20
2994.2441060775
 30
0.0
 11
1585.6925921149
 21
3004.2441060775
 31
0.0
  0
ARC
  5
DB
330
1F
100
AcDbEntity
  8
0
  6
Continuous
 62
     7
370
    25
100
AcDbCircle
 10
4005.8114928892
 20
9196.2394611764
 30
0.0
 40
1.000000000000455
100
AcDbArc
 50
0.0
 51
90.0
  0
LINE
  5
DC
330
1F
100
AcDbEntity
  8
0
  6
Continuous
 62
     7
370
    25
100
AcDbLine
 10
4006.8114928892
 20
9184.2394611764
 30
0.0
 11
4006.8114928892
 21
9196.2394611764
 31
0.0
  0
ARC
  5
DD
330
1F
100
AcDbEntity
  8
0
  6
Continuous
 62
     7
370
    25
100
AcDbCircle
 10
4030.5175882468
 20
9198.2394611764
 30
0.0
 40
1.0
100
AcDbArc
 50
180.0
 51
270.0
  0
ARC
  5
DE
330
1F
100
AcDbEntity
  8
0
  6
Continuous
 62
     7
370
    25
100
AcDbCircle
 10
3943.5175882468
 20
9198.2394611764
 30
0.0
 40
1.0
100
AcDbArc
 50
270.0
 51
0.0
  0
ARC
  5
DF
330
1F
100
AcDbEntity
  8
0
  6
Continuous
 62
     7
370
    25
100
AcDbCircle
 10
3946.5175882468
 20
9235.2394611764
 30
0.0
 40
2.0
100
AcDbArc
 50
90.0
 51
180.0
  0
ARC
  5
E0
330
1F
100
AcDbEntity
  8
0
  6
Continuous
 62
     7
370
    25
100
AcDbCircle
 10
4027.5175882468
 20
9235.2394611764
 30
0.0
 40
2.000000000000455
100
AcDbArc
 50
0.0
 51
90.0
  0
LINE
  5
E1
330
1F
100
AcDbEntity
  8
0
  6
Continuous
 62
     7
370
    25
100
AcDbLine
 10
4029.5175882468
 20
9198.2394611764
 30
0.0
 11
4029.5175882468
 21
9235.2394611764
 31
0.0
  0
LINE
  5
E2
330
1F
100
AcDbEntity
  8
0
  6
Continuous
 62
     7
370
    25
100
AcDbLine
 10
3944.5175882468
 20
9235.2394611764
 30
0.0
 11
3944.5175882468
 21
9198.2394611764
 31
0.0
  0
LINE
  5
E3
330
1F
100
AcDbEntity
  8
0
  6
Continuous
 62
     7
370
    25
100
AcDbLine
 10
3945.9300161404
 20
9196.2394611764
 30
0.0
 11
3945.9300161404
 21
9184.2394611764
 31
0.0
  0
ARC
  5
E4
330
1F
100
AcDbEntity
  8
0
  6
Continuous
 62
     7
370
    25
100
AcDbCircle
 10
3946.9300161404
 20
9196.2394611764
 30
0.0
 40
1.0
100
AcDbArc
 50
90.0
 51
180.0
  0
ARC
  5
E5
330
1F
100
AcDbEntity
  8
0
  6
Continuous
 62
     7
370
    25
100
AcDbCircle
 10
3942.0175882468
 20
9196.2394611764
 30
0.0
 40
1.0
100
AcDbArc
 50
90.0
 51
180.0
  0
LINE
  5
E6
330
1F
100
AcDbEntity
  8
0
  6
Continuous
 62
     7
370
    25
100
AcDbLine
 10
3941.0175882468
 20
9196.2394611764
 30
0.0
 11
3941.0175882468
 21
9184.2394611764
 31
0.0
  0
LINE
  5
E7
330
1F
100
AcDbEntity
  8
0
  6
Continuous
 62
     7
370
    25
100
AcDbLine
 10
4040.3990649956
 20
9184.2394611764
 30
0.0
 11
4040.3990649956
 21
9196.2394611764
 31
0.0
  0
ARC
  5
E8
330
1F
100
AcDbEntity
  8
0
  6
Continuous
 62
     7
370
    25
100
AcDbCircle
 10
4039.3990649956
 20
9196.2394611764
 30
0.0
 40
1.0
100
AcDbArc
 50
0.0
 51
90.0
  0
ARC
  5
E9
330
1F
100
AcDbEntity
  8
0
  6
Continuous
 62
     7
370
    25
100
AcDbCircle
 10
3934.636111498
 20
9196.2394611764
 30
0.0
 40
1.0
100
AcDbArc
 50
90.0
 51
180.0
  0
LINE
  5
EA
330
1F
100
AcDbEntity
  8
0
  6
Continuous
 62
     7
370
    25
100
AcDbLine
 10
3933.636111498
 20
9196.2394611764
 30
0.0
 11
3933.636111498
 21
9184.2394611764
 31
0.0
  0
LINE
  5
EB
330
1F
100
AcDbEntity
  8
0
  6
Continuous
 62
     7
370
    25
100
AcDbLine
 10
4357.5017107188
 20
8402.7431323668
 30
0.0
 11
4357.4705215757
 21
8402.2441060775
 31
0.0
  0
LINE
  5
EC
330
1F
100
AcDbEntity
  8
0
  6
Continuous
 62
     7
370
    25
100
AcDbLine
 10
4357.4705215757
 20
7794.2441060775
 30
0.0
 11
4357.5017107188
 21
7793.7450797883
 31
0.0
  0
LINE
  5
ED
330
1F
100
AcDbEntity
  8
0
  6
Continuous
 62
     7
370
    25
100
AcDbLine
 10
4357.5017107188
 20
7793.7450797883
 30
0.0
 11
4837.4705215757
 21
7823.7431304669
 31
0.0
  0
LINE
  5
EE
330
1F
100
AcDbEntity
  8
0
  6
Continuous
 62
     7
370
    25
100
AcDbLine
 10
4837.4705215757
 20
8372.7450816882
 30
0.0
 11
4357.5017107188
 21
8402.7431323668
 31
0.0
  0
LINE
  5
EF
330
1F
100
AcDbEntity
  8
0
  6
Continuous
 62
     7
370
    25
100
AcDbLine
 10
4837.4705215757
 20
7823.2421548562
 30
0.0
 11
5317.4705215757
 21
7853.2421548562
 31
0.0
  0
LINE
  5
F0
330
1F
100
AcDbEntity
  8
0
  6
Continuous
 62
     7
370
    25
100
AcDbLine
 10
5317.4705215757
 20
8343.2460572989
 30
0.0
 11
4837.4705215757
 21
8373.2460572989
 31
0.0
  0
LINE
  5
F1
330
1F
100
AcDbEntity
  8
0
  6
Continuous
 62
     7
370
    25
100
AcDbLine
 10
5317.4705215757
 20
7853.7431304669
 30
0.0
 11
5797.4705215757
 21
7883.7431304669
 31
0.0
  0
LINE
  5
F2
330
1F
100
AcDbEntity
  8
0
  6
Continuous
 62
     7
370
    25
100
AcDbLine
 10
5797.4705215757
 20
8312.7450816882
 30
0.0
 11
5317.4705215757
 21
8342.7450816882
 31
0.0
  0
LINE
  5
F3
330
1F
100
AcDbEntity
  8
0
  6
Continuous
 62
     7
370
    25
100
AcDbLine
 10
5797.4705215757
 20
7883.2421548562
 30
0.0
 11
6277.4705215757
 21
7913.2421548562
 31
0.0
  0
LINE
  5
F4
330
1F
100
AcDbEntity
  8
0
  6
Continuous
 62
     7
370
    25
100
AcDbLine
 10
6277.4705215757
 20
8283.2460572989
 30
0.0
 11
5797.4705215757
 21
8313.2460572989
 31
0.0
  0
LINE
  5
F5
330
1F
100
AcDbEntity
  8
0
  6
Continuous
 62
     7
370
    25
100
AcDbLine
 10
6277.4705215757
 20
7913.7431304669
 30
0.0
 11
6757.5017107188
 21
7943.7450797883
 31
0.0
  0
LINE
  5
F6
330
1F
100
AcDbEntity
  8
0
  6
Continuous
 62
     7
370
    25
100
AcDbLine
 10
6757.5017107188
 20
8252.7431323668
 30
0.0
 11
6277.4705215757
 21
8282.7450816882
 31
0.0
  0
LINE
  5
F7
330
1F
100
AcDbEntity
  8
0
  6
Continuous
 62
     7
370
    25
100
AcDbLine
 10
4057.4705215757
 20
8474.2441060775
 30
0.0
 11
4054.4705215757
 21
8477.2441060775
 31
0.0
  0
LINE
  5
F8
330
1F
100
AcDbEntity
  8
0
  6
Continuous
 62
     7
370
    25
100
AcDbLine
 10
3920.4705215757
 20
8477.2441060775
 30
0.0
 11
3917.4705215757
 21
8474.2441060775
 31
0.0
  0
LINE
  5
F9
330
1F
100
AcDbEntity
  8
0
  6
Continuous
 62
     7
370
    25
100
AcDbLine
 10
3917.4705215757
 20
8474.2441060775
 30
0.0
 11
3917.4705215757
 21
8447.2441060775
 31
0.0
  0
LINE
  5
FA
330
1F
100
AcDbEntity
  8
0
  6
Continuous
 62
     7
370
    25
100
AcDbLine
 10
4057.4705215757
 20
8447.2441060775
 30
0.0
 11
4057.4705215757
 21
8474.2441060775
 31
0.0
  0
LINE
  5
FB
330
1F
100
AcDbEntity
  8
0
  6
Continuous
 62
     7
370
    25
100
AcDbLine
 10
4030.7717917649
 20
8477.2441060775
 30
0.0
 11
4030.7717917649
 21
8497.2441060775
 31
0.0
  0
LINE
  5
FC
330
1F
100
AcDbEntity
  8
0
  6
Continuous
 62
     7
370
    25
100
AcDbLine
 10
3944.1692513865
 20
8497.2441060775
 30
0.0
 11
3944.1692513865
 21
8477.2441060775
 31
0.0
  0
LINE
  5
FD
330
1F
100
AcDbEntity
  8
0
  6
Continuous
 62
     7
370
    25
100
AcDbLine
 10
3927.4705215757
 20
8440.2441060775
 30
0.0
 11
3932.4705215757
 21
8435.2441060775
 31
0.0
  0
LINE
  5
FE
330
1F
100
AcDbEntity
  8
0
  6
Continuous
 62
     7
370
    25
100
AcDbLine
 10
4042.4705215757
 20
8435.2441060775
 30
0.0
 11
4047.4705215757
 21
8440.2441060775
 31
0.0
  0
LINE
  5
FF
330
1F
100
AcDbEntity
  8
0
  6
Continuous
 62
     7
370
    25
100
AcDbLine
 10
3927.4705215757
 20
8447.2441060775
 30
0.0
 11
3927.4705215757
 21
8440.2441060775
 31
0.0
  0
LINE
  5
100
330
1F
100
AcDbEntity
  8
0
  6
Continuous
 62
     7
370
    25
100
AcDbLine
 10
4047.4705215757
 20
8440.2441060775
 30
0.0
 11
4047.4705215757
 21
8447.2441060775
 31
0.0
  0
LINE
  5
101
330
1F
100
AcDbEntity
  8
0
  6
Continuous
 62
     7
370
    25
100
AcDbLine
 10
4047.4705215757
 20
7679.2441060775
 30
0.0
 11
4047.4705215757
 21
7714.2441060775
 31
0.0
  0
LINE
  5
102
330
1F
100
AcDbEntity
  8
0
  6
Continuous
 62
     7
370
    25
100
AcDbLine
 10
3927.4705215757
 20
7714.2441060775
 30
0.0
 11
3927.4705215757
 21
7679.2441060775
 31
0.0
  0
LINE
  5
103
330
1F
100
AcDbEntity
  8
0
  6
Continuous
 62
     7
370
    25
100
AcDbLine
 10
4047.4705215757
 20
7714.2441060775
 30
0.0
 11
4042.4705215757
 21
7719.2441060775
 31
0.0
  0
LINE
  5
104
330
1F
100
AcDbEntity
  8
0
  6
Continuous
 62
     7
370
    25
100
AcDbLine
 10
3932.4705215757
 20
7719.2441060775
 30
0.0
 11
3927.4705215757
 21
7714.2441060775
 31
0.0
  0
LINE
  5
105
330
1F
100
AcDbEntity
  8
0
  6
Continuous
 62
     7
370
    25
100
AcDbLine
 10
4022.4705215757
 20
7719.2441060775
 30
0.0
 11
4022.4705215757
 21
7886.2441060775
 31
0.0
  0
LINE
  5
106
330
1F
100
AcDbEntity
  8
0
  6
Continuous
 62
     7
370
    25
100
AcDbLine
 10
4022.4705215757
 20
7921.2441060775
 30
0.0
 11
4022.4705215757
 21
7931.2441060775
 31
0.0
  0
LINE
  5
107
330
1F
100
AcDbEntity
  8
0
  6
Continuous
 62
     7
370
    25
100
AcDbLine
 10
4022.4705215757
 20
7949.2441060775
 30
0.0
 11
4022.4705215757
 21
8194.2441060775
 31
0.0
  0
LINE
  5
108
330
1F
100
AcDbEntity
  8
0
  6
Continuous
 62
     7
370
    25
100
AcDbLine
 10
4022.4705215757
 20
8229.2441060775
 30
0.0
 11
4022.4705215757
 21
8239.2441060775
 31
0.0
  0
LINE
  5
109
330
1F
100
AcDbEntity
  8
0
  6
Continuous
 62
     7
370
    25
100
AcDbLine
 10
4022.4705215757
 20
8257.2441060775
 30
0.0
 11
4022.4705215757
 21
8435.2441060775
 31
0.0
  0
LINE
  5
10A
330
1F
100
AcDbEntity
  8
0
  6
Continuous
 62
     7
370
    25
100
AcDbLine
 10
3952.4705215757
 20
8435.2441060775
 30
0.0
 11
3952.4705215757
 21
7719.2441060775
 31
0.0
  0
ARC
  5
10B
330
1F
100
AcDbEntity
  8
0
  6
Continuous
 62
     7
370
    25
100
AcDbCircle
 10
4357.4705215757
 20
7802.2441060775
 30
0.0
 40
4.0
100
AcDbArc
 50
180.0
 51
270.0
  0
ARC
  5
10C
330
1F
100
AcDbEntity
  8
0
  6
Continuous
 62
     7
370
    25
100
AcDbCircle
 10
4357.4705215757
 20
8394.2441060775
 30
0.0
 40
4.0
100
AcDbArc
 50
90.0
 51
180.0
  0
LINE
  5
10D
330
1F
100
AcDbEntity
  8
0
  6
Continuous
 62
     7
370
    25
100
AcDbLine
 10
4353.4705215757
 20
8394.2441060775
 30
0.0
 11
4353.4705215757
 21
8271.2441060775
 31
0.0
  0
LINE
  5
10E
330
1F
100
AcDbEntity
  8
0
  6
Continuous
 62
     7
370
    25
100
AcDbLine
 10
4353.4705215757
 20
8266.1987309126
 30
0.0
 11
4353.4705215757
 21
7930.2894812425
 31
0.0
  0
LINE
  5
10F
330
1F
100
AcDbEntity
  8
0
  6
Continuous
 62
     7
370
    25
100
AcDbLine
 10
4353.4705215757
 20
7925.2441060775
 30
0.0
 11
4353.4705215757
 21
7802.2441060775
 31
0.0
  0
LINE
  5
110
330
1F
100
AcDbEntity
  8
0
  6
Continuous
 62
     7
370
    25
100
AcDbLine
 10
4003.3114928892
 20
9131.2394611764
 30
0.0
 11
4003.3114928892
 21
9184.2394611764
 31
0.0
  0
LINE
  5
111
330
1F
100
AcDbEntity
  8
0
  6
Continuous
 62
     7
370
    25
100
AcDbLine
 10
3949.4300161404
 20
9184.2394611764
 30
0.0
 11
3949.4300161404
 21
9131.2394611764
 31
0.0
  0
LINE
  5
112
330
1F
100
AcDbEntity
  8
0
  6
Continuous
 62
     7
370
    25
100
AcDbLine
 10
3944.5175882468
 20
9184.2394611764
 30
0.0
 11
3944.5175882468
 21
9131.2394611764
 31
0.0
  0
LINE
  5
113
330
1F
100
AcDbEntity
  8
0
  6
Continuous
 62
     7
370
    25
100
AcDbLine
 10
4036.8990649956
 20
9131.2394611764
 30
0.0
 11
4036.8990649956
 21
9184.2394611764
 31
0.0
  0
LINE
  5
114
330
1F
100
AcDbEntity
  8
0
  6
Continuous
 62
     7
370
    25
100
AcDbLine
 10
3937.136111498
 20
9184.2394611764
 30
0.0
 11
3937.136111498
 21
9131.2394611764
 31
0.0
  0
LINE
  5
115
330
1F
100
AcDbEntity
  8
0
  6
Continuous
 62
     7
370
    25
100
AcDbLine
 10
3984.2446266787
 20
9119.9394611764
 30
0.0
 11
3984.2446266787
 21
9123.4394611764
 31
0.0
  0
LINE
  5
116
330
1F
100
AcDbEntity
  8
0
  6
Continuous
 62
     7
370
    25
100
AcDbLine
 10
3962.7446266787
 20
9123.4394611764
 30
0.0
 11
3962.7446266787
 21
9119.9394611764
 31
0.0
  0
LINE
  5
117
330
1F
100
AcDbEntity
  8
0
  6
Continuous
 62
     7
370
    25
100
AcDbLine
 10
3984.2446266787
 20
9113.9394611764
 30
0.0
 11
3984.2446266787
 21
9116.9394611764
 31
0.0
  0
LINE
  5
118
330
1F
100
AcDbEntity
  8
0
  6
Continuous
 62
     7
370
    25
100
AcDbLine
 10
3962.7446266787
 20
9116.9394611764
 30
0.0
 11
3962.7446266787
 21
9113.9394611764
 31
0.0
  0
ARC
  5
119
330
1F
100
AcDbEntity
  8
0
  6
Continuous
 62
     7
370
    25
100
AcDbCircle
 10
3980.2446266787
 20
9113.9394611764
 30
0.0
 40
4.000000000001819
100
AcDbArc
 50
270.0
 51
0.0
  0
ARC
  5
11A
330
1F
100
AcDbEntity
  8
0
  6
Continuous
 62
     7
370
    25
100
AcDbCircle
 10
3966.7446266787
 20
9113.9394611764
 30
0.0
 40
4.000000000000455
100
AcDbArc
 50
180.0
 51
270.0
  0
LINE
  5
11B
330
1F
100
AcDbEntity
  8
0
  6
Continuous
 62
     7
370
    25
100
AcDbLine
 10
3983.3446266787
 20
9123.4394611764
 30
0.0
 11
3983.3446266787
 21
9126.9394611764
 31
0.0
  0
LINE
  5
11C
330
1F
100
AcDbEntity
  8
0
  6
Continuous
 62
     7
370
    25
100
AcDbLine
 10
3963.6446266787
 20
9126.9394611764
 30
0.0
 11
3963.6446266787
 21
9123.4394611764
 31
0.0
  0
ARC
  5
11D
330
1F
100
AcDbEntity
  8
0
  6
Continuous
 62
     7
370
    25
100
AcDbCircle
 10
3972.3244711142
 20
9044.0821879278
 30
0.0
 40
25.77684951138504
100
AcDbArc
 50
87.2653863714
 51
98.1966020716
  0
LWPOLYLINE
  5
11E
330
1F
100
AcDbEntity
  8
0
  6
Continuous
 62
     7
370
    25
100
AcDbPolyline
 90
       10
 70
   128
 43
0.0
 10
3968.6494596286
 20
9069.5957188734
 10
3967.8457258858
 20
9069.4651937262
 10
3966.3330737855
 20
9069.114151356
 10
3964.8283441616
 20
9068.5550967689
 10
3963.8857721283
 20
9068.0161775818
 10
3963.0880852689
 20
9067.3522244155
 10
3962.4262400717
 20
9066.5221281506
 10
3961.9555821971
 20
9065.5349251913
 10
3961.7331234999
 20
9064.440257345
 10
3961.7547476054
 20
9064.091002511
  0
LINE
  5
11F
330
1F
100
AcDbEntity
  8
0
  6
Continuous
 62
     7
370
    25
100
AcDbLine
 10
3961.7205215757
 20
9064.1054918328
 30
0.0
 11
3961.7205215757
 21
9061.207714354
 31
0.0
  0
LINE
  5
120
330
1F
100
AcDbEntity
  8
0
  6
Continuous
 62
     7
370
    25
100
AcDbLine
 10
4011.2905498148
 20
9119.9394611764
 30
0.0
 11
4011.2905498148
 21
9123.4394611764
 31
0.0
  0
LINE
  5
121
330
1F
100
AcDbEntity
  8
0
  6
Continuous
 62
     7
370
    25
100
AcDbLine
 10
3989.7905498148
 20
9123.4394611764
 30
0.0
 11
3989.7905498148
 21
9119.9394611764
 31
0.0
  0
LINE
  5
122
330
1F
100
AcDbEntity
  8
0
  6
Continuous
 62
     7
370
    25
100
AcDbLine
 10
4011.2905498148
 20
9113.9394611764
 30
0.0
 11
4011.2905498148
 21
9116.9394611764
 31
0.0
  0
LINE
  5
123
330
1F
100
AcDbEntity
  8
0
  6
Continuous
 62
     7
370
    25
100
AcDbLine
 10
3989.7905498148
 20
9116.9394611764
 30
0.0
 11
3989.7905498148
 21
9113.9394611764
 31
0.0
  0
ARC
  5
124
330
1F
100
AcDbEntity
  8
0
  6
Continuous
 62
     7
370
    25
100
AcDbCircle
 10
4007.2905498148
 20
9113.9394611764
 30
0.0
 40
4.000000000001819
100
AcDbArc
 50
270.0
 51
0.0
  0
ARC
  5
125
330
1F
100
AcDbEntity
  8
0
  6
Continuous
 62
     7
370
    25
100
AcDbCircle
 10
3993.7905498148
 20
9113.9394611764
 30
0.0
 40
4.0
100
AcDbArc
 50
180.0
 51
270.0
  0
LINE
  5
126
330
1F
100
AcDbEntity
  8
0
  6
Continuous
 62
     7
370
    25
100
AcDbLine
 10
4010.3905498148
 20
9123.4394611764
 30
0.0
 11
4010.3905498148
 21
9126.9394611764
 31
0.0
  0
LINE
  5
127
330
1F
100
AcDbEntity
  8
0
  6
Continuous
 62
     7
370
    25
100
AcDbLine
 10
3990.6905498148
 20
9126.9394611764
 30
0.0
 11
3990.6905498148
 21
9123.4394611764
 31
0.0
  0
LINE
  5
128
330
1F
100
AcDbEntity
  8
0
  6
Continuous
 62
     7
370
    25
100
AcDbLine
 10
3344.9904305649
 20
9061.09224161
 30
0.0
 11
3344.084563907
 21
9057.7115012179
 31
0.0
  0
LINE
  5
129
330
1F
100
AcDbEntity
  8
0
  6
Continuous
 62
     7
370
    25
100
AcDbLine
 10
3364.8519691722
 20
9052.1468917482
 30
0.0
 11
3365.7578358301
 21
9055.5276321403
 31
0.0
  0
LINE
  5
12A
330
1F
100
AcDbEntity
  8
0
  6
Continuous
 62
     7
370
    25
100
AcDbLine
 10
3346.5433448355
 20
9066.8877965677
 30
0.0
 11
3345.7668877002
 21
9063.9900190888
 31
0.0
  0
LINE
  5
12B
330
1F
100
AcDbEntity
  8
0
  6
Continuous
 62
     7
370
    25
100
AcDbLine
 10
3366.5342929654
 20
9058.4254096191
 30
0.0
 11
3367.3107501007
 21
9061.323187098
 31
0.0
  0
ARC
  5
12C
330
1F
100
AcDbEntity
  8
0
  6
Continuous
 62
     7
370
    25
100
AcDbCircle
 10
3350.4070481407
 20
9065.8525203873
 30
0.0
 40
4.000000000000004
100
AcDbArc
 50
75.0
 51
165.0
  0
ARC
  5
12D
330
1F
100
AcDbEntity
  8
0
  6
Continuous
 62
     7
370
    25
100
AcDbCircle
 10
3363.4470467956
 20
9062.3584632784
 30
0.0
 40
4.000000000000004
100
AcDbArc
 50
345.0
 51
75.0
  0
LINE
  5
12E
330
1F
100
AcDbEntity
  8
0
  6
Continuous
 62
     7
370
    25
100
AcDbLine
 10
3344.9538971507
 20
9057.4785640774
 30
0.0
 11
3344.0480304928
 21
9054.0978236853
 31
0.0
  0
LINE
  5
12F
330
1F
100
AcDbEntity
  8
0
  6
Continuous
 62
     7
370
    25
100
AcDbLine
 10
3363.0767692707
 20
9048.9990884968
 30
0.0
 11
3363.9826359286
 21
9052.3798288888
 31
0.0
  0
LINE
  5
130
330
1F
100
AcDbEntity
  8
0
  6
Continuous
 62
     7
370
    25
100
AcDbLine
 10
3963.7205215757
 20
9064.1054918328
 30
0.0
 11
3963.7205215757
 21
9061.8346913421
 31
0.0
  0
LINE
  5
131
330
1F
100
AcDbEntity
  8
0
  6
Continuous
 62
     7
370
    25
100
AcDbLine
 10
3985.2205215757
 20
9062.4219642109
 30
0.0
 11
3985.2205215757
 21
9064.1054918328
 31
0.0
  0
LWPOLYLINE
  5
132
330
1F
100
AcDbEntity
  8
0
  6
Continuous
 62
     7
370
    25
100
AcDbPolyline
 90
       20
 70
   128
 43
0.0
 10
3985.1860962293
 20
9064.0946291602
 10
3985.1981528971
 20
9064.5512780123
 10
3984.9411076745
 20
9065.6603956465
 10
3984.4730800537
 20
9066.5870519502
 10
3983.8590875738
 20
9067.3460186327
 10
3983.1312988569
 20
9067.9630049164
 10
3982.2737022863
 20
9068.4763605628
 10
3981.180416421
 20
9068.933152476
 10
3979.6536713278
 20
9069.353667743
 10
3978.1637085445
 20
9069.6135692989
 10
3976.4930237115
 20
9069.7834950188
 10
3974.8107679623
 20
9069.8505952531
 10
3973.1359293902
 20
9069.8227210499
 10
3971.5002359767
 20
9069.7009178274
 10
3969.9334433853
 20
9069.4810715906
 10
3968.4347558793
 20
9069.1430728521
 10
3966.9353579613
 20
9068.6049368533
 10
3965.961305319
 20
9068.0673079045
 10
3965.1353974246
 20
9067.3994270356
 10
3964.7394556501
 20
9066.9612492843
  0
ARC
  5
133
330
1F
100
AcDbEntity
  8
0
  6
Continuous
 62
     7
370
    25
100
AcDbCircle
 10
3968.0563039256
 20
9064.2042827511
 30
0.0
 40
4.31304381470509
100
AcDbArc
 50
140.2666180069
 51
181.1464359174
  0
LINE
  5
134
330
1F
100
AcDbEntity
  8
0
  6
Continuous
 62
     7
370
    25
100
AcDbLine
 10
4607.6302930507
 20
9061.323187098
 30
0.0
 11
4608.406750186
 21
9058.4254096191
 31
0.0
  0
LINE
  5
135
330
1F
100
AcDbEntity
  8
0
  6
Continuous
 62
     7
370
    25
100
AcDbLine
 10
4629.1741554512
 20
9063.9900190888
 30
0.0
 11
4628.3976983159
 21
9066.8877965677
 31
0.0
  0
ARC
  5
136
330
1F
100
AcDbEntity
  8
0
  6
Continuous
 62
     7
370
    25
100
AcDbCircle
 10
4611.4939963558
 20
9062.3584632784
 30
0.0
 40
4.000000000000475
100
AcDbArc
 50
105.0
 51
195.0
  0
ARC
  5
137
330
1F
100
AcDbEntity
  8
0
  6
Continuous
 62
     7
370
    25
100
AcDbCircle
 10
4624.5339950107
 20
9065.8525203873
 30
0.0
 40
4.000000000000004
100
AcDbArc
 50
15.0
 51
105.0
  0
LINE
  5
138
330
1F
100
AcDbEntity
  8
0
  6
Continuous
 62
     7
370
    25
100
AcDbLine
 10
4609.1832073213
 20
9055.5276321403
 30
0.0
 11
4610.0890739792
 21
9052.1468917482
 31
0.0
  0
LINE
  5
139
330
1F
100
AcDbEntity
  8
0
  6
Continuous
 62
     7
370
    25
100
AcDbLine
 10
4630.8564792444
 20
9057.7115012179
 30
0.0
 11
4629.9506125865
 21
9061.09224161
 31
0.0
  0
LINE
  5
13A
330
1F
100
AcDbEntity
  8
0
  6
Continuous
 62
     7
370
    25
100
AcDbLine
 10
4610.9584072228
 20
9052.3798288888
 30
0.0
 11
4611.8642738807
 21
9048.9990884968
 31
0.0
  0
LINE
  5
13B
330
1F
100
AcDbEntity
  8
0
  6
Continuous
 62
     7
370
    25
100
AcDbLine
 10
4630.8930126586
 20
9054.0978236853
 30
0.0
 11
4629.9871460007
 21
9057.4785640774
 31
0.0
  0
LINE
  5
13C
330
1F
100
AcDbEntity
  8
0
  6
Continuous
 62
     7
370
    25
100
AcDbLine
 10
3991.7205215757
 20
9064.1054918328
 30
0.0
 11
3991.7205215757
 21
9062.4297756167
 31
0.0
  0
LINE
  5
13D
330
1F
100
AcDbEntity
  8
0
  6
Continuous
 62
     7
370
    25
100
AcDbLine
 10
4013.2205215757
 20
9062.7880722732
 30
0.0
 11
4013.2205215757
 21
9064.1054918328
 31
0.0
  0
LWPOLYLINE
  5
13E
330
1F
100
AcDbEntity
  8
0
  6
Continuous
 62
     7
370
    25
100
AcDbPolyline
 90
       10
 70
   128
 43
0.0
 10
4013.1932944682
 20
9064.0897257667
 10
4013.2121341875
 20
9064.3786591591
 10
4012.992842821
 20
9065.5128365465
 10
4012.5502057287
 20
9066.4651428751
 10
4011.9543439391
 20
9067.2467809477
 10
4011.2423634466
 20
9067.8820629323
 10
4010.4071549369
 20
9068.4074329643
 10
4009.3589685208
 20
9068.8696169185
 10
4007.9004421831
 20
9069.2981325069
 10
4006.2915835228
 20
9069.5957188734
  0
LWPOLYLINE
  5
13F
330
1F
100
AcDbEntity
  8
0
  6
Continuous
 62
     7
370
    25
100
AcDbPolyline
 90
       14
 70
   128
 43
0.0
 10
4006.2915835228
 20
9069.5957188734
 10
4005.4624624012
 20
9069.698621285
 10
4003.7935663787
 20
9069.8232377877
 10
4002.1112164994
 20
9069.8503734389
 10
4000.4480110965
 20
9069.7834944406
 10
3998.8389793798
 20
9069.6219069416
 10
3997.303038424
 20
9069.3570575824
 10
3995.8191496173
 20
9068.953192151
 10
3994.4903915973
 20
9068.3842049401
 10
3993.6136098805
 20
9067.8172737826
 10
3992.8554575957
 20
9067.1006872341
 10
3992.2490045205
 20
9066.2163739935
 10
3991.8536848338
 20
9065.1870278939
 10
3991.7258340957
 20
9064.1167036135
  0
LINE
  5
140
330
1F
100
AcDbEntity
  8
0
  6
Continuous
 62
     7
370
    25
100
AcDbLine
 10
3356.313181293
 20
9046.3596988576
 30
0.0
 11
3356.6496460516
 21
9047.6154024318
 31
0.0
  0
LINE
  5
141
330
1F
100
AcDbEntity
  8
0
  6
Continuous
 62
     7
370
    25
100
AcDbLine
 10
3348.9222394413
 20
9049.6859547926
 30
0.0
 11
3348.5857746827
 21
9048.4302512185
 31
0.0
  0
LINE
  5
142
330
1F
100
AcDbEntity
  8
0
  6
Continuous
 62
     7
370
    25
100
AcDbLine
 10
3396.0477057206
 20
9035.7128651256
 30
0.0
 11
3396.3841704792
 21
9036.9685686998
 31
0.0
  0
LINE
  5
143
330
1F
100
AcDbEntity
  8
0
  6
Continuous
 62
     7
370
    25
100
AcDbLine
 10
3309.1877150137
 20
9060.3327885246
 30
0.0
 11
3308.8512502551
 21
9059.0770849505
 31
0.0
  0
LINE
  5
144
330
1F
100
AcDbEntity
  8
0
  6
Continuous
 62
     7
370
    25
100
AcDbLine
 10
4626.3552684687
 20
9048.4302512185
 30
0.0
 11
4626.0188037101
 21
9049.6859547926
 31
0.0
  0
LINE
  5
145
330
1F
100
AcDbEntity
  8
0
  6
Continuous
 62
     7
370
    25
100
AcDbLine
 10
4618.2913970997
 20
9047.6154024318
 30
0.0
 11
4618.6278618584
 21
9046.3596988576
 31
0.0
  0
LINE
  5
146
330
1F
100
AcDbEntity
  8
0
  6
Continuous
 62
     7
370
    25
100
AcDbLine
 10
4666.0897928963
 20
9059.0770849505
 30
0.0
 11
4665.7533281377
 21
9060.3327885246
 31
0.0
  0
LINE
  5
147
330
1F
100
AcDbEntity
  8
0
  6
Continuous
 62
     7
370
    25
100
AcDbLine
 10
4578.5568726722
 20
9036.9685686998
 30
0.0
 11
4578.8933374308
 21
9035.7128651256
 31
0.0
  0
LINE
  5
148
330
1F
100
AcDbEntity
  8
0
  6
Continuous
 62
     7
370
    25
100
AcDbLine
 10
3934.9705215757
 20
9048.6506786122
 30
0.0
 11
3934.9705215757
 21
9047.394975038
 31
0.0
  0
LINE
  5
149
330
1F
100
AcDbEntity
  8
0
  6
Continuous
 62
     7
370
    25
100
AcDbLine
 10
3958.7205215757
 20
9059.2975123442
 30
0.0
 11
3958.7205215757
 21
9058.04180877
 31
0.0
  0
LINE
  5
14A
330
1F
100
AcDbEntity
  8
0
  6
Continuous
 62
     7
370
    25
100
AcDbLine
 10
4003.3114928892
 20
9129.9394611764
 30
0.0
 11
4003.3114928892
 21
9131.2394611764
 31
0.0
  0
LINE
  5
14B
330
1F
100
AcDbEntity
  8
0
  6
Continuous
 62
     7
370
    25
100
AcDbLine
 10
3949.4300161404
 20
9131.2394611764
 30
0.0
 11
3949.4300161404
 21
9129.9394611764
 31
0.0
  0
LINE
  5
14C
330
1F
100
AcDbEntity
  8
0
  6
Continuous
 62
     7
370
    25
100
AcDbLine
 10
3944.5175882468
 20
9131.2394611764
 30
0.0
 11
3944.5175882468
 21
9129.9394611764
 31
0.0
  0
LINE
  5
14D
330
1F
100
AcDbEntity
  8
0
  6
Continuous
 62
     7
370
    25
100
AcDbLine
 10
4036.8990649956
 20
9129.9394611764
 30
0.0
 11
4036.8990649956
 21
9131.2394611764
 31
0.0
  0
LINE
  5
14E
330
1F
100
AcDbEntity
  8
0
  6
Continuous
 62
     7
370
    25
100
AcDbLine
 10
3937.136111498
 20
9131.2394611764
 30
0.0
 11
3937.136111498
 21
9129.9394611764
 31
0.0
  0
LINE
  5
14F
330
1F
100
AcDbEntity
  8
0
  6
Continuous
 62
     7
370
    25
100
AcDbLine
 10
4016.2205215757
 20
9058.04180877
 30
0.0
 11
4016.2205215757
 21
9059.2975123442
 31
0.0
  0
LINE
  5
150
330
1F
100
AcDbEntity
  8
0
  6
Continuous
 62
     7
370
    25
100
AcDbLine
 10
3960.7205215756
 20
9059.2975123442
 30
0.0
 11
3960.7205215756
 21
9058.04180877
 31
0.0
  0
LINE
  5
151
330
1F
100
AcDbEntity
  8
0
  6
Continuous
 62
     7
370
    25
100
AcDbLine
 10
4039.9705215757
 20
9047.394975038
 30
0.0
 11
4039.9705215757
 21
9048.6506786122
 31
0.0
  0
LINE
  5
152
330
1F
100
AcDbEntity
  8
0
  6
Continuous
 62
     7
370
    25
100
AcDbLine
 10
3936.9705215756
 20
9048.6506786122
 30
0.0
 11
3936.9705215756
 21
9047.394975038
 31
0.0
  0
LINE
  5
153
330
1F
100
AcDbEntity
  8
0
  6
Continuous
 62
     7
370
    25
100
AcDbLine
 10
4016.2205215757
 20
8939.2329321365
 30
0.0
 11
4016.2205215757
 21
8942.1307096153
 31
0.0
  0
LINE
  5
154
330
1F
100
AcDbEntity
  8
0
  6
Continuous
 62
     7
370
    25
100
AcDbLine
 10
3960.7205215756
 20
8942.1307096153
 30
0.0
 11
3960.7205215756
 21
8939.2329321365
 31
0.0
  0
LINE
  5
155
330
1F
100
AcDbEntity
  8
0
  6
Continuous
 62
     7
370
    25
100
AcDbLine
 10
4039.9705215757
 20
8928.5860984045
 30
0.0
 11
4039.9705215757
 21
8931.4838758834
 31
0.0
  0
LINE
  5
156
330
1F
100
AcDbEntity
  8
0
  6
Continuous
 62
     7
370
    25
100
AcDbLine
 10
3936.9705215756
 20
8931.4838758833
 30
0.0
 11
3936.9705215756
 21
8928.5860984045
 31
0.0
  0
LINE
  5
157
330
1F
100
AcDbEntity
  8
0
  6
Continuous
 62
     7
370
    25
100
AcDbLine
 10
4016.2205215757
 20
8917.9392646725
 30
0.0
 11
4016.2205215757
 21
8920.2544960214
 31
0.0
  0
LINE
  5
158
330
1F
100
AcDbEntity
  8
0
  6
Continuous
 62
     7
370
    25
100
AcDbLine
 10
3960.7205215757
 20
8920.2544960214
 30
0.0
 11
3960.7205215757
 21
8917.9392646725
 31
0.0
  0
LINE
  5
159
330
1F
100
AcDbEntity
  8
0
  6
Continuous
 62
     7
370
    25
100
AcDbLine
 10
4658.1900110164
 20
8929.6213745849
 30
0.0
 11
4657.413553881
 21
8932.5191520638
 31
0.0
  0
LINE
  5
15A
330
1F
100
AcDbEntity
  8
0
  6
Continuous
 62
     7
370
    25
100
AcDbLine
 10
4649.6861472707
 20
8930.4485997029
 30
0.0
 11
4650.462604406
 21
8927.5508222241
 31
0.0
  0
LINE
  5
15B
330
1F
100
AcDbEntity
  8
0
  6
Continuous
 62
     7
370
    25
100
AcDbLine
 10
4697.9245354439
 20
8940.2682083169
 30
0.0
 11
4697.1480783086
 21
8943.1659857958
 31
0.0
  0
LINE
  5
15C
330
1F
100
AcDbEntity
  8
0
  6
Continuous
 62
     7
370
    25
100
AcDbLine
 10
4609.9516228431
 20
8919.8017659709
 30
0.0
 11
4610.7280799784
 21
8916.9039884921
 31
0.0
  0
LINE
  5
15D
330
1F
100
AcDbEntity
  8
0
  6
Continuous
 62
     7
370
    25
100
AcDbLine
 10
3958.7205215757
 20
8920.7306632367
 30
0.0
 11
3958.7205215757
 21
8917.9392646725
 31
0.0
  0
LINE
  5
15E
330
1F
100
AcDbEntity
  8
0
  6
Continuous
 62
     7
370
    25
100
AcDbLine
 10
3934.9705215757
 20
8931.4838758834
 30
0.0
 11
3934.9705215757
 21
8928.5860984045
 31
0.0
  0
LINE
  5
15F
330
1F
100
AcDbEntity
  8
0
  6
Continuous
 62
     7
370
    25
100
AcDbLine
 10
3324.4784387454
 20
8927.5508222241
 30
0.0
 11
3325.2548958807
 21
8930.4485997029
 31
0.0
  0
LINE
  5
160
330
1F
100
AcDbEntity
  8
0
  6
Continuous
 62
     7
370
    25
100
AcDbLine
 10
3317.5274892703
 20
8932.5191520638
 30
0.0
 11
3316.751032135
 21
8929.6213745849
 31
0.0
  0
LINE
  5
161
330
1F
100
AcDbEntity
  8
0
  6
Continuous
 62
     7
370
    25
100
AcDbLine
 10
3364.212963173
 20
8916.9039884921
 30
0.0
 11
3364.9894203083
 21
8919.8017659709
 31
0.0
  0
LINE
  5
162
330
1F
100
AcDbEntity
  8
0
  6
Continuous
 62
     7
370
    25
100
AcDbLine
 10
3277.7929648428
 20
8943.1659857958
 30
0.0
 11
3277.0165077075
 21
8940.2682083169
 31
0.0
  0
LINE
  5
163
330
1F
100
AcDbEntity
  8
0
  6
Continuous
 62
     7
370
    25
100
AcDbLine
 10
3934.9705215757
 20
9047.394975038
 30
0.0
 11
3934.9705215757
 21
8989.2441060775
 31
0.0
  0
LINE
  5
164
330
1F
100
AcDbEntity
  8
0
  6
Continuous
 62
     7
370
    25
100
AcDbLine
 10
3934.9705215757
 20
8949.2441060775
 30
0.0
 11
3934.9705215757
 21
8931.4838758833
 31
0.0
  0
LINE
  5
165
330
1F
100
AcDbEntity
  8
0
  6
Continuous
 62
     7
370
    25
100
AcDbLine
 10
3958.7205215757
 20
9058.04180877
 30
0.0
 11
3958.7205215757
 21
9056.9822809953
 31
0.0
  0
LINE
  5
166
330
1F
100
AcDbEntity
  8
0
  6
Continuous
 62
     7
370
    25
100
AcDbLine
 10
4657.413553881
 20
8932.5191520638
 30
0.0
 11
4626.3552684687
 21
9048.4302512185
 31
0.0
  0
LINE
  5
167
330
1F
100
AcDbEntity
  8
0
  6
Continuous
 62
     7
370
    25
100
AcDbLine
 10
4618.6278618584
 20
9046.3596988576
 30
0.0
 11
4649.6861472707
 21
8930.4485997029
 31
0.0
  0
LINE
  5
168
330
1F
100
AcDbEntity
  8
0
  6
Continuous
 62
     7
370
    25
100
AcDbLine
 10
4697.1480783086
 20
8943.1659857958
 30
0.0
 11
4666.0897928963
 21
9059.0770849505
 31
0.0
  0
LINE
  5
169
330
1F
100
AcDbEntity
  8
0
  6
Continuous
 62
     7
370
    25
100
AcDbLine
 10
4578.8933374308
 20
9035.7128651256
 30
0.0
 11
4609.9516228431
 21
8919.8017659709
 31
0.0
  0
LINE
  5
16A
330
1F
100
AcDbEntity
  8
0
  6
Continuous
 62
     7
370
    25
100
AcDbLine
 10
4016.2205215757
 20
8942.1307096154
 30
0.0
 11
4016.2205215757
 21
9058.04180877
 31
0.0
  0
LINE
  5
16B
330
1F
100
AcDbEntity
  8
0
  6
Continuous
 62
     7
370
    25
100
AcDbLine
 10
3960.7205215756
 20
9058.04180877
 30
0.0
 11
3960.7205215756
 21
8942.1307096153
 31
0.0
  0
LINE
  5
16C
330
1F
100
AcDbEntity
  8
0
  6
Continuous
 62
     7
370
    25
100
AcDbLine
 10
4039.9705215757
 20
8931.4838758833
 30
0.0
 11
4039.9705215757
 21
9047.394975038
 31
0.0
  0
LINE
  5
16D
330
1F
100
AcDbEntity
  8
0
  6
Continuous
 62
     7
370
    25
100
AcDbLine
 10
3936.9705215756
 20
9047.394975038
 30
0.0
 11
3936.9705215756
 21
8931.4838758833
 31
0.0
  0
LINE
  5
16E
330
1F
100
AcDbEntity
  8
0
  6
Continuous
 62
     7
370
    25
100
AcDbLine
 10
3325.2548958807
 20
8930.4485997029
 30
0.0
 11
3356.313181293
 21
9046.3596988576
 31
0.0
  0
LINE
  5
16F
330
1F
100
AcDbEntity
  8
0
  6
Continuous
 62
     7
370
    25
100
AcDbLine
 10
3348.5857746826
 20
9048.4302512185
 30
0.0
 11
3317.5274892703
 21
8932.5191520638
 31
0.0
  0
LINE
  5
170
330
1F
100
AcDbEntity
  8
0
  6
Continuous
 62
     7
370
    25
100
AcDbLine
 10
3364.9894203083
 20
8919.8017659709
 30
0.0
 11
3396.0477057206
 21
9035.7128651256
 31
0.0
  0
LINE
  5
171
330
1F
100
AcDbEntity
  8
0
  6
Continuous
 62
     7
370
    25
100
AcDbLine
 10
3308.8512502551
 20
9059.0770849505
 30
0.0
 11
3277.7929648428
 21
8943.1659857958
 31
0.0
  0
LINE
  5
172
330
1F
100
AcDbEntity
  8
0
  6
Continuous
 62
     7
370
    25
100
AcDbLine
 10
4023.4705215757
 20
7677.2441060775
 30
0.0
 11
4023.4705215757
 21
7679.2441060775
 31
0.0
  0
LINE
  5
173
330
1F
100
AcDbEntity
  8
0
  6
Continuous
 62
     7
370
    25
100
AcDbLine
 10
3951.4705215757
 20
7679.2441060775
 30
0.0
 11
3951.4705215757
 21
7677.2441060775
 31
0.0
  0
LINE
  5
174
330
1F
100
AcDbEntity
  8
0
  6
Continuous
 62
     7
370
    25
100
AcDbLine
 10
3899.259843457
 20
7034.2441060775
 30
0.0
 11
3899.259843457
 21
7024.2441060775
 31
0.0
  0
LINE
  5
175
330
1F
100
AcDbEntity
  8
0
  6
Continuous
 62
     7
370
    25
100
AcDbLine
 10
4101.5631042046
 20
7024.2441060775
 30
0.0
 11
4101.5631042046
 21
7034.2441060775
 31
0.0
  0
LINE
  5
176
330
1F
100
AcDbEntity
  8
0
  6
Continuous
 62
     7
370
    25
100
AcDbLine
 10
4012.4705215757
 20
7034.2441060775
 30
0.0
 11
4012.4705215757
 21
7677.2441060775
 31
0.0
  0
LINE
  5
177
330
1F
100
AcDbEntity
  8
0
  6
Continuous
 62
     7
370
    25
100
AcDbLine
 10
4012.4705215757
 20
8497.2441060775
 30
0.0
 11
4012.4705215757
 21
8916.9060124944
 31
0.0
  0
LINE
  5
178
330
1F
100
AcDbEntity
  8
0
  6
Continuous
 62
     7
370
    25
100
AcDbLine
 10
3962.4705215757
 20
8917.0833011376
 30
0.0
 11
3962.4705215757
 21
8497.2441060775
 31
0.0
  0
LINE
  5
179
330
1F
100
AcDbEntity
  8
0
  6
Continuous
 62
     7
370
    25
100
AcDbLine
 10
3962.4705215757
 20
7677.2441060775
 30
0.0
 11
3962.4705215757
 21
7034.2441060775
 31
0.0
  0
LINE
  5
17A
330
1F
100
AcDbEntity
  8
0
  6
Continuous
 62
     7
370
    25
100
AcDbLine
 10
3962.4705215757
 20
7014.2441060775
 30
0.0
 11
3962.4705215757
 21
4984.2441060775
 31
0.0
  0
LINE
  5
17B
330
1F
100
AcDbEntity
  8
0
  6
Continuous
 62
     7
370
    25
100
AcDbLine
 10
4012.4705215757
 20
4984.2441060775
 30
0.0
 11
4012.4705215757
 21
7014.2441060775
 31
0.0
  0
LINE
  5
17C
330
1F
100
AcDbEntity
  8
0
  6
Continuous
 62
     7
370
    25
100
AcDbLine
 10
4037.4705215757
 20
4974.2441060775
 30
0.0
 11
4037.4705215757
 21
4984.2441060775
 31
0.0
  0
LINE
  5
17D
330
1F
100
AcDbEntity
  8
0
  6
Continuous
 62
     7
370
    25
100
AcDbLine
 10
3937.4705215757
 20
4984.2441060775
 30
0.0
 11
3937.4705215757
 21
4974.2441060775
 31
0.0
  0
LINE
  5
17E
330
1F
100
AcDbEntity
  8
0
  6
Continuous
 62
     7
370
    25
100
AcDbLine
 10
4037.4705215757
 20
4964.2441060775
 30
0.0
 11
4037.4705215757
 21
4974.2441060775
 31
0.0
  0
LINE
  5
17F
330
1F
100
AcDbEntity
  8
0
  6
Continuous
 62
     7
370
    25
100
AcDbLine
 10
3937.4705215757
 20
4974.2441060775
 30
0.0
 11
3937.4705215757
 21
4964.2441060775
 31
0.0
  0
LINE
  5
180
330
1F
100
AcDbEntity
  8
0
  6
Continuous
 62
     7
370
    25
100
AcDbLine
 10
3937.4705215757
 20
7024.2441060775
 30
0.0
 11
3937.4705215757
 21
7014.2441060775
 31
0.0
  0
LINE
  5
181
330
1F
100
AcDbEntity
  8
0
  6
Continuous
 62
     7
370
    25
100
AcDbLine
 10
4037.4705215757
 20
7014.2441060775
 30
0.0
 11
4037.4705215757
 21
7024.2441060775
 31
0.0
  0
LINE
  5
182
330
1F
100
AcDbEntity
  8
0
  6
Continuous
 62
     7
370
    25
100
AcDbLine
 10
4012.4705215757
 20
3264.1737557388
 30
0.0
 11
4012.4705215757
 21
4964.2441060775
 31
0.0
  0
LINE
  5
183
330
1F
100
AcDbEntity
  8
0
  6
Continuous
 62
     7
370
    25
100
AcDbLine
 10
3962.4705215757
 20
4964.2441060775
 30
0.0
 11
3962.4705215757
 21
3264.1737557388
 31
0.0
  0
LINE
  5
184
330
1F
100
AcDbEntity
  8
0
  6
Continuous
 62
     7
370
    25
100
AcDbLine
 10
4257.4705215757
 20
3019.2441060775
 30
0.0
 11
4257.4705215757
 21
3025.2441060775
 31
0.0
  0
LINE
  5
185
330
1F
100
AcDbEntity
  8
0
  6
Continuous
 62
     7
370
    25
100
AcDbLine
 10
3717.4705215757
 20
3025.2441060775
 30
0.0
 11
3717.4705215757
 21
3019.2441060775
 31
0.0
  0
LWPOLYLINE
  5
186
330
1F
100
AcDbEntity
  8
0
  6
Continuous
 62
     7
370
    25
100
AcDbPolyline
 90
        5
 70
   128
 43
0.0
 10
3960.6326186377
 20
7034.2441060775
 10
3960.748934821
 20
7034.5369551163
 10
3961.1572317779
 20
7034.9009222827
 10
3961.7840218636
 20
7035.1044107481
 10
3962.4705215757
 20
7035.1228952725
  0
LWPOLYLINE
  5
187
330
1F
100
AcDbEntity
  8
0
  6
Continuous
 62
     7
370
    25
100
AcDbPolyline
 90
        8
 70
   128
 43
0.0
 10
3921.0622886223
 20
7034.2441060775
 10
3921.0270336196
 20
7034.2828991432
 10
3920.4711662678
 20
7034.7668736297
 10
3919.7981880587
 20
7035.1617921234
 10
3919.1105538241
 20
7035.4075318636
 10
3918.5129496427
 20
7035.4666812025
 10
3918.0963553339
 20
7035.3302351895
 10
3917.983778745
 20
7035.2056212565
  0
LINE
  5
188
330
1F
100
AcDbEntity
  8
0
  6
Continuous
 62
     7
370
    25
100
AcDbLine
 10
4082.1214337143
 20
7034.7152391084
 30
0.0
 11
4082.2097615539
 21
7034.6894761299
 31
0.0
  0
ARC
  5
189
330
1F
100
AcDbEntity
  8
0
  6
Continuous
 62
     7
370
    25
100
AcDbCircle
 10
4083.093299517
 20
7031.657866421
 30
0.0
 40
3.208122642275884
100
AcDbArc
 50
107.6342184198
 51
126.2781866288
  0
LINE
  5
18A
330
1F
100
AcDbEntity
  8
0
  6
Continuous
 62
     7
370
    25
100
AcDbLine
 10
3040.4665918242
 20
3004.2441060775
 30
0.0
 11
3040.4665918242
 21
2994.2441060775
 31
0.0
  0
LINE
  5
18B
330
1F
100
AcDbEntity
  8
0
  6
Continuous
 62
     7
370
    25
100
AcDbLine
 10
3147.7985146069
 20
2994.2441060775
 30
0.0
 11
3147.7985146069
 21
3004.2441060775
 31
0.0
  0
LINE
  5
18C
330
1F
100
AcDbEntity
  8
0
  6
Continuous
 62
     7
370
    25
100
AcDbLine
 10
3040.4665918242
 20
3004.2441060775
 30
0.0
 11
3147.7985146069
 21
3004.2441060775
 31
0.0
  0
LINE
  5
18D
330
1F
100
AcDbEntity
  8
0
  6
Continuous
 62
     7
370
    25
100
AcDbLine
 10
3040.4665918242
 20
2994.2441060775
 30
0.0
 11
3147.7985146069
 21
2994.2441060775
 31
0.0
  0
LINE
  5
18E
330
1F
100
AcDbEntity
  8
0
  6
Continuous
 62
     7
370
    25
100
AcDbLine
 10
3033.9445522823
 20
3004.2441060775
 30
0.0
 11
3040.4665918242
 21
3004.2441060775
 31
0.0
  0
LINE
  5
18F
330
1F
100
AcDbEntity
  8
0
  6
Continuous
 62
     7
370
    25
100
AcDbLine
 10
3040.4665918242
 20
2994.2441060775
 30
0.0
 11
3033.9445522823
 21
2994.2441060775
 31
0.0
  0
LINE
  5
190
330
1F
100
AcDbEntity
  8
0
  6
Continuous
 62
     7
370
    25
100
AcDbLine
 10
3147.7985146069
 20
3004.2441060775
 30
0.0
 11
3151.2764750651
 21
3004.2441060775
 31
0.0
  0
LINE
  5
191
330
1F
100
AcDbEntity
  8
0
  6
Continuous
 62
     7
370
    25
100
AcDbLine
 10
3151.2764750651
 20
2994.2441060775
 30
0.0
 11
3147.7985146069
 21
2994.2441060775
 31
0.0
  0
LINE
  5
192
330
1F
100
AcDbEntity
  8
0
  6
Continuous
 62
     7
370
    25
100
AcDbLine
 10
7334.3593950826
 20
3004.2441060775
 30
0.0
 11
7334.3593950826
 21
2994.2441060775
 31
0.0
  0
LINE
  5
193
330
1F
100
AcDbEntity
  8
0
  6
Continuous
 62
     7
370
    25
100
AcDbLine
 10
7334.3593950826
 20
2994.2441060775
 30
0.0
 11
7326.8593950826
 21
2994.2441060775
 31
0.0
  0
LINE
  5
194
330
1F
100
AcDbEntity
  8
0
  6
Continuous
 62
     7
370
    25
100
AcDbLine
 10
7326.8593950826
 20
2994.2441060775
 30
0.0
 11
7326.8593950826
 21
3004.2441060775
 31
0.0
  0
LINE
  5
195
330
1F
100
AcDbEntity
  8
0
  6
Continuous
 62
     7
370
    25
100
AcDbLine
 10
7326.8593950826
 20
3004.2441060775
 30
0.0
 11
7334.3593950826
 21
3004.2441060775
 31
0.0
  0
LINE
  5
196
330
1F
100
AcDbEntity
  8
0
  6
Continuous
 62
     7
370
    25
100
AcDbLine
 10
7431.9426975746
 20
2994.2441060775
 30
0.0
 11
7431.9426975746
 21
3004.2441060775
 31
0.0
  0
LINE
  5
197
330
1F
100
AcDbEntity
  8
0
  6
Continuous
 62
     7
370
    25
100
AcDbLine
 10
7334.3593950826
 20
2994.2441060775
 30
0.0
 11
7431.9426975746
 21
2994.2441060775
 31
0.0
  0
LINE
  5
198
330
1F
100
AcDbEntity
  8
0
  6
Continuous
 62
     7
370
    25
100
AcDbLine
 10
7334.3593950826
 20
3004.2441060775
 30
0.0
 11
7431.9426975746
 21
3004.2441060775
 31
0.0
  0
LINE
  5
199
330
1F
100
AcDbEntity
  8
0
  6
Continuous
 62
     7
370
    25
100
AcDbLine
 10
7434.4426975746
 20
2994.2441060775
 30
0.0
 11
7431.9426975746
 21
2994.2441060775
 31
0.0
  0
LINE
  5
19A
330
1F
100
AcDbEntity
  8
0
  6
Continuous
 62
     7
370
    25
100
AcDbLine
 10
7431.9426975746
 20
3004.2441060775
 30
0.0
 11
7434.4426975746
 21
3004.2441060775
 31
0.0
  0
LINE
  5
19B
330
1F
100
AcDbEntity
  8
0
  6
Continuous
 62
     7
370
    25
100
AcDbLine
 10
1485.6092896229
 20
3004.2441060775
 30
0.0
 11
1485.6092896229
 21
2994.2441060775
 31
0.0
  0
LINE
  5
19C
330
1F
100
AcDbEntity
  8
0
  6
Continuous
 62
     7
370
    25
100
AcDbLine
 10
1478.1092896229
 20
2994.2441060775
 30
0.0
 11
1478.1092896229
 21
3004.2441060775
 31
0.0
  0
LINE
  5
19D
330
1F
100
AcDbEntity
  8
0
  6
Continuous
 62
     7
370
    25
100
AcDbLine
 10
1485.6092896229
 20
2994.2441060775
 30
0.0
 11
1478.1092896229
 21
2994.2441060775
 31
0.0
  0
LINE
  5
19E
330
1F
100
AcDbEntity
  8
0
  6
Continuous
 62
     7
370
    25
100
AcDbLine
 10
1478.1092896229
 20
3004.2441060775
 30
0.0
 11
1485.6092896229
 21
3004.2441060775
 31
0.0
  0
LINE
  5
19F
330
1F
100
AcDbEntity
  8
0
  6
Continuous
 62
     7
370
    25
100
AcDbLine
 10
1583.1925921149
 20
2994.2441060775
 30
0.0
 11
1583.1925921149
 21
3004.2441060775
 31
0.0
  0
LINE
  5
1A0
330
1F
100
AcDbEntity
  8
0
  6
Continuous
 62
     7
370
    25
100
AcDbLine
 10
1485.6092896229
 20
2994.2441060775
 30
0.0
 11
1583.1925921149
 21
2994.2441060775
 31
0.0
  0
LINE
  5
1A1
330
1F
100
AcDbEntity
  8
0
  6
Continuous
 62
     7
370
    25
100
AcDbLine
 10
1485.6092896229
 20
3004.2441060775
 30
0.0
 11
1583.1925921149
 21
3004.2441060775
 31
0.0
  0
LINE
  5
1A2
330
1F
100
AcDbEntity
  8
0
  6
Continuous
 62
     7
370
    25
100
AcDbLine
 10
1585.6925921149
 20
2994.2441060775
 30
0.0
 11
1583.1925921149
 21
2994.2441060775
 31
0.0
  0
LINE
  5
1A3
330
1F
100
AcDbEntity
  8
0
  6
Continuous
 62
     7
370
    25
100
AcDbLine
 10
1583.1925921149
 20
3004.2441060775
 30
0.0
 11
1585.6925921149
 21
3004.2441060775
 31
0.0
  0
ARC
  5
1A4
330
1F
100
AcDbEntity
  8
0
  6
Continuous
 62
     7
370
    25
100
AcDbCircle
 10
3992.908833955
 20
9196.2463623168
 30
0.0
 40
0.9931235183510888
100
AcDbArc
 50
90.4037591394
 51
180.3981472529
  0
LINE
  5
1A5
330
1F
100
AcDbEntity
  8
0
  6
Continuous
 62
     7
370
    25
100
AcDbLine
 10
3992.9018355446
 20
9197.2394611764
 30
0.0
 11
4005.8114928892
 21
9197.2394611764
 31
0.0
  0
LINE
  5
1A6
330
1F
100
AcDbEntity
  8
0
  6
Continuous
 62
     7
370
    25
100
AcDbLine
 10
3991.9157344147
 20
9184.2394611764
 30
0.0
 11
3991.9157344147
 21
9196.2394611764
 31
0.0
  0
LINE
  5
1A7
330
1F
100
AcDbEntity
  8
0
  6
Continuous
 62
     7
370
    25
100
AcDbLine
 10
4006.8114928892
 20
9184.2394611764
 30
0.0
 11
3991.9157344147
 21
9184.2394611764
 31
0.0
  0
LINE
  5
1A8
330
1F
100
AcDbEntity
  8
0
  6
Continuous
 62
     7
370
    25
100
AcDbLine
 10
3946.5175882468
 20
9237.2394611764
 30
0.0
 11
4027.5175882468
 21
9237.2394611764
 31
0.0
  0
LINE
  5
1A9
330
1F
100
AcDbEntity
  8
0
  6
Continuous
 62
     7
370
    25
100
AcDbLine
 10
3990.3286144733
 20
9196.2394611764
 30
0.0
 11
3961.2098137434
 21
9196.2394611764
 31
0.0
  0
LWPOLYLINE
  5
1AA
330
1F
100
AcDbEntity
  8
0
  6
Continuous
 62
     7
370
    25
100
AcDbPolyline
 90
        9
 70
   128
 43
0.0
 10
3961.2098137434
 20
9196.2394611764
 10
3961.2205939423
 20
9196.4345514985
 10
3961.2525202621
 20
9196.6221446088
 10
3961.3043657922
 20
9196.7950314095
 10
3961.3741381379
 20
9196.9465679576
 10
3961.4591559871
 20
9197.0709307887
 10
3961.5561521516
 20
9197.1633407089
 10
3961.6613991231
 20
9197.2202464568
 10
3961.7708523196
 20
9197.2394611764
  0
ARC
  5
1AB
330
1F
100
AcDbEntity
  8
0
  6
Continuous
 62
     7
370
    25
100
AcDbCircle
 10
3986.8013869465
 20
9196.4881659384
 30
0.0
 40
3.535984740375994
100
AcDbArc
 50
355.9667505546
 51
12.2672155727
  0
LINE
  5
1AC
330
1F
100
AcDbEntity
  8
0
  6
Continuous
 62
     7
370
    25
100
AcDbLine
 10
3961.7708523196
 20
9197.2394611764
 30
0.0
 11
3990.2566356423
 21
9197.2394611764
 31
0.0
  0
LINE
  5
1AD
330
1F
100
AcDbEntity
  8
0
  6
Continuous
 62
     7
370
    25
100
AcDbLine
 10
3961.2098137434
 20
9184.2394611764
 30
0.0
 11
3961.2098137434
 21
9196.2394611764
 31
0.0
  0
LINE
  5
1AE
330
1F
100
AcDbEntity
  8
0
  6
Continuous
 62
     7
370
    25
100
AcDbLine
 10
3990.3286144733
 20
9184.2394611764
 30
0.0
 11
3990.3286144733
 21
9196.2394611764
 31
0.0
  0
LINE
  5
1AF
330
1F
100
AcDbEntity
  8
0
  6
Continuous
 62
     7
370
    25
100
AcDbLine
 10
3990.3286144733
 20
9184.2394611764
 30
0.0
 11
3961.2098137434
 21
9184.2394611764
 31
0.0
  0
LINE
  5
1B0
330
1F
100
AcDbEntity
  8
0
  6
Continuous
 62
     7
370
    25
100
AcDbLine
 10
3991.9157344147
 20
9196.2394611764
 30
0.0
 11
3990.3286144733
 21
9196.2394611764
 31
0.0
  0
LINE
  5
1B1
330
1F
100
AcDbEntity
  8
0
  6
Continuous
 62
     7
370
    25
100
AcDbLine
 10
3990.2566356423
 20
9197.2394611764
 30
0.0
 11
3992.9018355446
 21
9197.2394611764
 31
0.0
  0
LINE
  5
1B2
330
1F
100
AcDbEntity
  8
0
  6
Continuous
 62
     7
370
    25
100
AcDbLine
 10
3991.9157344147
 20
9184.2394611764
 30
0.0
 11
3990.3286144733
 21
9184.2394611764
 31
0.0
  0
ARC
  5
1B3
330
1F
100
AcDbEntity
  8
0
  6
Continuous
 62
     7
370
    25
100
AcDbCircle
 10
4027.4542630739
 20
9196.2870653435
 30
0.0
 40
0.953864239227922
100
AcDbArc
 50
357.1393713657
 51
86.8203948491
  0
LINE
  5
1B4
330
1F
100
AcDbEntity
  8
0
  6
Continuous
 62
     7
370
    25
100
AcDbLine
 10
4028.4069386904
 20
9196.2394611764
 30
0.0
 11
4007.0904971006
 21
9196.2394611764
 31
0.0
  0
LWPOLYLINE
  5
1B5
330
1F
100
AcDbEntity
  8
0
  6
Continuous
 62
     7
370
    25
100
AcDbPolyline
 90
        9
 70
   128
 43
0.0
 10
4006.6541295169
 20
9197.2394611764
 10
4006.7392606093
 20
9197.2202464568
 10
4006.8211201616
 20
9197.1633407089
 10
4006.8965623571
 20
9197.0709307887
 10
4006.9626879944
 20
9196.9465679576
 10
4007.0169559026
 20
9196.7950314095
 10
4007.0572805962
 20
9196.6221446088
 10
4007.0821124199
 20
9196.4345514985
 10
4007.0904971006
 20
9196.2394611764
  0
LINE
  5
1B6
330
1F
100
AcDbEntity
  8
0
  6
Continuous
 62
     7
370
    25
100
AcDbLine
 10
4006.6541295169
 20
9197.2394611764
 30
0.0
 11
4027.5071702025
 21
9197.2394611764
 31
0.0
  0
LINE
  5
1B7
330
1F
100
AcDbEntity
  8
0
  6
Continuous
 62
     7
370
    25
100
AcDbLine
 10
4007.0904971006
 20
9184.2394611764
 30
0.0
 11
4007.0904971006
 21
9196.2394611764
 31
0.0
  0
LINE
  5
1B8
330
1F
100
AcDbEntity
  8
0
  6
Continuous
 62
     7
370
    25
100
AcDbLine
 10
4028.4069386904
 20
9184.2394611764
 30
0.0
 11
4028.4069386904
 21
9196.2394611764
 31
0.0
  0
LINE
  5
1B9
330
1F
100
AcDbEntity
  8
0
  6
Continuous
 62
     7
370
    25
100
AcDbLine
 10
4028.4069386904
 20
9184.2394611764
 30
0.0
 11
4007.0904971006
 21
9184.2394611764
 31
0.0
  0
LINE
  5
1BA
330
1F
100
AcDbEntity
  8
0
  6
Continuous
 62
     7
370
    25
100
AcDbLine
 10
4005.8114928892
 20
9197.2394611764
 30
0.0
 11
4006.6541295169
 21
9197.2394611764
 31
0.0
  0
LINE
  5
1BB
330
1F
100
AcDbEntity
  8
0
  6
Continuous
 62
     7
370
    25
100
AcDbLine
 10
4006.8114928892
 20
9184.2394611764
 30
0.0
 11
4007.0904971006
 21
9184.2394611764
 31
0.0
  0
LINE
  5
1BC
330
1F
100
AcDbEntity
  8
0
  6
Continuous
 62
     7
370
    25
100
AcDbLine
 10
3959.2118825894
 20
9184.2394611764
 30
0.0
 11
3959.2118825894
 21
9196.2394611764
 31
0.0
  0
LINE
  5
1BD
330
1F
100
AcDbEntity
  8
0
  6
Continuous
 62
     7
370
    25
100
AcDbLine
 10
3959.2118825894
 20
9184.2394611764
 30
0.0
 11
3945.9300161404
 21
9184.2394611764
 31
0.0
  0
ARC
  5
1BE
330
1F
100
AcDbEntity
  8
0
  6
Continuous
 62
     7
370
    25
100
AcDbCircle
 10
3958.3094061989
 20
9196.3408834892
 30
0.0
 40
0.9081575419368733
100
AcDbArc
 50
353.587876531
 51
81.6704986414
  0
LINE
  5
1BF
330
1F
100
AcDbEntity
  8
0
  6
Continuous
 62
     7
370
    25
100
AcDbLine
 10
3946.9300161404
 20
9197.2394611764
 30
0.0
 11
3958.4409670629
 21
9197.2394611764
 31
0.0
  0
LINE
  5
1C0
330
1F
100
AcDbEntity
  8
0
  6
Continuous
 62
     7
370
    25
100
AcDbLine
 10
3961.2098137434
 20
9196.2394611764
 30
0.0
 11
3959.2118825894
 21
9196.2394611764
 31
0.0
  0
LINE
  5
1C1
330
1F
100
AcDbEntity
  8
0
  6
Continuous
 62
     7
370
    25
100
AcDbLine
 10
3958.4409670629
 20
9197.2394611764
 30
0.0
 11
3961.7708523196
 21
9197.2394611764
 31
0.0
  0
LINE
  5
1C2
330
1F
100
AcDbEntity
  8
0
  6
Continuous
 62
     7
370
    25
100
AcDbLine
 10
3959.2118825894
 20
9184.2394611764
 30
0.0
 11
3961.2098137434
 21
9184.2394611764
 31
0.0
  0
LINE
  5
1C3
330
1F
100
AcDbEntity
  8
0
  6
Continuous
 62
     7
370
    25
100
AcDbLine
 10
3942.0175882468
 20
9197.2394611764
 30
0.0
 11
3946.9300161404
 21
9197.2394611764
 31
0.0
  0
LINE
  5
1C4
330
1F
100
AcDbEntity
  8
0
  6
Continuous
 62
     7
370
    25
100
AcDbLine
 10
3945.8587599322
 20
9184.2394611764
 30
0.0
 11
3941.0175882468
 21
9184.2394611764
 31
0.0
  0
LINE
  5
1C5
330
1F
100
AcDbEntity
  8
0
  6
Continuous
 62
     7
370
    25
100
AcDbLine
 10
4030.2803370178
 20
9184.2394611764
 30
0.0
 11
4030.2803370178
 21
9196.2394611764
 31
0.0
  0
LINE
  5
1C6
330
1F
100
AcDbEntity
  8
0
  6
Continuous
 62
     7
370
    25
100
AcDbLine
 10
4040.3990649956
 20
9184.2394611764
 30
0.0
 11
4030.2803370178
 21
9184.2394611764
 31
0.0
  0
LWPOLYLINE
  5
1C7
330
1F
100
AcDbEntity
  8
0
  6
Continuous
 62
     7
370
    25
100
AcDbPolyline
 90
        9
 70
   128
 43
0.0
 10
4030.6295007481
 20
9197.2394611764
 10
4030.5613822835
 20
9197.2202464568
 10
4030.4958815733
 20
9197.1633407089
 10
4030.4355157731
 20
9197.0709307887
 10
4030.3826047066
 20
9196.9465679576
 10
4030.3391817166
 20
9196.7950314095
 10
4030.3069155241
 20
9196.6221446088
 10
4030.2870461009
 20
9196.4345514985
 10
4030.2803370178
 20
9196.2394611764
  0
LINE
  5
1C8
330
1F
100
AcDbEntity
  8
0
  6
Continuous
 62
     7
370
    25
100
AcDbLine
 10
4030.6295007481
 20
9197.2394611764
 30
0.0
 11
4039.3990649956
 21
9197.2394611764
 31
0.0
  0
LINE
  5
1C9
330
1F
100
AcDbEntity
  8
0
  6
Continuous
 62
     7
370
    25
100
AcDbLine
 10
4030.2803370178
 20
9196.2394611764
 30
0.0
 11
4028.4069386904
 21
9196.2394611764
 31
0.0
  0
LINE
  5
1CA
330
1F
100
AcDbEntity
  8
0
  6
Continuous
 62
     7
370
    25
100
AcDbLine
 10
4027.5071702025
 20
9197.2394611764
 30
0.0
 11
4030.6295007481
 21
9197.2394611764
 31
0.0
  0
LINE
  5
1CB
330
1F
100
AcDbEntity
  8
0
  6
Continuous
 62
     7
370
    25
100
AcDbLine
 10
4030.2803370178
 20
9184.2394611764
 30
0.0
 11
4028.4069386904
 21
9184.2394611764
 31
0.0
  0
ARC
  5
1CC
330
1F
100
AcDbEntity
  8
0
  6
Continuous
 62
     7
370
    25
100
AcDbCircle
 10
3941.5193234367
 20
9196.482560036
 30
0.0
 40
1.647344279491157
100
AcDbArc
 50
152.647249091
 51
188.4861399517
  0
LINE
  5
1CD
330
1F
100
AcDbEntity
  8
0
  6
Continuous
 62
     7
370
    25
100
AcDbLine
 10
3940.0561611631
 20
9197.2394611764
 30
0.0
 11
3942.0175882468
 21
9197.2394611764
 31
0.0
  0
LINE
  5
1CE
330
1F
100
AcDbEntity
  8
0
  6
Continuous
 62
     7
370
    25
100
AcDbLine
 10
3939.8900149577
 20
9184.2394611764
 30
0.0
 11
3939.8900149577
 21
9196.2394611764
 31
0.0
  0
LINE
  5
1CF
330
1F
100
AcDbEntity
  8
0
  6
Continuous
 62
     7
370
    25
100
AcDbLine
 10
3939.8900149577
 20
9184.2394611764
 30
0.0
 11
3941.0175882468
 21
9184.2394611764
 31
0.0
  0
LINE
  5
1D0
330
1F
100
AcDbEntity
  8
0
  6
Continuous
 62
     7
370
    25
100
AcDbLine
 10
3934.636111498
 20
9197.2394611764
 30
0.0
 11
3940.0561611631
 21
9197.2394611764
 31
0.0
  0
LINE
  5
1D1
330
1F
100
AcDbEntity
  8
0
  6
Continuous
 62
     7
370
    25
100
AcDbLine
 10
3939.8900149577
 20
9184.2394611764
 30
0.0
 11
3933.636111498
 21
9184.2394611764
 31
0.0
  0
LINE
  5
1D2
330
1F
100
AcDbEntity
  8
0
  6
Continuous
 62
     7
370
    25
100
AcDbLine
 10
4357.4705215757
 20
8323.9726411628
 30
0.0
 11
4357.4705215757
 21
8402.2441060775
 31
0.0
  0
LINE
  5
1D3
330
1F
100
AcDbEntity
  8
0
  6
Continuous
 62
     7
370
    25
100
AcDbLine
 10
4357.4705215757
 20
7794.2441060775
 30
0.0
 11
4357.4705215757
 21
8323.9726411628
 31
0.0
  0
LINE
  5
1D4
330
1F
100
AcDbEntity
  8
0
  6
Continuous
 62
     7
370
    25
100
AcDbLine
 10
4357.5017107188
 20
8324.3431821932
 30
0.0
 11
4357.5017107188
 21
8402.7431323668
 31
0.0
  0
LINE
  5
1D5
330
1F
100
AcDbEntity
  8
0
  6
Continuous
 62
     7
370
    25
100
AcDbLine
 10
4357.5017107188
 20
7793.7450797883
 30
0.0
 11
4357.5017107188
 21
8324.3431821932
 31
0.0
  0
LINE
  5
1D6
330
1F
100
AcDbEntity
  8
0
  6
Continuous
 62
     7
370
    25
100
AcDbLine
 10
5317.4705215757
 20
8280.1649335191
 30
0.0
 11
5317.4705215757
 21
8343.2460572989
 31
0.0
  0
LINE
  5
1D7
330
1F
100
AcDbEntity
  8
0
  6
Continuous
 62
     7
370
    25
100
AcDbLine
 10
5317.4705215757
 20
7853.2421548562
 30
0.0
 11
5317.4705215757
 21
8280.1649335191
 31
0.0
  0
LINE
  5
1D8
330
1F
100
AcDbEntity
  8
0
  6
Continuous
 62
     7
370
    25
100
AcDbLine
 10
4837.4705215757
 20
8302.4407757973
 30
0.0
 11
4837.4705215757
 21
8373.2460572989
 31
0.0
  0
LINE
  5
1D9
330
1F
100
AcDbEntity
  8
0
  6
Continuous
 62
     7
370
    25
100
AcDbLine
 10
4837.4705215757
 20
7823.2421548562
 30
0.0
 11
4837.4705215757
 21
8302.4407757973
 31
0.0
  0
LINE
  5
1DA
330
1F
100
AcDbEntity
  8
0
  6
Continuous
 62
     7
370
    25
100
AcDbLine
 10
6277.4705215757
 20
8235.6132489628
 30
0.0
 11
6277.4705215757
 21
8283.2460572989
 31
0.0
  0
LINE
  5
1DB
330
1F
100
AcDbEntity
  8
0
  6
Continuous
 62
     7
370
    25
100
AcDbLine
 10
6277.4705215757
 20
7913.2421548562
 30
0.0
 11
6277.4705215757
 21
8235.6132489628
 31
0.0
  0
LINE
  5
1DC
330
1F
100
AcDbEntity
  8
0
  6
Continuous
 62
     7
370
    25
100
AcDbLine
 10
5797.4705215757
 20
8257.889091241
 30
0.0
 11
5797.4705215757
 21
8313.2460572989
 31
0.0
  0
LINE
  5
1DD
330
1F
100
AcDbEntity
  8
0
  6
Continuous
 62
     7
370
    25
100
AcDbLine
 10
5797.4705215757
 20
7883.2421548562
 30
0.0
 11
5797.4705215757
 21
8257.889091241
 31
0.0
  0
LINE
  5
1DE
330
1F
100
AcDbEntity
  8
0
  6
Continuous
 62
     7
370
    25
100
AcDbLine
 10
6757.5017107188
 20
8212.9639708025
 30
0.0
 11
6757.5017107188
 21
8252.7431323668
 31
0.0
  0
LINE
  5
1DF
330
1F
100
AcDbEntity
  8
0
  6
Continuous
 62
     7
370
    25
100
AcDbLine
 10
6757.5017107188
 20
7943.7450797883
 30
0.0
 11
6757.5017107188
 21
8212.9639708025
 31
0.0
  0
LINE
  5
1E0
330
1F
100
AcDbEntity
  8
0
  6
Continuous
 62
     7
370
    25
100
AcDbLine
 10
3920.4705215757
 20
8477.2441060775
 30
0.0
 11
4054.4705215757
 21
8477.2441060775
 31
0.0
  0
LINE
  5
1E1
330
1F
100
AcDbEntity
  8
0
  6
Continuous
 62
     7
370
    25
100
AcDbLine
 10
4057.4705215757
 20
8474.2441060775
 30
0.0
 11
3917.4705215757
 21
8474.2441060775
 31
0.0
  0
LINE
  5
1E2
330
1F
100
AcDbEntity
  8
0
  6
Continuous
 62
     7
370
    25
100
AcDbLine
 10
3998.6699258931
 20
8447.2441060775
 30
0.0
 11
4057.4705215757
 21
8447.2441060775
 31
0.0
  0
LINE
  5
1E3
330
1F
100
AcDbEntity
  8
0
  6
Continuous
 62
     7
370
    25
100
AcDbLine
 10
3917.4705215757
 20
8447.2441060775
 30
0.0
 11
3998.6699258931
 21
8447.2441060775
 31
0.0
  0
LINE
  5
1E4
330
1F
100
AcDbEntity
  8
0
  6
Continuous
 62
     7
370
    25
100
AcDbLine
 10
4004.7984980461
 20
8477.2441060775
 30
0.0
 11
4004.7984980461
 21
8497.2441060775
 31
0.0
  0
LINE
  5
1E5
330
1F
100
AcDbEntity
  8
0
  6
Continuous
 62
     7
370
    25
100
AcDbLine
 10
4030.7717917649
 20
8497.2441060775
 30
0.0
 11
4004.7984980461
 21
8497.2441060775
 31
0.0
  0
LINE
  5
1E6
330
1F
100
AcDbEntity
  8
0
  6
Continuous
 62
     7
370
    25
100
AcDbLine
 10
3961.7680156111
 20
8477.2441060775
 30
0.0
 11
3961.7680156111
 21
8497.2441060775
 31
0.0
  0
LINE
  5
1E7
330
1F
100
AcDbEntity
  8
0
  6
Continuous
 62
     7
370
    25
100
AcDbLine
 10
4004.7984980461
 20
8497.2441060775
 30
0.0
 11
3961.7680156111
 21
8497.2441060775
 31
0.0
  0
LINE
  5
1E8
330
1F
100
AcDbEntity
  8
0
  6
Continuous
 62
     7
370
    25
100
AcDbLine
 10
3961.7680156111
 20
8497.2441060775
 30
0.0
 11
3944.1692513865
 21
8497.2441060775
 31
0.0
  0
LINE
  5
1E9
330
1F
100
AcDbEntity
  8
0
  6
Continuous
 62
     7
370
    25
100
AcDbLine
 10
4032.4705215757
 20
8194.2441060775
 30
0.0
 11
4067.4705215757
 21
8229.2441060775
 31
0.0
  0
LINE
  5
1EA
330
1F
100
AcDbEntity
  8
0
  6
Continuous
 62
     7
370
    25
100
AcDbLine
 10
4022.4705215757
 20
8194.2441060775
 30
0.0
 11
4032.4705215757
 21
8194.2441060775
 31
0.0
  0
LINE
  5
1EB
330
1F
100
AcDbEntity
  8
0
  6
Continuous
 62
     7
370
    25
100
AcDbLine
 10
4022.4705215757
 20
8229.2441060775
 30
0.0
 11
4022.4705215757
 21
8194.2441060775
 31
0.0
  0
LINE
  5
1EC
330
1F
100
AcDbEntity
  8
0
  6
Continuous
 62
     7
370
    25
100
AcDbLine
 10
4032.4705215757
 20
8239.2441060775
 30
0.0
 11
4022.4705215757
 21
8229.2441060775
 31
0.0
  0
LINE
  5
1ED
330
1F
100
AcDbEntity
  8
0
  6
Continuous
 62
     7
370
    25
100
AcDbLine
 10
4022.4705215757
 20
7886.2441060775
 30
0.0
 11
4022.4705215757
 21
7921.2441060775
 31
0.0
  0
LINE
  5
1EE
330
1F
100
AcDbEntity
  8
0
  6
Continuous
 62
     7
370
    25
100
AcDbLine
 10
4022.4705215757
 20
7921.2441060775
 30
0.0
 11
4032.4705215757
 21
7931.2441060775
 31
0.0
  0
LINE
  5
1EF
330
1F
100
AcDbEntity
  8
0
  6
Continuous
 62
     7
370
    25
100
AcDbLine
 10
4032.4705215757
 20
7886.2441060775
 30
0.0
 11
4022.4705215757
 21
7886.2441060775
 31
0.0
  0
LINE
  5
1F0
330
1F
100
AcDbEntity
  8
0
  6
Continuous
 62
     7
370
    25
100
AcDbLine
 10
4067.4705215757
 20
7931.2441060775
 30
0.0
 11
4067.4705215757
 21
7921.2441060775
 31
0.0
  0
LINE
  5
1F1
330
1F
100
AcDbEntity
  8
0
  6
Continuous
 62
     7
370
    25
100
AcDbLine
 10
4067.4705215757
 20
7921.2441060775
 30
0.0
 11
4032.4705215757
 21
7886.2441060775
 31
0.0
  0
LINE
  5
1F2
330
1F
100
AcDbEntity
  8
0
  6
Continuous
 62
     7
370
    25
100
AcDbLine
 10
4067.4705215757
 20
7939.2441060775
 30
0.0
 11
4067.4705215757
 21
7931.2441060775
 31
0.0
  0
LINE
  5
1F3
330
1F
100
AcDbEntity
  8
0
  6
Continuous
 62
     7
370
    25
100
AcDbLine
 10
4067.4705215757
 20
7931.2441060775
 30
0.0
 11
4052.4705215757
 21
7931.2441060775
 31
0.0
  0
LINE
  5
1F4
330
1F
100
AcDbEntity
  8
0
  6
Continuous
 62
     7
370
    25
100
AcDbLine
 10
4052.4705215757
 20
7931.2441060775
 30
0.0
 11
4052.4705215757
 21
7939.2441060775
 31
0.0
  0
LINE
  5
1F5
330
1F
100
AcDbEntity
  8
0
  6
Continuous
 62
     7
370
    25
100
AcDbLine
 10
3991.4705215757
 20
7931.2441060775
 30
0.0
 11
3991.4705215757
 21
7939.2441060775
 31
0.0
  0
LINE
  5
1F6
330
1F
100
AcDbEntity
  8
0
  6
Continuous
 62
     7
370
    25
100
AcDbLine
 10
3991.4705215757
 20
7931.2441060775
 30
0.0
 11
4052.4705215757
 21
7931.2441060775
 31
0.0
  0
LINE
  5
1F7
330
1F
100
AcDbEntity
  8
0
  6
Continuous
 62
     7
370
    25
100
AcDbLine
 10
4052.4705215757
 20
8239.2441060775
 30
0.0
 11
4052.4705215757
 21
8247.2441060775
 31
0.0
  0
LINE
  5
1F8
330
1F
100
AcDbEntity
  8
0
  6
Continuous
 62
     7
370
    25
100
AcDbLine
 10
4067.4705215757
 20
8239.2441060775
 30
0.0
 11
4052.4705215757
 21
8239.2441060775
 31
0.0
  0
LINE
  5
1F9
330
1F
100
AcDbEntity
  8
0
  6
Continuous
 62
     7
370
    25
100
AcDbLine
 10
3991.4705215757
 20
8239.2441060775
 30
0.0
 11
3991.4705215757
 21
8247.2441060775
 31
0.0
  0
LINE
  5
1FA
330
1F
100
AcDbEntity
  8
0
  6
Continuous
 62
     7
370
    25
100
AcDbLine
 10
3991.4705215757
 20
8239.2441060775
 30
0.0
 11
4052.4705215757
 21
8239.2441060775
 31
0.0
  0
LINE
  5
1FB
330
1F
100
AcDbEntity
  8
0
  6
Continuous
 62
     7
370
    25
100
AcDbLine
 10
3992.5536576651
 20
8440.2441060775
 30
0.0
 11
4047.4705215757
 21
8440.2441060775
 31
0.0
  0
LINE
  5
1FC
330
1F
100
AcDbEntity
  8
0
  6
Continuous
 62
     7
370
    25
100
AcDbLine
 10
3927.4705215757
 20
8440.2441060775
 30
0.0
 11
3992.5536576651
 21
8440.2441060775
 31
0.0
  0
LINE
  5
1FD
330
1F
100
AcDbEntity
  8
0
  6
Continuous
 62
     7
370
    25
100
AcDbLine
 10
3992.130062991
 20
8435.2441060775
 30
0.0
 11
3932.4705215757
 21
8435.2441060775
 31
0.0
  0
LINE
  5
1FE
330
1F
100
AcDbEntity
  8
0
  6
Continuous
 62
     7
370
    25
100
AcDbLine
 10
4042.4705215757
 20
8435.2441060775
 30
0.0
 11
3992.130062991
 21
8435.2441060775
 31
0.0
  0
LINE
  5
1FF
330
1F
100
AcDbEntity
  8
0
  6
Continuous
 62
     7
370
    25
100
AcDbLine
 10
4047.4705215757
 20
7714.2441060775
 30
0.0
 11
3927.4705215757
 21
7714.2441060775
 31
0.0
  0
LINE
  5
200
330
1F
100
AcDbEntity
  8
0
  6
Continuous
 62
     7
370
    25
100
AcDbLine
 10
4047.4705215757
 20
7679.2441060775
 30
0.0
 11
3927.4705215757
 21
7679.2441060775
 31
0.0
  0
LINE
  5
201
330
1F
100
AcDbEntity
  8
0
  6
Continuous
 62
     7
370
    25
100
AcDbLine
 10
3932.4705215757
 20
7719.2441060775
 30
0.0
 11
4042.4705215757
 21
7719.2441060775
 31
0.0
  0
LINE
  5
202
330
1F
100
AcDbEntity
  8
0
  6
Continuous
 62
     7
370
    25
100
AcDbLine
 10
4032.8295054243
 20
8257.2441060775
 30
0.0
 11
4067.4705215757
 21
8257.2441060775
 31
0.0
  0
LINE
  5
203
330
1F
100
AcDbEntity
  8
0
  6
Continuous
 62
     7
370
    25
100
AcDbLine
 10
4032.8295054243
 20
8265.2441060775
 30
0.0
 11
4032.8295054243
 21
8257.2441060775
 31
0.0
  0
LINE
  5
204
330
1F
100
AcDbEntity
  8
0
  6
Continuous
 62
     7
370
    25
100
AcDbLine
 10
4338.0521437775
 20
8265.2441060775
 30
0.0
 11
4032.8295054243
 21
8265.2441060775
 31
0.0
  0
LINE
  5
205
330
1F
100
AcDbEntity
  8
0
  6
Continuous
 62
     7
370
    25
100
AcDbLine
 10
4341.8273694946
 20
8271.2441060775
 30
0.0
 11
4338.0521437775
 21
8265.2441060775
 31
0.0
  0
LINE
  5
206
330
1F
100
AcDbEntity
  8
0
  6
Continuous
 62
     7
370
    25
100
AcDbLine
 10
4350.4876235325
 20
8271.2441060775
 30
0.0
 11
4341.8273694946
 21
8271.2441060775
 31
0.0
  0
LINE
  5
207
330
1F
100
AcDbEntity
  8
0
  6
Continuous
 62
     7
370
    25
100
AcDbLine
 10
4350.4876235325
 20
8243.2441060775
 30
0.0
 11
4350.4876235325
 21
8271.2441060775
 31
0.0
  0
LINE
  5
208
330
1F
100
AcDbEntity
  8
0
  6
Continuous
 62
     7
370
    25
100
AcDbLine
 10
4353.4705215757
 20
8243.2441060775
 30
0.0
 11
4350.4876235325
 21
8243.2441060775
 31
0.0
  0
LINE
  5
209
330
1F
100
AcDbEntity
  8
0
  6
Continuous
 62
     7
370
    25
100
AcDbLine
 10
4350.4876235325
 20
7953.2441060775
 30
0.0
 11
4353.4705215757
 21
7953.2441060775
 31
0.0
  0
LINE
  5
20A
330
1F
100
AcDbEntity
  8
0
  6
Continuous
 62
     7
370
    25
100
AcDbLine
 10
4350.4876235325
 20
7925.2441060775
 30
0.0
 11
4350.4876235325
 21
7953.2441060775
 31
0.0
  0
LINE
  5
20B
330
1F
100
AcDbEntity
  8
0
  6
Continuous
 62
     7
370
    25
100
AcDbLine
 10
4341.8273694946
 20
7925.2441060775
 30
0.0
 11
4350.4876235325
 21
7925.2441060775
 31
0.0
  0
LINE
  5
20C
330
1F
100
AcDbEntity
  8
0
  6
Continuous
 62
     7
370
    25
100
AcDbLine
 10
4333.0185094881
 20
7939.2441060775
 30
0.0
 11
4341.8273694946
 21
7925.2441060775
 31
0.0
  0
LINE
  5
20D
330
1F
100
AcDbEntity
  8
0
  6
Continuous
 62
     7
370
    25
100
AcDbLine
 10
4067.4705215757
 20
7939.2441060775
 30
0.0
 11
4333.0185094881
 21
7939.2441060775
 31
0.0
  0
LINE
  5
20E
330
1F
100
AcDbEntity
  8
0
  6
Continuous
 62
     7
370
    25
100
AcDbLine
 10
4067.4705215757
 20
7949.2441060775
 30
0.0
 11
4067.4705215757
 21
7939.2441060775
 31
0.0
  0
LINE
  5
20F
330
1F
100
AcDbEntity
  8
0
  6
Continuous
 62
     7
370
    25
100
AcDbLine
 10
4032.8295054243
 20
7949.2441060775
 30
0.0
 11
4067.4705215757
 21
7949.2441060775
 31
0.0
  0
LINE
  5
210
330
1F
100
AcDbEntity
  8
0
  6
Continuous
 62
     7
370
    25
100
AcDbLine
 10
4032.8295054243
 20
7957.2441060775
 30
0.0
 11
4032.8295054243
 21
7949.2441060775
 31
0.0
  0
LINE
  5
211
330
1F
100
AcDbEntity
  8
0
  6
Continuous
 62
     7
370
    25
100
AcDbLine
 10
4067.4705215757
 20
7957.2441060775
 30
0.0
 11
4032.8295054243
 21
7957.2441060775
 31
0.0
  0
LINE
  5
212
330
1F
100
AcDbEntity
  8
0
  6
Continuous
 62
     7
370
    25
100
AcDbLine
 10
4067.4705215757
 20
8257.2441060775
 30
0.0
 11
4067.4705215757
 21
7957.2441060775
 31
0.0
  0
ARC
  5
213
330
1F
100
AcDbEntity
  8
0
  6
Continuous
 62
     7
370
    25
100
AcDbCircle
 10
4214.6948402191
 20
8092.2069485982
 30
0.0
 40
3.943340554901446
100
AcDbArc
 50
40.53808608
 51
139.46191392
  0
LINE
  5
214
330
1F
100
AcDbEntity
  8
0
  6
Continuous
 62
     7
370
    25
100
AcDbLine
 10
4211.6980035627
 20
8094.7699360713
 30
0.0
 11
4092.1954679888
 21
7962.4622203485
 31
0.0
  0
LWPOLYLINE
  5
215
330
1F
100
AcDbEntity
  8
0
  6
Continuous
 62
     7
370
    25
100
AcDbPolyline
 90
       13
 70
   128
 43
0.0
 10
4092.1954679888
 20
7962.4622203485
 10
4091.0824320105
 20
7960.9589619292
 10
4090.2473809827
 20
7959.232162085
 10
4089.7229786333
 20
7957.3493660538
 10
4089.5297374041
 20
7955.3842209963
 10
4089.6752160895
 20
7953.4135952251
 10
4090.1537241676
 20
7951.5145714356
 10
4090.9465443896
 20
7949.7614315511
 10
4092.0226649215
 20
7948.2227511224
 10
4093.3399923975
 20
7946.958716937
 10
4094.8469984383
 20
7946.0187727624
 10
4096.4847352266
 20
7945.4396853106
 10
4098.1891413015
 20
7945.2441060775
  0
LINE
  5
216
330
1F
100
AcDbEntity
  8
0
  6
Continuous
 62
     7
370
    25
100
AcDbLine
 10
4098.1891413015
 20
7945.2441060775
 30
0.0
 11
4331.2005391366
 21
7945.2441060775
 31
0.0
  0
LWPOLYLINE
  5
217
330
1F
100
AcDbEntity
  8
0
  6
Continuous
 62
     7
370
    25
100
AcDbPolyline
 90
       13
 70
   128
 43
0.0
 10
4331.2005391366
 20
7945.2441060775
 10
4332.9049452115
 20
7945.4396853106
 10
4334.5426819999
 20
7946.0187727624
 10
4336.0496880406
 20
7946.958716937
 10
4337.3670155166
 20
7948.2227511224
 10
4338.4431360485
 20
7949.7614315511
 10
4339.2359562706
 20
7951.5145714356
 10
4339.7144643486
 20
7953.4135952251
 10
4339.859943034
 20
7955.3842209963
 10
4339.6667018048
 20
7957.3493660538
 10
4339.1422994554
 20
7959.232162085
 10
4338.3072484276
 20
7960.9589619292
 10
4337.1942124493
 20
7962.4622203485
  0
LINE
  5
218
330
1F
100
AcDbEntity
  8
0
  6
Continuous
 62
     7
370
    25
100
AcDbLine
 10
4337.1942124493
 20
7962.4622203485
 30
0.0
 11
4217.6916768754
 21
8094.7699360713
 31
0.0
  0
LWPOLYLINE
  5
219
330
1F
100
AcDbEntity
  8
0
  6
Continuous
 62
     7
370
    25
100
AcDbPolyline
 90
       13
 70
   128
 43
0.0
 10
4098.1891413015
 20
8259.2441060775
 10
4096.4847352266
 20
8259.0485268445
 10
4094.8469984383
 20
8258.4694393927
 10
4093.3399923975
 20
8257.5294952181
 10
4092.0226649215
 20
8256.2654610327
 10
4090.9465443896
 20
8254.726780604
 10
4090.1537241676
 20
8252.9736407195
 10
4089.6752160895
 20
8251.07461693
 10
4089.5297374041
 20
8249.1039911588
 10
4089.7229786333
 20
8247.1388461013
 10
4090.2473809827
 20
8245.2560500701
 10
4091.0824320105
 20
8243.5292502259
 10
4092.1954679888
 20
8242.0259918066
  0
LINE
  5
21A
330
1F
100
AcDbEntity
  8
0
  6
Continuous
 62
     7
370
    25
100
AcDbLine
 10
4092.1954679888
 20
8242.0259918066
 30
0.0
 11
4211.6980035627
 21
8109.7182760838
 31
0.0
  0
ARC
  5
21B
330
1F
100
AcDbEntity
  8
0
  6
Continuous
 62
     7
370
    25
100
AcDbCircle
 10
4214.6948402191
 20
8112.2812635569
 30
0.0
 40
3.943340554897308
100
AcDbArc
 50
220.5380860799
 51
319.4619139201
  0
LINE
  5
21C
330
1F
100
AcDbEntity
  8
0
  6
Continuous
 62
     7
370
    25
100
AcDbLine
 10
4217.6916768754
 20
8109.7182760838
 30
0.0
 11
4337.1942124493
 21
8242.0259918066
 31
0.0
  0
LWPOLYLINE
  5
21D
330
1F
100
AcDbEntity
  8
0
  6
Continuous
 62
     7
370
    25
100
AcDbPolyline
 90
       13
 70
   128
 43
0.0
 10
4337.1942124493
 20
8242.0259918066
 10
4338.3072484276
 20
8243.5292502259
 10
4339.1422994554
 20
8245.2560500701
 10
4339.6667018048
 20
8247.1388461013
 10
4339.859943034
 20
8249.1039911588
 10
4339.7144643486
 20
8251.07461693
 10
4339.2359562706
 20
8252.9736407195
 10
4338.4431360485
 20
8254.726780604
 10
4337.3670155166
 20
8256.2654610327
 10
4336.0496880406
 20
8257.5294952181
 10
4334.5426819999
 20
8258.4694393927
 10
4332.9049452115
 20
8259.0485268445
 10
4331.2005391366
 20
8259.2441060775
  0
LINE
  5
21E
330
1F
100
AcDbEntity
  8
0
  6
Continuous
 62
     7
370
    25
100
AcDbLine
 10
4331.2005391366
 20
8259.2441060775
 30
0.0
 11
4098.1891413015
 21
8259.2441060775
 31
0.0
  0
LWPOLYLINE
  5
21F
330
1F
100
AcDbEntity
  8
0
  6
Continuous
 62
     7
370
    25
100
AcDbPolyline
 90
       13
 70
   128
 43
0.0
 10
4087.3206013489
 20
8239.1107997726
 10
4085.9986904908
 20
8240.3128704219
 10
4084.5004250412
 20
8241.1970870951
 10
4082.8823630966
 20
8241.7300714534
 10
4081.2055849572
 20
8241.8917038439
 10
4079.5333874036
 20
8241.6758827976
 10
4077.9288943039
 20
8241.0907553538
 10
4076.4526737472
 20
8240.1584095172
 10
4075.1604516562
 20
8238.9140404568
 10
4074.1010081864
 20
8237.4046219217
 10
4073.3143363217
 20
8235.6871330267
 10
4072.8301321769
 20
8233.8264073448
 10
4072.6666739984
 20
8231.8926855016
  0
LINE
  5
220
330
1F
100
AcDbEntity
  8
0
  6
Continuous
 62
     7
370
    25
100
AcDbLine
 10
4072.6666739984
 20
8231.8926855016
 30
0.0
 11
4072.6666739984
 21
7972.5955266535
 31
0.0
  0
LWPOLYLINE
  5
221
330
1F
100
AcDbEntity
  8
0
  6
Continuous
 62
     7
370
    25
100
AcDbPolyline
 90
       13
 70
   128
 43
0.0
 10
4072.6666739984
 20
7972.5955266535
 10
4072.8301321769
 20
7970.6618048103
 10
4073.3143363217
 20
7968.8010791284
 10
4074.1010081864
 20
7967.0835902334
 10
4075.1604516562
 20
7965.5741716983
 10
4076.4526737472
 20
7964.3298026379
 10
4077.9288943039
 20
7963.3974568013
 10
4079.5333874036
 20
7962.8123293575
 10
4081.2055849572
 20
7962.5965083112
 10
4082.8823630966
 20
7962.7581407017
 10
4084.5004250412
 20
7963.29112506
 10
4085.9986904908
 20
7964.1753417332
 10
4087.3206013489
 20
7965.3774123825
  0
LINE
  5
222
330
1F
100
AcDbEntity
  8
0
  6
Continuous
 62
     7
370
    25
100
AcDbLine
 10
4087.3206013489
 20
7965.3774123825
 30
0.0
 11
4207.6811212661
 21
8098.6350489421
 31
0.0
  0
ARC
  5
223
330
1F
100
AcDbEntity
  8
0
  6
Continuous
 62
     7
370
    25
100
AcDbCircle
 10
4203.5017068795
 20
8102.2441060775
 30
0.0
 40
5.522028433669628
100
AcDbArc
 50
319.1883485939
 51
40.8116514061
  0
LINE
  5
224
330
1F
100
AcDbEntity
  8
0
  6
Continuous
 62
     7
370
    25
100
AcDbLine
 10
4207.6811212661
 20
8105.853163213
 30
0.0
 11
4087.3206013489
 21
8239.1107997726
 31
0.0
  0
LWPOLYLINE
  5
225
330
1F
100
AcDbEntity
  8
0
  6
Continuous
 62
     7
370
    25
100
AcDbPolyline
 90
       13
 70
   128
 43
0.0
 10
4338.0919730857
 20
7969.7806813842
 10
4339.4138839438
 20
7968.5786107349
 10
4340.9121493933
 20
7967.6943940617
 10
4342.5302113379
 20
7967.1614097034
 10
4344.2069894774
 20
7966.9997773129
 10
4345.879187031
 20
7967.2155983592
 10
4347.4836801307
 20
7967.800725803
 10
4348.9599006874
 20
7968.7330716396
 10
4350.2521227783
 20
7969.9774407
 10
4351.3115662481
 20
7971.4868592351
 10
4352.0982381129
 20
7973.2043481301
 10
4352.5824422576
 20
7975.065073812
 10
4352.7459004362
 20
7976.9987956551
  0
LINE
  5
226
330
1F
100
AcDbEntity
  8
0
  6
Continuous
 62
     7
370
    25
100
AcDbLine
 10
4352.7459004362
 20
7976.9987956551
 30
0.0
 11
4352.7459004362
 21
8227.4894164999
 31
0.0
  0
LWPOLYLINE
  5
227
330
1F
100
AcDbEntity
  8
0
  6
Continuous
 62
     7
370
    25
100
AcDbPolyline
 90
       13
 70
   128
 43
0.0
 10
4352.7459004362
 20
8227.4894164999
 10
4352.5824422576
 20
8229.4231383431
 10
4352.0982381129
 20
8231.283864025
 10
4351.3115662481
 20
8233.00135292
 10
4350.2521227783
 20
8234.5107714551
 10
4348.9599006874
 20
8235.7551405155
 10
4347.4836801307
 20
8236.6874863521
 10
4345.879187031
 20
8237.2726137959
 10
4344.2069894774
 20
8237.4884348422
 10
4342.5302113379
 20
8237.3268024517
 10
4340.9121493933
 20
8236.7938180934
 10
4339.4138839438
 20
8235.9096014202
 10
4338.0919730857
 20
8234.7075307709
  0
LINE
  5
228
330
1F
100
AcDbEntity
  8
0
  6
Continuous
 62
     7
370
    25
100
AcDbLine
 10
4338.0919730857
 20
8234.7075307709
 30
0.0
 11
4221.708559172
 21
8105.853163213
 31
0.0
  0
ARC
  5
229
330
1F
100
AcDbEntity
  8
0
  6
Continuous
 62
     7
370
    25
100
AcDbCircle
 10
4225.8879735586
 20
8102.2441060775
 30
0.0
 40
5.522028433672381
100
AcDbArc
 50
139.1883485939
 51
220.8116514061
  0
LINE
  5
22A
330
1F
100
AcDbEntity
  8
0
  6
Continuous
 62
     7
370
    25
100
AcDbLine
 10
4221.708559172
 20
8098.6350489421
 30
0.0
 11
4338.0919730857
 21
7969.7806813842
 31
0.0
  0
LINE
  5
22B
330
1F
100
AcDbEntity
  8
0
  6
Continuous
 62
     7
370
    25
100
AcDbLine
 10
4341.0919730857
 20
7969.7806813842
 30
0.0
 11
4338.0919730857
 21
7969.7806813842
 31
0.0
  0
ARC
  5
22C
330
1F
100
AcDbEntity
  8
0
  6
Continuous
 62
     7
370
    25
100
AcDbCircle
 10
4347.2820739736
 20
7975.2009495757
 30
0.0
 40
8.227797777664001
100
AcDbArc
 50
221.2065206925
 51
258.1012722432
  0
LINE
  5
22D
330
1F
100
AcDbEntity
  8
0
  6
Continuous
 62
     7
370
    25
100
AcDbLine
 10
4341.0919730857
 20
8234.7075307709
 30
0.0
 11
4338.0919730857
 21
8234.7075307709
 31
0.0
  0
ARC
  5
22E
330
1F
100
AcDbEntity
  8
0
  6
Continuous
 62
     7
370
    25
100
AcDbCircle
 10
4347.2820739736
 20
8229.2872625793
 30
0.0
 40
8.227797777722632
100
AcDbArc
 50
101.8987277374
 51
138.7934793071
  0
LINE
  5
22F
330
1F
100
AcDbEntity
  8
0
  6
Continuous
 62
     7
370
    25
100
AcDbLine
 10
4350.4876235325
 20
8271.2441060775
 30
0.0
 11
4353.4876235325
 21
8271.2441060775
 31
0.0
  0
LINE
  5
230
330
1F
100
AcDbEntity
  8
0
  6
Continuous
 62
     7
370
    25
100
AcDbLine
 10
4353.4876235325
 20
8266.891873975
 30
0.0
 11
4353.4876235325
 21
8271.2441060775
 31
0.0
  0
LINE
  5
231
330
1F
100
AcDbEntity
  8
0
  6
Continuous
 62
     7
370
    25
100
AcDbLine
 10
4350.4876235325
 20
7925.2441060775
 30
0.0
 11
4353.4876235325
 21
7925.2441060775
 31
0.0
  0
LINE
  5
232
330
1F
100
AcDbEntity
  8
0
  6
Continuous
 62
     7
370
    25
100
AcDbLine
 10
4353.4876235325
 20
7925.2441060775
 30
0.0
 11
4353.4876235325
 21
7929.5963381823
 31
0.0
  0
LINE
  5
233
330
1F
100
AcDbEntity
  8
0
  6
Continuous
 62
     7
370
    25
100
AcDbLine
 10
4224.708559172
 20
8098.6350489421
 30
0.0
 11
4221.708559172
 21
8098.6350489421
 31
0.0
  0
LINE
  5
234
330
1F
100
AcDbEntity
  8
0
  6
Continuous
 62
     7
370
    25
100
AcDbLine
 10
4224.708559172
 20
8098.6350489421
 30
0.0
 11
4341.0919730857
 21
7969.7806813842
 31
0.0
  0
LINE
  5
235
330
1F
100
AcDbEntity
  8
0
  6
Continuous
 62
     7
370
    25
100
AcDbLine
 10
4224.708559172
 20
8105.853163213
 30
0.0
 11
4221.708559172
 21
8105.853163213
 31
0.0
  0
LINE
  5
236
330
1F
100
AcDbEntity
  8
0
  6
Continuous
 62
     7
370
    25
100
AcDbLine
 10
4341.0919730857
 20
8234.7075307709
 30
0.0
 11
4224.708559172
 21
8105.853163213
 31
0.0
  0
ARC
  5
237
330
1F
100
AcDbEntity
  8
0
  6
Continuous
 62
     7
370
    25
100
AcDbCircle
 10
4228.8879735586
 20
8102.2441060775
 30
0.0
 40
5.522028433672381
100
AcDbArc
 50
139.1883485939
 51
220.8116514061
  0
LINE
  5
238
330
1F
100
AcDbEntity
  8
0
  6
Continuous
 62
     7
370
    25
100
AcDbLine
 10
4214.6980035627
 20
8109.7182760838
 30
0.0
 11
4211.6980035627
 21
8109.7182760838
 31
0.0
  0
ARC
  5
239
330
1F
100
AcDbEntity
  8
0
  6
Continuous
 62
     7
370
    25
100
AcDbCircle
 10
4217.8756403294
 20
8112.5401659721
 30
0.0
 40
4.249757400371415
100
AcDbArc
 50
221.6065728939
 51
246.7025294141
  0
LINE
  5
23A
330
1F
100
AcDbEntity
  8
0
  6
Continuous
 62
     7
370
    25
100
AcDbLine
 10
4214.6980035627
 20
8094.7699360713
 30
0.0
 11
4211.6980035627
 21
8094.7699360713
 31
0.0
  0
ARC
  5
23B
330
1F
100
AcDbEntity
  8
0
  6
Continuous
 62
     7
370
    25
100
AcDbCircle
 10
4217.8756403293
 20
8091.9480461831
 30
0.0
 40
4.249757400317031
100
AcDbArc
 50
113.2974705583
 51
138.3934271061
  0
LINE
  5
23C
330
1F
100
AcDbEntity
  8
0
  6
Continuous
 62
     7
370
    25
100
AcDbLine
 10
4095.1954679888
 20
8242.0259918066
 30
0.0
 11
4092.1954679888
 21
8242.0259918066
 31
0.0
  0
LINE
  5
23D
330
1F
100
AcDbEntity
  8
0
  6
Continuous
 62
     7
370
    25
100
AcDbLine
 10
4095.1954679888
 20
8242.0259918066
 30
0.0
 11
4214.6980035627
 21
8109.7182760838
 31
0.0
  0
LINE
  5
23E
330
1F
100
AcDbEntity
  8
0
  6
Continuous
 62
     7
370
    25
100
AcDbLine
 10
4095.1954679888
 20
7962.4622203485
 30
0.0
 11
4092.1954679888
 21
7962.4622203485
 31
0.0
  0
LINE
  5
23F
330
1F
100
AcDbEntity
  8
0
  6
Continuous
 62
     7
370
    25
100
AcDbLine
 10
4214.6980035627
 20
8094.7699360713
 30
0.0
 11
4095.1954679888
 21
7962.4622203485
 31
0.0
  0
LWPOLYLINE
  5
240
330
1F
100
AcDbEntity
  8
0
  6
Continuous
 62
     7
370
    25
100
AcDbPolyline
 90
       13
 70
   128
 43
0.0
 10
4101.1891413015
 20
8259.2441060775
 10
4099.4847352266
 20
8259.0485268445
 10
4097.8469984383
 20
8258.4694393927
 10
4096.3399923975
 20
8257.5294952181
 10
4095.0226649215
 20
8256.2654610327
 10
4093.9465443896
 20
8254.726780604
 10
4093.1537241676
 20
8252.9736407195
 10
4092.6752160895
 20
8251.07461693
 10
4092.5297374041
 20
8249.1039911588
 10
4092.7229786333
 20
8247.1388461013
 10
4093.2473809827
 20
8245.2560500701
 10
4094.0824320105
 20
8243.5292502259
 10
4095.1954679888
 20
8242.0259918066
  0
LWPOLYLINE
  5
241
330
1F
100
AcDbEntity
  8
0
  6
Continuous
 62
     7
370
    25
100
AcDbPolyline
 90
       13
 70
   128
 43
0.0
 10
4095.1954679888
 20
7962.4622203485
 10
4094.0824320105
 20
7960.9589619292
 10
4093.2473809827
 20
7959.232162085
 10
4092.7229786333
 20
7957.3493660538
 10
4092.5297374041
 20
7955.3842209963
 10
4092.6752160895
 20
7953.4135952251
 10
4093.1537241676
 20
7951.5145714356
 10
4093.9465443896
 20
7949.7614315511
 10
4095.0226649215
 20
7948.2227511224
 10
4096.3399923975
 20
7946.958716937
 10
4097.8469984383
 20
7946.0187727624
 10
4099.4847352266
 20
7945.4396853106
 10
4101.1891413015
 20
7945.2441060775
  0
LINE
  5
242
330
1F
100
AcDbEntity
  8
0
  6
Continuous
 62
     7
370
    25
100
AcDbLine
 10
4075.6666739984
 20
8231.8926855016
 30
0.0
 11
4072.6666739984
 21
8231.8926855016
 31
0.0
  0
ARC
  5
243
330
1F
100
AcDbEntity
  8
0
  6
Continuous
 62
     7
370
    25
100
AcDbCircle
 10
4085.2722545074
 20
8232.4365274807
 30
0.0
 40
9.620963621851192
100
AcDbArc
 50
104.7242008826
 51
183.2404725038
  0
LINE
  5
244
330
1F
100
AcDbEntity
  8
0
  6
Continuous
 62
     7
370
    25
100
AcDbLine
 10
4075.6666739984
 20
7972.5955266535
 30
0.0
 11
4072.6666739984
 21
7972.5955266535
 31
0.0
  0
ARC
  5
245
330
1F
100
AcDbEntity
  8
0
  6
Continuous
 62
     7
370
    25
100
AcDbCircle
 10
4085.2722545072
 20
7972.0516846744
 30
0.0
 40
9.62096362161136
100
AcDbArc
 50
176.7595274956
 51
255.2757991285
  0
LINE
  5
246
330
1F
100
AcDbEntity
  8
0
  6
Continuous
 62
     7
370
    25
100
AcDbLine
 10
4075.6666739984
 20
8231.8926855016
 30
0.0
 11
4075.6666739984
 21
7972.5955266535
 31
0.0
  0
ARC
  5
247
330
1F
100
AcDbEntity
  8
0
  6
Continuous
 62
     7
370
    25
100
AcDbCircle
 10
3967.8093663286
 20
7982.1315373223
 30
0.0
 40
36.6825327752541
100
AcDbArc
 50
285.2702444115
 51
296.2928132922
  0
LINE
  5
248
330
1F
100
AcDbEntity
  8
0
  6
Continuous
 62
     7
370
    25
100
AcDbLine
 10
3984.0582148088
 20
7949.2441060775
 30
0.0
 11
4067.4705215757
 21
7949.2441060775
 31
0.0
  0
LWPOLYLINE
  5
249
330
1F
100
AcDbEntity
  8
0
  6
Continuous
 62
     7
370
    25
100
AcDbPolyline
 90
        3
 70
   128
 43
0.0
 10
3977.4705215757
 20
7941.7441060775
 10
3980.7976235706
 20
7940.6598221968
 10
3984.0582148088
 20
7939.2441060775
  0
LINE
  5
24A
330
1F
100
AcDbEntity
  8
0
  6
Continuous
 62
     7
370
    25
100
AcDbLine
 10
3977.4705215757
 20
7946.7441060775
 30
0.0
 11
3977.4705215757
 21
7941.7441060775
 31
0.0
  0
LINE
  5
24B
330
1F
100
AcDbEntity
  8
0
  6
Continuous
 62
     7
370
    25
100
AcDbLine
 10
3984.0582148088
 20
7939.2441060775
 30
0.0
 11
4067.4705215757
 21
7939.2441060775
 31
0.0
  0
ARC
  5
24C
330
1F
100
AcDbEntity
  8
0
  6
Continuous
 62
     7
370
    25
100
AcDbCircle
 10
3967.8093663288
 20
8290.1315373219
 30
0.0
 40
36.68253277489767
100
AcDbArc
 50
285.2702444115
 51
296.2928132923
  0
LINE
  5
24D
330
1F
100
AcDbEntity
  8
0
  6
Continuous
 62
     7
370
    25
100
AcDbLine
 10
3984.0582148088
 20
8257.2441060775
 30
0.0
 11
4067.4705215757
 21
8257.2441060775
 31
0.0
  0
LINE
  5
24E
330
1F
100
AcDbEntity
  8
0
  6
Continuous
 62
     7
370
    25
100
AcDbLine
 10
4067.4705215757
 20
8257.2441060775
 30
0.0
 11
4067.4705215757
 21
8247.2441060775
 31
0.0
  0
LINE
  5
24F
330
1F
100
AcDbEntity
  8
0
  6
Continuous
 62
     7
370
    25
100
AcDbLine
 10
3984.0582148088
 20
8247.2441060775
 30
0.0
 11
4067.4705215757
 21
8247.2441060775
 31
0.0
  0
LWPOLYLINE
  5
250
330
1F
100
AcDbEntity
  8
0
  6
Continuous
 62
     7
370
    25
100
AcDbPolyline
 90
        3
 70
   128
 43
0.0
 10
3977.4705215757
 20
8249.7441060775
 10
3980.7976235706
 20
8248.6598221968
 10
3984.0582148088
 20
8247.2441060775
  0
LINE
  5
251
330
1F
100
AcDbEntity
  8
0
  6
Continuous
 62
     7
370
    25
100
AcDbLine
 10
3977.4705215757
 20
8254.7441060775
 30
0.0
 11
3977.4705215757
 21
8249.7441060775
 31
0.0
  0
LINE
  5
252
330
1F
100
AcDbEntity
  8
0
  6
Continuous
 62
     7
370
    25
100
AcDbLine
 10
4003.3114928892
 20
9131.2394611764
 30
0.0
 11
3995.3670883694
 21
9131.2394611764
 31
0.0
  0
LINE
  5
253
330
1F
100
AcDbEntity
  8
0
  6
Continuous
 62
     7
370
    25
100
AcDbLine
 10
3990.0766885647
 20
9131.2394611764
 30
0.0
 11
3963.17344876
 21
9131.2394611764
 31
0.0
  0
LINE
  5
254
330
1F
100
AcDbEntity
  8
0
  6
Continuous
 62
     7
370
    25
100
AcDbLine
 10
3995.3670883694
 20
9131.2394611764
 30
0.0
 11
3990.0766885647
 21
9131.2394611764
 31
0.0
  0
LINE
  5
255
330
1F
100
AcDbEntity
  8
0
  6
Continuous
 62
     7
370
    25
100
AcDbLine
 10
4003.3114928892
 20
9131.2394611764
 30
0.0
 11
4005.5632105574
 21
9131.2394611764
 31
0.0
  0
LINE
  5
256
330
1F
100
AcDbEntity
  8
0
  6
Continuous
 62
     7
370
    25
100
AcDbLine
 10
3956.5136782465
 20
9131.2394611764
 30
0.0
 11
3949.4300161404
 21
9131.2394611764
 31
0.0
  0
LINE
  5
257
330
1F
100
AcDbEntity
  8
0
  6
Continuous
 62
     7
370
    25
100
AcDbLine
 10
4025.2577489827
 20
9131.2394611764
 30
0.0
 11
4005.5632105574
 21
9131.2394611764
 31
0.0
  0
LINE
  5
258
330
1F
100
AcDbEntity
  8
0
  6
Continuous
 62
     7
370
    25
100
AcDbLine
 10
3956.5136782465
 20
9131.2394611764
 30
0.0
 11
3963.17344876
 21
9131.2394611764
 31
0.0
  0
LINE
  5
259
330
1F
100
AcDbEntity
  8
0
  6
Continuous
 62
     7
370
    25
100
AcDbLine
 10
3949.4300161404
 20
9131.2394611764
 30
0.0
 11
3944.5175882468
 21
9131.2394611764
 31
0.0
  0
LINE
  5
25A
330
1F
100
AcDbEntity
  8
0
  6
Continuous
 62
     7
370
    25
100
AcDbLine
 10
4031.502410074
 20
9131.2394611764
 30
0.0
 11
4025.2577489827
 21
9131.2394611764
 31
0.0
  0
LINE
  5
25B
330
1F
100
AcDbEntity
  8
0
  6
Continuous
 62
     7
370
    25
100
AcDbLine
 10
4036.8990649956
 20
9131.2394611764
 30
0.0
 11
4031.502410074
 21
9131.2394611764
 31
0.0
  0
LINE
  5
25C
330
1F
100
AcDbEntity
  8
0
  6
Continuous
 62
     7
370
    25
100
AcDbLine
 10
3940.4715266765
 20
9131.2394611764
 30
0.0
 11
3944.5175882468
 21
9131.2394611764
 31
0.0
  0
LINE
  5
25D
330
1F
100
AcDbEntity
  8
0
  6
Continuous
 62
     7
370
    25
100
AcDbLine
 10
3940.4715266765
 20
9131.2394611764
 30
0.0
 11
3937.136111498
 21
9131.2394611764
 31
0.0
  0
LINE
  5
25E
330
1F
100
AcDbEntity
  8
0
  6
Continuous
 62
     7
370
    25
100
AcDbLine
 10
3985.340243585
 20
9129.9394611764
 30
0.0
 11
3985.340243585
 21
9062.3897491296
 31
0.0
  0
LINE
  5
25F
330
1F
100
AcDbEntity
  8
0
  6
Continuous
 62
     7
370
    25
100
AcDbLine
 10
4014.3180183737
 20
9060.1790375185
 30
0.0
 11
4014.3180183737
 21
9129.9394611764
 31
0.0
  0
LWPOLYLINE
  5
260
330
1F
100
AcDbEntity
  8
0
  6
Continuous
 62
     7
370
    25
100
AcDbPolyline
 90
       19
 70
   128
 43
0.0
 10
3999.8291309793
 20
9090.2394611764
 10
4000.820229248
 20
9090.4203833141
 10
4001.6917864384
 20
9090.9413278471
 10
4002.3386798906
 20
9091.7394611764
 10
4002.682884707
 20
9092.7185166434
 10
4002.682884707
 20
9093.7604057094
 10
4002.3386798906
 20
9094.7394611764
 10
4001.6917864384
 20
9095.5375945058
 10
4000.820229248
 20
9096.0585390388
 10
3999.8291309793
 20
9096.2394611764
 10
3998.8380327107
 20
9096.0585390388
 10
3997.9664755203
 20
9095.5375945058
 10
3997.3195820681
 20
9094.7394611764
 10
3996.9753772517
 20
9093.7604057094
 10
3996.9753772517
 20
9092.7185166434
 10
3997.3195820681
 20
9091.7394611764
 10
3997.9664755203
 20
9090.9413278471
 10
3998.8380327107
 20
9090.4203833141
 10
3999.8291309793
 20
9090.2394611764
  0
LINE
  5
261
330
1F
100
AcDbEntity
  8
0
  6
Continuous
 62
     7
370
    25
100
AcDbLine
 10
4014.8356564639
 20
9060.0808866447
 30
0.0
 11
4014.8356564639
 21
9129.9394611764
 31
0.0
  0
ARC
  5
262
330
1F
100
AcDbEntity
  8
0
  6
Continuous
 62
     7
370
    25
100
AcDbCircle
 10
4000.4347861815
 20
9093.2394611764
 30
0.0
 40
3.00807222811272
100
AcDbArc
 50
96.6210301488
 51
263.3789698455
  0
LINE
  5
263
330
1F
100
AcDbEntity
  8
0
  6
Continuous
 62
     7
370
    25
100
AcDbLine
 10
4015.6359388342
 20
9059.8363860863
 30
0.0
 11
4014.8356564639
 21
9066.2903561961
 31
0.0
  0
LINE
  5
264
330
1F
100
AcDbEntity
  8
0
  6
Continuous
 62
     7
370
    25
100
AcDbLine
 10
4016.5157573311
 20
9056.9155401379
 30
0.0
 11
4016.2205215757
 21
9059.2965031718
 31
0.0
  0
LINE
  5
265
330
1F
100
AcDbEntity
  8
0
  6
Continuous
 62
     7
370
    25
100
AcDbLine
 10
4016.2120421151
 20
9059.3648867663
 30
0.0
 11
4014.8356564639
 21
9070.4649086863
 31
0.0
  0
ARC
  5
266
330
1F
100
AcDbEntity
  8
0
  6
Continuous
 62
     7
370
    25
100
AcDbCircle
 10
4000.9617154562
 20
9093.2394611764
 30
0.0
 40
3.015123871065921
100
AcDbArc
 50
101.7682669167
 51
258.2317330764
  0
LINE
  5
267
330
1F
100
AcDbEntity
  8
0
  6
Continuous
 62
     7
370
    25
100
AcDbLine
 10
3975.3075071754
 20
9129.9394611764
 30
0.0
 11
3975.3075071754
 21
9126.9394611764
 31
0.0
  0
LINE
  5
268
330
1F
100
AcDbEntity
  8
0
  6
Continuous
 62
     7
370
    25
100
AcDbLine
 10
3985.2884494513
 20
9129.9394611764
 30
0.0
 11
3985.2884494513
 21
9126.9394611764
 31
0.0
  0
LINE
  5
269
330
1F
100
AcDbEntity
  8
0
  6
Continuous
 62
     7
370
    25
100
AcDbLine
 10
3985.2884494513
 20
9126.9394611764
 30
0.0
 11
3975.3075071754
 21
9126.9394611764
 31
0.0
  0
LINE
  5
26A
330
1F
100
AcDbEntity
  8
0
  6
Continuous
 62
     7
370
    25
100
AcDbLine
 10
3975.3075071754
 20
9119.9394611764
 30
0.0
 11
3975.3075071754
 21
9116.9394611764
 31
0.0
  0
LINE
  5
26B
330
1F
100
AcDbEntity
  8
0
  6
Continuous
 62
     7
370
    25
100
AcDbLine
 10
3985.2884494513
 20
9119.9394611764
 30
0.0
 11
3985.2884494513
 21
9116.9394611764
 31
0.0
  0
LINE
  5
26C
330
1F
100
AcDbEntity
  8
0
  6
Continuous
 62
     7
370
    25
100
AcDbLine
 10
3985.2884494513
 20
9116.9394611764
 30
0.0
 11
3975.3075071754
 21
9116.9394611764
 31
0.0
  0
LINE
  5
26D
330
1F
100
AcDbEntity
  8
0
  6
Continuous
 62
     7
370
    25
100
AcDbLine
 10
3985.2884494513
 20
9119.9394611764
 30
0.0
 11
3975.3075071754
 21
9119.9394611764
 31
0.0
  0
LINE
  5
26E
330
1F
100
AcDbEntity
  8
0
  6
Continuous
 62
     7
370
    25
100
AcDbLine
 10
3970.280751137
 20
9123.4394611764
 30
0.0
 11
3962.7446266787
 21
9123.4394611764
 31
0.0
  0
LINE
  5
26F
330
1F
100
AcDbEntity
  8
0
  6
Continuous
 62
     7
370
    25
100
AcDbLine
 10
3984.2446266787
 20
9123.4394611764
 30
0.0
 11
3970.280751137
 21
9123.4394611764
 31
0.0
  0
LINE
  5
270
330
1F
100
AcDbEntity
  8
0
  6
Continuous
 62
     7
370
    25
100
AcDbLine
 10
3971.4766118037
 20
9109.9394611764
 30
0.0
 11
3966.7446266787
 21
9109.9394611764
 31
0.0
  0
LINE
  5
271
330
1F
100
AcDbEntity
  8
0
  6
Continuous
 62
     7
370
    25
100
AcDbLine
 10
3980.2446266787
 20
9109.9394611764
 30
0.0
 11
3971.4766118037
 21
9109.9394611764
 31
0.0
  0
LINE
  5
272
330
1F
100
AcDbEntity
  8
0
  6
Continuous
 62
     7
370
    25
100
AcDbLine
 10
3963.5136844028
 20
9129.9394611764
 30
0.0
 11
3963.5136844028
 21
9126.9394611764
 31
0.0
  0
LINE
  5
273
330
1F
100
AcDbEntity
  8
0
  6
Continuous
 62
     7
370
    25
100
AcDbLine
 10
3975.3075071754
 20
9126.9394611764
 30
0.0
 11
3963.5136844028
 21
9126.9394611764
 31
0.0
  0
LINE
  5
274
330
1F
100
AcDbEntity
  8
0
  6
Continuous
 62
     7
370
    25
100
AcDbLine
 10
3963.5136844028
 20
9119.9394611764
 30
0.0
 11
3963.5136844028
 21
9116.9394611764
 31
0.0
  0
LINE
  5
275
330
1F
100
AcDbEntity
  8
0
  6
Continuous
 62
     7
370
    25
100
AcDbLine
 10
3975.3075071754
 20
9116.9394611764
 30
0.0
 11
3963.5136844028
 21
9116.9394611764
 31
0.0
  0
LINE
  5
276
330
1F
100
AcDbEntity
  8
0
  6
Continuous
 62
     7
370
    25
100
AcDbLine
 10
3975.3075071754
 20
9119.9394611764
 30
0.0
 11
3963.5136844028
 21
9119.9394611764
 31
0.0
  0
LINE
  5
277
330
1F
100
AcDbEntity
  8
0
  6
Continuous
 62
     7
370
    25
100
AcDbLine
 10
3961.7008039062
 20
9129.9394611764
 30
0.0
 11
3961.7008039062
 21
9126.9394611764
 31
0.0
  0
LINE
  5
278
330
1F
100
AcDbEntity
  8
0
  6
Continuous
 62
     7
370
    25
100
AcDbLine
 10
3963.5136844028
 20
9126.9394611764
 30
0.0
 11
3961.7008039062
 21
9126.9394611764
 31
0.0
  0
LINE
  5
279
330
1F
100
AcDbEntity
  8
0
  6
Continuous
 62
     7
370
    25
100
AcDbLine
 10
3961.7008039062
 20
9119.9394611764
 30
0.0
 11
3961.7008039062
 21
9116.9394611764
 31
0.0
  0
LINE
  5
27A
330
1F
100
AcDbEntity
  8
0
  6
Continuous
 62
     7
370
    25
100
AcDbLine
 10
3963.5136844028
 20
9116.9394611764
 30
0.0
 11
3961.7008039062
 21
9116.9394611764
 31
0.0
  0
LINE
  5
27B
330
1F
100
AcDbEntity
  8
0
  6
Continuous
 62
     7
370
    25
100
AcDbLine
 10
3963.5136844028
 20
9119.9394611764
 30
0.0
 11
3961.7008039062
 21
9119.9394611764
 31
0.0
  0
LINE
  5
27C
330
1F
100
AcDbEntity
  8
0
  6
Continuous
 62
     7
370
    25
100
AcDbLine
 10
3961.1287168743
 20
9062.6876705195
 30
0.0
 11
3961.7212151002
 21
9059.9824866492
 31
0.0
  0
LINE
  5
27D
330
1F
100
AcDbEntity
  8
0
  6
Continuous
 62
     7
370
    25
100
AcDbLine
 10
3961.7205215757
 20
9062.7880722732
 30
0.0
 11
3961.1287168743
 21
9062.6876705195
 31
0.0
  0
ARC
  5
27E
330
1F
100
AcDbEntity
  8
0
  6
Continuous
 62
     7
370
    25
100
AcDbCircle
 10
3962.7994352076
 20
9061.2949900154
 30
0.0
 40
1.082437834775483
100
AcDbArc
 50
184.6247099624
 51
233.1859112708
  0
LINE
  5
27F
330
1F
100
AcDbEntity
  8
0
  6
Continuous
 62
     7
370
    25
100
AcDbLine
 10
3969.6549682526
 20
9069.4278571069
 30
0.0
 11
3969.4310776232
 21
9069.3974396883
 31
0.0
  0
LINE
  5
280
330
1F
100
AcDbEntity
  8
0
  6
Continuous
 62
     7
370
    25
100
AcDbLine
 10
3961.1287168743
 20
9059.7898930406
 30
0.0
 11
3961.1287168743
 21
9062.6876705195
 31
0.0
  0
LINE
  5
281
330
1F
100
AcDbEntity
  8
0
  6
Continuous
 62
     7
370
    25
100
AcDbLine
 10
3961.1287168743
 20
9059.7898930406
 30
0.0
 11
3961.1359374759
 21
9059.7569257606
 31
0.0
  0
LINE
  5
282
330
1F
100
AcDbEntity
  8
0
  6
Continuous
 62
     7
370
    25
100
AcDbLine
 10
4001.8210867782
 20
9129.9394611764
 30
0.0
 11
4001.8210867782
 21
9126.9394611764
 31
0.0
  0
LINE
  5
283
330
1F
100
AcDbEntity
  8
0
  6
Continuous
 62
     7
370
    25
100
AcDbLine
 10
4012.1247741085
 20
9129.9394611764
 30
0.0
 11
4012.1247741085
 21
9126.9394611764
 31
0.0
  0
LINE
  5
284
330
1F
100
AcDbEntity
  8
0
  6
Continuous
 62
     7
370
    25
100
AcDbLine
 10
4012.1247741085
 20
9126.9394611764
 30
0.0
 11
4001.8210867782
 21
9126.9394611764
 31
0.0
  0
LINE
  5
285
330
1F
100
AcDbEntity
  8
0
  6
Continuous
 62
     7
370
    25
100
AcDbLine
 10
4001.8210867782
 20
9119.9394611764
 30
0.0
 11
4001.8210867782
 21
9116.9394611764
 31
0.0
  0
LINE
  5
286
330
1F
100
AcDbEntity
  8
0
  6
Continuous
 62
     7
370
    25
100
AcDbLine
 10
4012.1247741085
 20
9119.9394611764
 30
0.0
 11
4012.1247741085
 21
9116.9394611764
 31
0.0
  0
LINE
  5
287
330
1F
100
AcDbEntity
  8
0
  6
Continuous
 62
     7
370
    25
100
AcDbLine
 10
4012.1247741085
 20
9116.9394611764
 30
0.0
 11
4001.8210867782
 21
9116.9394611764
 31
0.0
  0
LINE
  5
288
330
1F
100
AcDbEntity
  8
0
  6
Continuous
 62
     7
370
    25
100
AcDbLine
 10
4012.1247741085
 20
9119.9394611764
 30
0.0
 11
4001.8210867782
 21
9119.9394611764
 31
0.0
  0
LINE
  5
289
330
1F
100
AcDbEntity
  8
0
  6
Continuous
 62
     7
370
    25
100
AcDbLine
 10
3996.8964718972
 20
9123.4394611764
 30
0.0
 11
3989.7905498148
 21
9123.4394611764
 31
0.0
  0
LINE
  5
28A
330
1F
100
AcDbEntity
  8
0
  6
Continuous
 62
     7
370
    25
100
AcDbLine
 10
4011.2905498148
 20
9123.4394611764
 30
0.0
 11
3996.8964718972
 21
9123.4394611764
 31
0.0
  0
LINE
  5
28B
330
1F
100
AcDbEntity
  8
0
  6
Continuous
 62
     7
370
    25
100
AcDbLine
 10
3998.2524078665
 20
9109.9394611764
 30
0.0
 11
3993.7905498148
 21
9109.9394611764
 31
0.0
  0
LINE
  5
28C
330
1F
100
AcDbEntity
  8
0
  6
Continuous
 62
     7
370
    25
100
AcDbLine
 10
4007.2905498148
 20
9109.9394611764
 30
0.0
 11
3998.2524078665
 21
9109.9394611764
 31
0.0
  0
LINE
  5
28D
330
1F
100
AcDbEntity
  8
0
  6
Continuous
 62
     7
370
    25
100
AcDbLine
 10
3990.2368624846
 20
9129.9394611764
 30
0.0
 11
3990.2368624846
 21
9126.9394611764
 31
0.0
  0
LINE
  5
28E
330
1F
100
AcDbEntity
  8
0
  6
Continuous
 62
     7
370
    25
100
AcDbLine
 10
4001.8210867782
 20
9126.9394611764
 30
0.0
 11
3990.2368624846
 21
9126.9394611764
 31
0.0
  0
LINE
  5
28F
330
1F
100
AcDbEntity
  8
0
  6
Continuous
 62
     7
370
    25
100
AcDbLine
 10
3990.2368624846
 20
9119.9394611764
 30
0.0
 11
3990.2368624846
 21
9116.9394611764
 31
0.0
  0
LINE
  5
290
330
1F
100
AcDbEntity
  8
0
  6
Continuous
 62
     7
370
    25
100
AcDbLine
 10
4001.8210867782
 20
9116.9394611764
 30
0.0
 11
3990.2368624846
 21
9116.9394611764
 31
0.0
  0
LINE
  5
291
330
1F
100
AcDbEntity
  8
0
  6
Continuous
 62
     7
370
    25
100
AcDbLine
 10
4001.8210867782
 20
9119.9394611764
 30
0.0
 11
3990.2368624846
 21
9119.9394611764
 31
0.0
  0
LINE
  5
292
330
1F
100
AcDbEntity
  8
0
  6
Continuous
 62
     7
370
    25
100
AcDbLine
 10
3988.9563255212
 20
9129.9394611764
 30
0.0
 11
3988.9563255212
 21
9126.9394611764
 31
0.0
  0
LINE
  5
293
330
1F
100
AcDbEntity
  8
0
  6
Continuous
 62
     7
370
    25
100
AcDbLine
 10
3990.2368624846
 20
9126.9394611764
 30
0.0
 11
3988.9563255212
 21
9126.9394611764
 31
0.0
  0
LINE
  5
294
330
1F
100
AcDbEntity
  8
0
  6
Continuous
 62
     7
370
    25
100
AcDbLine
 10
3988.9563255212
 20
9119.9394611764
 30
0.0
 11
3988.9563255212
 21
9116.9394611764
 31
0.0
  0
LINE
  5
295
330
1F
100
AcDbEntity
  8
0
  6
Continuous
 62
     7
370
    25
100
AcDbLine
 10
3990.2368624846
 20
9116.9394611764
 30
0.0
 11
3988.9563255212
 21
9116.9394611764
 31
0.0
  0
LINE
  5
296
330
1F
100
AcDbEntity
  8
0
  6
Continuous
 62
     7
370
    25
100
AcDbLine
 10
3990.2368624846
 20
9119.9394611764
 30
0.0
 11
3988.9563255212
 21
9119.9394611764
 31
0.0
  0
LINE
  5
297
330
1F
100
AcDbEntity
  8
0
  6
Continuous
 62
     7
370
    25
100
AcDbLine
 10
3359.5119114917
 20
9046.8484607186
 30
0.0
 11
3360.288368627
 21
9049.7462381975
 31
0.0
  0
LINE
  5
298
330
1F
100
AcDbEntity
  8
0
  6
Continuous
 62
     7
370
    25
100
AcDbLine
 10
3347.2626711439
 20
9050.1306347777
 30
0.0
 11
3348.0391282792
 21
9053.0284122566
 31
0.0
  0
LINE
  5
299
330
1F
100
AcDbEntity
  8
0
  6
Continuous
 62
     7
370
    25
100
AcDbLine
 10
3348.0391282792
 20
9053.0284122566
 30
0.0
 11
3360.288368627
 21
9049.7462381975
 31
0.0
  0
LINE
  5
29A
330
1F
100
AcDbEntity
  8
0
  6
Continuous
 62
     7
370
    25
100
AcDbLine
 10
3362.1001019427
 20
9056.5077189815
 30
0.0
 11
3362.876559078
 21
9059.4054964604
 31
0.0
  0
LINE
  5
29B
330
1F
100
AcDbEntity
  8
0
  6
Continuous
 62
     7
370
    25
100
AcDbLine
 10
3349.8508615949
 20
9059.7898930406
 30
0.0
 11
3350.6273187302
 21
9062.6876705195
 31
0.0
  0
LINE
  5
29C
330
1F
100
AcDbEntity
  8
0
  6
Continuous
 62
     7
370
    25
100
AcDbLine
 10
3350.6273187302
 20
9062.6876705195
 30
0.0
 11
3362.876559078
 21
9059.4054964604
 31
0.0
  0
LINE
  5
29D
330
1F
100
AcDbEntity
  8
0
  6
Continuous
 62
     7
370
    25
100
AcDbLine
 10
3349.8508615949
 20
9059.7898930406
 30
0.0
 11
3362.1001019427
 21
9056.5077189815
 31
0.0
  0
LINE
  5
29E
330
1F
100
AcDbEntity
  8
0
  6
Continuous
 62
     7
370
    25
100
AcDbLine
 10
3345.3729453975
 20
9057.366280438
 30
0.0
 11
3364.8519691722
 21
9052.1468917482
 31
0.0
  0
LINE
  5
29F
330
1F
100
AcDbEntity
  8
0
  6
Continuous
 62
     7
370
    25
100
AcDbLine
 10
3344.084563907
 20
9057.7115012179
 30
0.0
 11
3345.3729453975
 21
9057.366280438
 31
0.0
  0
LINE
  5
2A0
330
1F
100
AcDbEntity
  8
0
  6
Continuous
 62
     7
370
    25
100
AcDbLine
 10
3352.2513080477
 20
9069.4994571562
 30
0.0
 11
3364.482322976
 21
9066.2221665836
 31
0.0
  0
LINE
  5
2A1
330
1F
100
AcDbEntity
  8
0
  6
Continuous
 62
     7
370
    25
100
AcDbLine
 10
3351.4423243211
 20
9069.7162236924
 30
0.0
 11
3352.2513080477
 21
9069.4994571562
 31
0.0
  0
LINE
  5
2A2
330
1F
100
AcDbEntity
  8
0
  6
Continuous
 62
     7
370
    25
100
AcDbLine
 10
3340.5367023986
 20
9051.9328526713
 30
0.0
 11
3341.3131595339
 21
9054.8306301502
 31
0.0
  0
LINE
  5
2A3
330
1F
100
AcDbEntity
  8
0
  6
Continuous
 62
     7
370
    25
100
AcDbLine
 10
3341.3131595339
 20
9054.8306301502
 30
0.0
 11
3348.0391282792
 21
9053.0284122566
 31
0.0
  0
LINE
  5
2A4
330
1F
100
AcDbEntity
  8
0
  6
Continuous
 62
     7
370
    25
100
AcDbLine
 10
3343.1248928496
 20
9061.5921109342
 30
0.0
 11
3343.9013499849
 21
9064.4898884131
 31
0.0
  0
LINE
  5
2A5
330
1F
100
AcDbEntity
  8
0
  6
Continuous
 62
     7
370
    25
100
AcDbLine
 10
3343.9013499849
 20
9064.4898884131
 30
0.0
 11
3350.6273187302
 21
9062.6876705195
 31
0.0
  0
LINE
  5
2A6
330
1F
100
AcDbEntity
  8
0
  6
Continuous
 62
     7
370
    25
100
AcDbLine
 10
3343.1248928496
 20
9061.5921109342
 30
0.0
 11
3349.8508615949
 21
9059.7898930406
 31
0.0
  0
LINE
  5
2A7
330
1F
100
AcDbEntity
  8
0
  6
Continuous
 62
     7
370
    25
100
AcDbLine
 10
3365.0351830943
 20
9045.3685045531
 30
0.0
 11
3365.8116402296
 21
9048.266282032
 31
0.0
  0
LINE
  5
2A8
330
1F
100
AcDbEntity
  8
0
  6
Continuous
 62
     7
370
    25
100
AcDbLine
 10
3360.288368627
 20
9049.7462381975
 30
0.0
 11
3365.8116402296
 21
9048.266282032
 31
0.0
  0
LINE
  5
2A9
330
1F
100
AcDbEntity
  8
0
  6
Continuous
 62
     7
370
    25
100
AcDbLine
 10
3367.6233735454
 20
9055.027762816
 30
0.0
 11
3368.3998306807
 21
9057.9255402949
 31
0.0
  0
LINE
  5
2AA
330
1F
100
AcDbEntity
  8
0
  6
Continuous
 62
     7
370
    25
100
AcDbLine
 10
3362.876559078
 20
9059.4054964604
 30
0.0
 11
3368.3998306807
 21
9057.9255402949
 31
0.0
  0
LINE
  5
2AB
330
1F
100
AcDbEntity
  8
0
  6
Continuous
 62
     7
370
    25
100
AcDbLine
 10
3362.1001019427
 20
9056.5077189815
 30
0.0
 11
3367.6233735454
 21
9055.027762816
 31
0.0
  0
LINE
  5
2AC
330
1F
100
AcDbEntity
  8
0
  6
Continuous
 62
     7
370
    25
100
AcDbLine
 10
3965.6653383314
 20
9060.6792563991
 30
0.0
 11
3977.9958275958
 21
9061.4682244683
 31
0.0
  0
LINE
  5
2AD
330
1F
100
AcDbEntity
  8
0
  6
Continuous
 62
     7
370
    25
100
AcDbLine
 10
3977.9958275958
 20
9061.4682244683
 30
0.0
 11
3984.8959878883
 21
9059.6115130239
 31
0.0
  0
LINE
  5
2AE
330
1F
100
AcDbEntity
  8
0
  6
Continuous
 62
     7
370
    25
100
AcDbLine
 10
3965.267743236
 20
9060.3230547957
 30
0.0
 11
3965.6653383314
 21
9060.6792563991
 31
0.0
  0
LWPOLYLINE
  5
2AF
330
1F
100
AcDbEntity
  8
0
  6
Continuous
 62
     7
370
    25
100
AcDbPolyline
 90
       13
 70
   128
 43
0.0
 10
3984.0154700716
 20
9059.5898868963
 10
3983.7198672923
 20
9059.7278331143
 10
3982.555739038
 20
9060.1435699614
 10
3981.1162784002
 20
9060.4968646329
 10
3979.4505044844
 20
9060.7756861026
 10
3977.6151432235
 20
9060.9705394397
 10
3975.6726956439
 20
9061.0747891474
 10
3973.6893094683
 20
9061.0848851272
 10
3971.732526534
 20
9061.0004835723
 10
3969.868982737
 20
9060.8244586767
 10
3968.1621388263
 20
9060.5628047569
 10
3966.670119324
 20
9060.2244321235
 10
3966.6150853196
 20
9060.2092987592
  0
LINE
  5
2B0
330
1F
100
AcDbEntity
  8
0
  6
Continuous
 62
     7
370
    25
100
AcDbLine
 10
3977.9958275958
 20
9061.4682244683
 30
0.0
 11
3977.9958275958
 21
9064.3660019471
 31
0.0
  0
LINE
  5
2B1
330
1F
100
AcDbEntity
  8
0
  6
Continuous
 62
     7
370
    25
100
AcDbLine
 10
3965.6653383314
 20
9060.6792563991
 30
0.0
 11
3965.6653383314
 21
9063.5770338779
 31
0.0
  0
LINE
  5
2B2
330
1F
100
AcDbEntity
  8
0
  6
Continuous
 62
     7
370
    25
100
AcDbLine
 10
3965.6653383314
 20
9063.5770338779
 30
0.0
 11
3977.9958275958
 21
9064.3660019471
 31
0.0
  0
LINE
  5
2B3
330
1F
100
AcDbEntity
  8
0
  6
Continuous
 62
     7
370
    25
100
AcDbLine
 10
3986.8010108401
 20
9059.6419977224
 30
0.0
 11
3986.8010108401
 21
9061.9966824232
 31
0.0
  0
LINE
  5
2B4
330
1F
100
AcDbEntity
  8
0
  6
Continuous
 62
     7
370
    25
100
AcDbLine
 10
3977.9958275958
 20
9064.3660019471
 30
0.0
 11
3986.8010108401
 21
9061.9966824232
 31
0.0
  0
LINE
  5
2B5
330
1F
100
AcDbEntity
  8
0
  6
Continuous
 62
     7
370
    25
100
AcDbLine
 10
3962.1400323113
 20
9060.0885454574
 30
0.0
 11
3962.1400323113
 21
9060.4187462848
 31
0.0
  0
LINE
  5
2B6
330
1F
100
AcDbEntity
  8
0
  6
Continuous
 62
     7
370
    25
100
AcDbLine
 10
3962.1400323113
 20
9060.4187462848
 30
0.0
 11
3965.6653383314
 21
9063.5770338779
 31
0.0
  0
LINE
  5
2B7
330
1F
100
AcDbEntity
  8
0
  6
Continuous
 62
     7
370
    25
100
AcDbLine
 10
4616.622441034
 20
9057.5209688059
 30
0.0
 11
4615.8459838987
 21
9060.4187462848
 31
0.0
  0
LINE
  5
2B8
330
1F
100
AcDbEntity
  8
0
  6
Continuous
 62
     7
370
    25
100
AcDbLine
 10
4607.7800201913
 20
9055.1516492819
 30
0.0
 11
4616.622441034
 21
9057.5209688059
 31
0.0
  0
LINE
  5
2B9
330
1F
100
AcDbEntity
  8
0
  6
Continuous
 62
     7
370
    25
100
AcDbLine
 10
4607.7800201913
 20
9055.1516492819
 30
0.0
 11
4607.0035630559
 21
9058.0494267608
 31
0.0
  0
LINE
  5
2BA
330
1F
100
AcDbEntity
  8
0
  6
Continuous
 62
     7
370
    25
100
AcDbLine
 10
4607.0035630559
 20
9058.0494267608
 30
0.0
 11
4615.8459838987
 21
9060.4187462848
 31
0.0
  0
LINE
  5
2BB
330
1F
100
AcDbEntity
  8
0
  6
Continuous
 62
     7
370
    25
100
AcDbLine
 10
4619.2106314851
 20
9047.861710543
 30
0.0
 11
4618.4341743498
 21
9050.7594880219
 31
0.0
  0
LINE
  5
2BC
330
1F
100
AcDbEntity
  8
0
  6
Continuous
 62
     7
370
    25
100
AcDbLine
 10
4610.3682106423
 20
9045.492391019
 30
0.0
 11
4609.591753507
 21
9048.3901684979
 31
0.0
  0
LINE
  5
2BD
330
1F
100
AcDbEntity
  8
0
  6
Continuous
 62
     7
370
    25
100
AcDbLine
 10
4609.591753507
 20
9048.3901684979
 30
0.0
 11
4618.4341743498
 21
9050.7594880219
 31
0.0
  0
LINE
  5
2BE
330
1F
100
AcDbEntity
  8
0
  6
Continuous
 62
     7
370
    25
100
AcDbLine
 10
4618.3025577002
 20
9068.3239165139
 30
0.0
 11
4623.4987188303
 21
9069.7162236924
 31
0.0
  0
LINE
  5
2BF
330
1F
100
AcDbEntity
  8
0
  6
Continuous
 62
     7
370
    25
100
AcDbLine
 10
4610.4587201754
 20
9066.2221665836
 30
0.0
 11
4618.3025577002
 21
9068.3239165139
 31
0.0
  0
LINE
  5
2C0
330
1F
100
AcDbEntity
  8
0
  6
Continuous
 62
     7
370
    25
100
AcDbLine
 10
4622.5811115186
 20
9055.4941231188
 30
0.0
 11
4630.8564792444
 21
9057.7115012179
 31
0.0
  0
LINE
  5
2C1
330
1F
100
AcDbEntity
  8
0
  6
Continuous
 62
     7
370
    25
100
AcDbLine
 10
4610.0890739792
 20
9052.1468917482
 30
0.0
 11
4622.5811115186
 21
9055.4941231188
 31
0.0
  0
LINE
  5
2C2
330
1F
100
AcDbEntity
  8
0
  6
Continuous
 62
     7
370
    25
100
AcDbLine
 10
4628.4093307967
 20
9060.6792563991
 30
0.0
 11
4627.6328736614
 21
9063.5770338779
 31
0.0
  0
LINE
  5
2C3
330
1F
100
AcDbEntity
  8
0
  6
Continuous
 62
     7
370
    25
100
AcDbLine
 10
4615.8459838987
 20
9060.4187462848
 30
0.0
 11
4627.6328736614
 21
9063.5770338779
 31
0.0
  0
LINE
  5
2C4
330
1F
100
AcDbEntity
  8
0
  6
Continuous
 62
     7
370
    25
100
AcDbLine
 10
4616.622441034
 20
9057.5209688059
 30
0.0
 11
4628.4093307967
 21
9060.6792563991
 31
0.0
  0
LINE
  5
2C5
330
1F
100
AcDbEntity
  8
0
  6
Continuous
 62
     7
370
    25
100
AcDbLine
 10
4630.9975212477
 20
9051.0199981362
 30
0.0
 11
4630.2210641124
 21
9053.917775615
 31
0.0
  0
LINE
  5
2C6
330
1F
100
AcDbEntity
  8
0
  6
Continuous
 62
     7
370
    25
100
AcDbLine
 10
4618.4341743498
 20
9050.7594880219
 30
0.0
 11
4630.2210641124
 21
9053.917775615
 31
0.0
  0
LINE
  5
2C7
330
1F
100
AcDbEntity
  8
0
  6
Continuous
 62
     7
370
    25
100
AcDbLine
 10
4631.3537997166
 20
9061.4682244683
 30
0.0
 11
4630.5773425812
 21
9064.3660019471
 31
0.0
  0
LINE
  5
2C8
330
1F
100
AcDbEntity
  8
0
  6
Continuous
 62
     7
370
    25
100
AcDbLine
 10
4627.6328736614
 20
9063.5770338779
 30
0.0
 11
4630.5773425812
 21
9064.3660019471
 31
0.0
  0
LINE
  5
2C9
330
1F
100
AcDbEntity
  8
0
  6
Continuous
 62
     7
370
    25
100
AcDbLine
 10
4628.4093307967
 20
9060.6792563991
 30
0.0
 11
4631.3537997166
 21
9061.4682244683
 31
0.0
  0
LINE
  5
2CA
330
1F
100
AcDbEntity
  8
0
  6
Continuous
 62
     7
370
    25
100
AcDbLine
 10
4633.9419901676
 20
9051.8089662054
 30
0.0
 11
4633.1655330323
 21
9054.7067436843
 31
0.0
  0
LINE
  5
2CB
330
1F
100
AcDbEntity
  8
0
  6
Continuous
 62
     7
370
    25
100
AcDbLine
 10
4630.2210641124
 20
9053.917775615
 30
0.0
 11
4633.1655330323
 21
9054.7067436843
 31
0.0
  0
LINE
  5
2CC
330
1F
100
AcDbEntity
  8
0
  6
Continuous
 62
     7
370
    25
100
AcDbLine
 10
4003.1893940814
 20
9061.5921109342
 30
0.0
 11
4003.1893940814
 21
9064.4898884131
 31
0.0
  0
LINE
  5
2CD
330
1F
100
AcDbEntity
  8
0
  6
Continuous
 62
     7
370
    25
100
AcDbLine
 10
3991.84758938
 20
9060.1121547687
 30
0.0
 11
4003.1893940814
 21
9061.5921109342
 31
0.0
  0
LINE
  5
2CE
330
1F
100
AcDbEntity
  8
0
  6
Continuous
 62
     7
370
    25
100
AcDbLine
 10
3991.84758938
 20
9060.1121547687
 30
0.0
 11
3991.84758938
 21
9063.0099322476
 31
0.0
  0
LINE
  5
2CF
330
1F
100
AcDbEntity
  8
0
  6
Continuous
 62
     7
370
    25
100
AcDbLine
 10
3991.84758938
 20
9063.0099322476
 30
0.0
 11
4003.1893940814
 21
9064.4898884131
 31
0.0
  0
LINE
  5
2D0
330
1F
100
AcDbEntity
  8
0
  6
Continuous
 62
     7
370
    25
100
AcDbLine
 10
3991.7393370076
 20
9059.6179042226
 30
0.0
 11
3991.84758938
 21
9060.1121547687
 31
0.0
  0
LINE
  5
2D1
330
1F
100
AcDbEntity
  8
0
  6
Continuous
 62
     7
370
    25
100
AcDbLine
 10
4003.1893940814
 20
9061.5921109342
 30
0.0
 11
4010.9356768916
 21
9060.2779267492
 31
0.0
  0
LWPOLYLINE
  5
2D2
330
1F
100
AcDbEntity
  8
0
  6
Continuous
 62
     7
370
    25
100
AcDbPolyline
 90
       10
 70
   128
 43
0.0
 10
4007.6568743518
 20
9060.74702083
 10
4005.8383502657
 20
9060.9521767602
 10
4003.9051388129
 20
9061.06735438
 10
4001.9230731906
 20
9061.0886314539
 10
3999.9596502666
 20
9061.0152834166
 10
3998.0817320535
 20
9060.8498080475
 10
3996.3532688038
 20
9060.5978404119
 10
3994.8331212604
 20
9060.2679609653
 10
3993.5730562247
 20
9059.8714033568
 10
3992.9255730792
 20
9059.589886896
  0
LWPOLYLINE
  5
2D3
330
1F
100
AcDbEntity
  8
0
  6
Continuous
 62
     7
370
    25
100
AcDbPolyline
 90
        3
 70
   128
 43
0.0
 10
4010.3259578407
 20
9060.2092987567
 10
4009.2987834145
 20
9060.4588729288
 10
4007.6568743518
 20
9060.74702083
  0
LINE
  5
2D4
330
1F
100
AcDbEntity
  8
0
  6
Continuous
 62
     7
370
    25
100
AcDbLine
 10
4013.8123262771
 20
9060.2472815406
 30
0.0
 11
4013.8123262771
 21
9062.6876705195
 31
0.0
  0
LINE
  5
2D5
330
1F
100
AcDbEntity
  8
0
  6
Continuous
 62
     7
370
    25
100
AcDbLine
 10
4003.1893940814
 20
9064.4898884131
 30
0.0
 11
4013.8123262771
 21
9062.6876705195
 31
0.0
  0
LINE
  5
2D6
330
1F
100
AcDbEntity
  8
0
  6
Continuous
 62
     7
370
    25
100
AcDbLine
 10
3991.1287168743
 20
9059.628951464
 30
0.0
 11
3991.1287168743
 21
9059.7277581885
 31
0.0
  0
LINE
  5
2D7
330
1F
100
AcDbEntity
  8
0
  6
Continuous
 62
     7
370
    25
100
AcDbLine
 10
3991.1287168743
 20
9059.7277581885
 30
0.0
 11
3991.84758938
 21
9063.0099322476
 31
0.0
  0
LINE
  5
2D8
330
1F
100
AcDbEntity
  8
0
  6
Continuous
 62
     7
370
    25
100
AcDbLine
 10
4607.317669606
 20
9055.027762816
 30
0.0
 11
4606.5412124707
 21
9057.9255402949
 31
0.0
  0
LINE
  5
2D9
330
1F
100
AcDbEntity
  8
0
  6
Continuous
 62
     7
370
    25
100
AcDbLine
 10
4607.317669606
 20
9055.027762816
 30
0.0
 11
4607.7800201913
 21
9055.1516492819
 31
0.0
  0
LINE
  5
2DA
330
1F
100
AcDbEntity
  8
0
  6
Continuous
 62
     7
370
    25
100
AcDbLine
 10
4606.5412124707
 20
9057.9255402949
 30
0.0
 11
4607.0035630559
 21
9058.0494267608
 31
0.0
  0
LINE
  5
2DB
330
1F
100
AcDbEntity
  8
0
  6
Continuous
 62
     7
370
    25
100
AcDbLine
 10
4609.9058600571
 20
9045.3685045531
 30
0.0
 11
4609.1294029218
 21
9048.266282032
 31
0.0
  0
LINE
  5
2DC
330
1F
100
AcDbEntity
  8
0
  6
Continuous
 62
     7
370
    25
100
AcDbLine
 10
4609.1294029218
 20
9048.266282032
 30
0.0
 11
4609.591753507
 21
9048.3901684979
 31
0.0
  0
LINE
  5
2DD
330
1F
100
AcDbEntity
  8
0
  6
Continuous
 62
     7
370
    25
100
AcDbLine
 10
4631.8161503018
 20
9061.5921109342
 30
0.0
 11
4631.0396931665
 21
9064.4898884131
 31
0.0
  0
LINE
  5
2DE
330
1F
100
AcDbEntity
  8
0
  6
Continuous
 62
     7
370
    25
100
AcDbLine
 10
4631.3537997166
 20
9061.4682244683
 30
0.0
 11
4631.8161503018
 21
9061.5921109342
 31
0.0
  0
LINE
  5
2DF
330
1F
100
AcDbEntity
  8
0
  6
Continuous
 62
     7
370
    25
100
AcDbLine
 10
4630.5773425812
 20
9064.3660019471
 30
0.0
 11
4631.0396931665
 21
9064.4898884131
 31
0.0
  0
LINE
  5
2E0
330
1F
100
AcDbEntity
  8
0
  6
Continuous
 62
     7
370
    25
100
AcDbLine
 10
4634.4043407528
 20
9051.9328526713
 30
0.0
 11
4633.6278836175
 21
9054.8306301502
 31
0.0
  0
LINE
  5
2E1
330
1F
100
AcDbEntity
  8
0
  6
Continuous
 62
     7
370
    25
100
AcDbLine
 10
4633.1655330323
 20
9054.7067436843
 30
0.0
 11
4633.6278836175
 21
9054.8306301502
 31
0.0
  0
LINE
  5
2E2
330
1F
100
AcDbEntity
  8
0
  6
Continuous
 62
     7
370
    25
100
AcDbLine
 10
3348.5857746827
 20
9048.4302512185
 30
0.0
 11
3356.313181293
 21
9046.3596988576
 31
0.0
  0
LINE
  5
2E3
330
1F
100
AcDbEntity
  8
0
  6
Continuous
 62
     7
370
    25
100
AcDbLine
 10
3348.9222394413
 20
9049.6859547926
 30
0.0
 11
3356.6496460516
 21
9047.6154024318
 31
0.0
  0
LINE
  5
2E4
330
1F
100
AcDbEntity
  8
0
  6
Continuous
 62
     7
370
    25
100
AcDbLine
 10
3360.5292037428
 20
9046.5758780815
 30
0.0
 11
3360.1927389842
 21
9045.3201745073
 31
0.0
  0
LINE
  5
2E5
330
1F
100
AcDbEntity
  8
0
  6
Continuous
 62
     7
370
    25
100
AcDbLine
 10
3356.313181293
 20
9046.3596988576
 30
0.0
 11
3360.1927389842
 21
9045.3201745073
 31
0.0
  0
LINE
  5
2E6
330
1F
100
AcDbEntity
  8
0
  6
Continuous
 62
     7
370
    25
100
AcDbLine
 10
3356.6496460516
 20
9047.6154024318
 30
0.0
 11
3360.5292037428
 21
9046.5758780815
 31
0.0
  0
LINE
  5
2E7
330
1F
100
AcDbEntity
  8
0
  6
Continuous
 62
     7
370
    25
100
AcDbLine
 10
3345.0426817501
 20
9050.725479143
 30
0.0
 11
3344.7062169915
 21
9049.4697755688
 31
0.0
  0
LINE
  5
2E8
330
1F
100
AcDbEntity
  8
0
  6
Continuous
 62
     7
370
    25
100
AcDbLine
 10
3344.7062169915
 20
9049.4697755688
 30
0.0
 11
3348.5857746827
 21
9048.4302512185
 31
0.0
  0
LINE
  5
2E9
330
1F
100
AcDbEntity
  8
0
  6
Continuous
 62
     7
370
    25
100
AcDbLine
 10
3345.0426817501
 20
9050.725479143
 30
0.0
 11
3348.9222394413
 21
9049.6859547926
 31
0.0
  0
LINE
  5
2EA
330
1F
100
AcDbEntity
  8
0
  6
Continuous
 62
     7
370
    25
100
AcDbLine
 10
3383.8280928578
 20
9040.3329595585
 30
0.0
 11
3383.4916280992
 21
9039.0772559844
 31
0.0
  0
LINE
  5
2EB
330
1F
100
AcDbEntity
  8
0
  6
Continuous
 62
     7
370
    25
100
AcDbLine
 10
3360.1927389842
 20
9045.3201745073
 30
0.0
 11
3383.4916280992
 21
9039.0772559844
 31
0.0
  0
LINE
  5
2EC
330
1F
100
AcDbEntity
  8
0
  6
Continuous
 62
     7
370
    25
100
AcDbLine
 10
3360.5292037428
 20
9046.5758780815
 30
0.0
 11
3383.8280928578
 21
9040.3329595585
 31
0.0
  0
LINE
  5
2ED
330
1F
100
AcDbEntity
  8
0
  6
Continuous
 62
     7
370
    25
100
AcDbLine
 10
3321.7437926351
 20
9056.9683976659
 30
0.0
 11
3321.4073278765
 21
9055.7126940917
 31
0.0
  0
LINE
  5
2EE
330
1F
100
AcDbEntity
  8
0
  6
Continuous
 62
     7
370
    25
100
AcDbLine
 10
3321.4073278765
 20
9055.7126940917
 30
0.0
 11
3344.7062169915
 21
9049.4697755688
 31
0.0
  0
LINE
  5
2EF
330
1F
100
AcDbEntity
  8
0
  6
Continuous
 62
     7
370
    25
100
AcDbLine
 10
3321.7437926351
 20
9056.9683976659
 30
0.0
 11
3345.0426817501
 21
9050.725479143
 31
0.0
  0
LINE
  5
2F0
330
1F
100
AcDbEntity
  8
0
  6
Continuous
 62
     7
370
    25
100
AcDbLine
 10
3390.2803086602
 20
9038.6040935449
 30
0.0
 11
3389.9438439016
 21
9037.3483899707
 31
0.0
  0
LINE
  5
2F1
330
1F
100
AcDbEntity
  8
0
  6
Continuous
 62
     7
370
    25
100
AcDbLine
 10
3383.4916280992
 20
9039.0772559844
 30
0.0
 11
3389.9438439016
 21
9037.3483899707
 31
0.0
  0
LINE
  5
2F2
330
1F
100
AcDbEntity
  8
0
  6
Continuous
 62
     7
370
    25
100
AcDbLine
 10
3383.8280928578
 20
9040.3329595585
 30
0.0
 11
3390.2803086602
 21
9038.6040935449
 31
0.0
  0
LINE
  5
2F3
330
1F
100
AcDbEntity
  8
0
  6
Continuous
 62
     7
370
    25
100
AcDbLine
 10
3315.2915768327
 20
9058.6972636795
 30
0.0
 11
3314.9551120741
 21
9057.4415601053
 31
0.0
  0
LINE
  5
2F4
330
1F
100
AcDbEntity
  8
0
  6
Continuous
 62
     7
370
    25
100
AcDbLine
 10
3314.9551120741
 20
9057.4415601053
 30
0.0
 11
3321.4073278765
 21
9055.7126940917
 31
0.0
  0
LINE
  5
2F5
330
1F
100
AcDbEntity
  8
0
  6
Continuous
 62
     7
370
    25
100
AcDbLine
 10
3315.2915768327
 20
9058.6972636795
 30
0.0
 11
3321.7437926351
 21
9056.9683976659
 31
0.0
  0
LINE
  5
2F6
330
1F
100
AcDbEntity
  8
0
  6
Continuous
 62
     7
370
    25
100
AcDbLine
 10
3389.9438439016
 20
9037.3483899707
 30
0.0
 11
3396.0477057206
 21
9035.7128651256
 31
0.0
  0
LINE
  5
2F7
330
1F
100
AcDbEntity
  8
0
  6
Continuous
 62
     7
370
    25
100
AcDbLine
 10
3390.2803086602
 20
9038.6040935449
 30
0.0
 11
3396.3841704792
 21
9036.9685686998
 31
0.0
  0
LINE
  5
2F8
330
1F
100
AcDbEntity
  8
0
  6
Continuous
 62
     7
370
    25
100
AcDbLine
 10
3308.8512502551
 20
9059.0770849505
 30
0.0
 11
3314.9551120741
 21
9057.4415601053
 31
0.0
  0
LINE
  5
2F9
330
1F
100
AcDbEntity
  8
0
  6
Continuous
 62
     7
370
    25
100
AcDbLine
 10
3309.1877150137
 20
9060.3327885246
 30
0.0
 11
3315.2915768327
 21
9058.6972636795
 31
0.0
  0
LINE
  5
2FA
330
1F
100
AcDbEntity
  8
0
  6
Continuous
 62
     7
370
    25
100
AcDbLine
 10
4618.6278618584
 20
9046.3596988576
 30
0.0
 11
4626.3552684687
 21
9048.4302512185
 31
0.0
  0
LINE
  5
2FB
330
1F
100
AcDbEntity
  8
0
  6
Continuous
 62
     7
370
    25
100
AcDbLine
 10
4618.2913970997
 20
9047.6154024318
 30
0.0
 11
4626.0188037101
 21
9049.6859547926
 31
0.0
  0
LINE
  5
2FC
330
1F
100
AcDbEntity
  8
0
  6
Continuous
 62
     7
370
    25
100
AcDbLine
 10
4629.8983614013
 20
9050.725479143
 30
0.0
 11
4630.2348261599
 21
9049.4697755688
 31
0.0
  0
LINE
  5
2FD
330
1F
100
AcDbEntity
  8
0
  6
Continuous
 62
     7
370
    25
100
AcDbLine
 10
4626.3552684687
 20
9048.4302512185
 30
0.0
 11
4630.2348261599
 21
9049.4697755688
 31
0.0
  0
LINE
  5
2FE
330
1F
100
AcDbEntity
  8
0
  6
Continuous
 62
     7
370
    25
100
AcDbLine
 10
4626.0188037101
 20
9049.6859547926
 30
0.0
 11
4629.8983614013
 21
9050.725479143
 31
0.0
  0
LINE
  5
2FF
330
1F
100
AcDbEntity
  8
0
  6
Continuous
 62
     7
370
    25
100
AcDbLine
 10
4614.4118394086
 20
9046.5758780815
 30
0.0
 11
4614.7483041672
 21
9045.3201745073
 31
0.0
  0
LINE
  5
300
330
1F
100
AcDbEntity
  8
0
  6
Continuous
 62
     7
370
    25
100
AcDbLine
 10
4614.7483041672
 20
9045.3201745073
 30
0.0
 11
4618.6278618584
 21
9046.3596988576
 31
0.0
  0
LINE
  5
301
330
1F
100
AcDbEntity
  8
0
  6
Continuous
 62
     7
370
    25
100
AcDbLine
 10
4614.4118394086
 20
9046.5758780815
 30
0.0
 11
4618.2913970998
 21
9047.6154024318
 31
0.0
  0
LINE
  5
302
330
1F
100
AcDbEntity
  8
0
  6
Continuous
 62
     7
370
    25
100
AcDbLine
 10
4653.1972505163
 20
9056.9683976659
 30
0.0
 11
4653.5337152749
 21
9055.7126940917
 31
0.0
  0
LINE
  5
303
330
1F
100
AcDbEntity
  8
0
  6
Continuous
 62
     7
370
    25
100
AcDbLine
 10
4630.2348261599
 20
9049.4697755688
 30
0.0
 11
4653.5337152749
 21
9055.7126940917
 31
0.0
  0
LINE
  5
304
330
1F
100
AcDbEntity
  8
0
  6
Continuous
 62
     7
370
    25
100
AcDbLine
 10
4629.8983614013
 20
9050.725479143
 30
0.0
 11
4653.1972505163
 21
9056.9683976659
 31
0.0
  0
LINE
  5
305
330
1F
100
AcDbEntity
  8
0
  6
Continuous
 62
     7
370
    25
100
AcDbLine
 10
4591.1129502936
 20
9040.3329595585
 30
0.0
 11
4591.4494150522
 21
9039.0772559844
 31
0.0
  0
LINE
  5
306
330
1F
100
AcDbEntity
  8
0
  6
Continuous
 62
     7
370
    25
100
AcDbLine
 10
4591.4494150522
 20
9039.0772559844
 30
0.0
 11
4614.7483041672
 21
9045.3201745073
 31
0.0
  0
LINE
  5
307
330
1F
100
AcDbEntity
  8
0
  6
Continuous
 62
     7
370
    25
100
AcDbLine
 10
4591.1129502936
 20
9040.3329595585
 30
0.0
 11
4614.4118394086
 21
9046.5758780815
 31
0.0
  0
LINE
  5
308
330
1F
100
AcDbEntity
  8
0
  6
Continuous
 62
     7
370
    25
100
AcDbLine
 10
4659.6494663187
 20
9058.6972636795
 30
0.0
 11
4659.9859310773
 21
9057.4415601053
 31
0.0
  0
LINE
  5
309
330
1F
100
AcDbEntity
  8
0
  6
Continuous
 62
     7
370
    25
100
AcDbLine
 10
4653.5337152749
 20
9055.7126940917
 30
0.0
 11
4659.9859310773
 21
9057.4415601053
 31
0.0
  0
LINE
  5
30A
330
1F
100
AcDbEntity
  8
0
  6
Continuous
 62
     7
370
    25
100
AcDbLine
 10
4653.1972505163
 20
9056.9683976659
 30
0.0
 11
4659.6494663187
 21
9058.6972636795
 31
0.0
  0
LINE
  5
30B
330
1F
100
AcDbEntity
  8
0
  6
Continuous
 62
     7
370
    25
100
AcDbLine
 10
4584.6607344912
 20
9038.6040935449
 30
0.0
 11
4584.9971992498
 21
9037.3483899707
 31
0.0
  0
LINE
  5
30C
330
1F
100
AcDbEntity
  8
0
  6
Continuous
 62
     7
370
    25
100
AcDbLine
 10
4584.9971992498
 20
9037.3483899707
 30
0.0
 11
4591.4494150522
 21
9039.0772559844
 31
0.0
  0
LINE
  5
30D
330
1F
100
AcDbEntity
  8
0
  6
Continuous
 62
     7
370
    25
100
AcDbLine
 10
4584.6607344912
 20
9038.6040935449
 30
0.0
 11
4591.1129502936
 21
9040.3329595585
 31
0.0
  0
LINE
  5
30E
330
1F
100
AcDbEntity
  8
0
  6
Continuous
 62
     7
370
    25
100
AcDbLine
 10
4659.9859310773
 20
9057.4415601053
 30
0.0
 11
4666.0897928963
 21
9059.0770849505
 31
0.0
  0
LINE
  5
30F
330
1F
100
AcDbEntity
  8
0
  6
Continuous
 62
     7
370
    25
100
AcDbLine
 10
4659.6494663187
 20
9058.6972636795
 30
0.0
 11
4665.7533281377
 21
9060.3327885246
 31
0.0
  0
LINE
  5
310
330
1F
100
AcDbEntity
  8
0
  6
Continuous
 62
     7
370
    25
100
AcDbLine
 10
4578.8933374308
 20
9035.7128651256
 30
0.0
 11
4584.9971992498
 21
9037.3483899707
 31
0.0
  0
LINE
  5
311
330
1F
100
AcDbEntity
  8
0
  6
Continuous
 62
     7
370
    25
100
AcDbLine
 10
4578.5568726722
 20
9036.9685686998
 30
0.0
 11
4584.6607344912
 21
9038.6040935449
 31
0.0
  0
LWPOLYLINE
  5
312
330
1F
100
AcDbEntity
  8
0
  6
Continuous
 62
     7
370
    25
100
AcDbPolyline
 90
        9
 70
   128
 43
0.0
 10
3959.4614739581
 20
9058.6972636795
 10
3959.9241441258
 20
9058.4911103983
 10
3960.2328461708
 20
9058.2664884097
 10
3960.3771027458
 20
9058.031021384
 10
3960.3520177823
 20
9057.7927010721
 10
3960.1584426642
 20
9057.5596160656
 10
3959.802947331
 20
9057.3396772697
 10
3959.2975972945
 20
9057.1403494072
 10
3958.659544135
 20
9056.9683976659
  0
LWPOLYLINE
  5
313
330
1F
100
AcDbEntity
  8
0
  6
Continuous
 62
     7
370
    25
100
AcDbPolyline
 90
        7
 70
   128
 43
0.0
 10
3961.1287168743
 20
9060.2472815406
 10
3960.220857933
 20
9060.1057442461
 10
3959.403276741
 20
9059.8760112225
 10
3958.8876288313
 20
9059.5936236394
 10
3958.7208481125
 20
9059.2842842154
 10
3958.9181148477
 20
9058.9761488063
 10
3959.4614739581
 20
9058.6972636795
  0
LWPOLYLINE
  5
314
330
1F
100
AcDbEntity
  8
0
  6
Continuous
 62
     7
370
    25
100
AcDbPolyline
 90
       10
 70
   128
 43
0.0
 10
3939.3494689441
 20
9049.6812984837
 10
3938.1446215672
 20
9049.663646533
 10
3937.0149470257
 20
9049.5537949576
 10
3936.0632674988
 20
9049.3617423701
 10
3935.3762041849
 20
9049.1049692616
 10
3935.0162931017
 20
9048.8068469389
 10
3935.0162931017
 20
9048.4945102855
 10
3935.3762041849
 20
9048.1963879629
 10
3936.0632674988
 20
9047.9396148543
 10
3936.9705215756
 20
9047.75410314
  0
ARC
  5
315
330
1F
100
AcDbEntity
  8
0
  6
Continuous
 62
     7
370
    25
100
AcDbCircle
 10
3940.4828425139
 20
9058.2397013403
 30
0.0
 40
8.633121979034067
100
AcDbArc
 50
262.4563191987
 51
299.4954804872
  0
LWPOLYLINE
  5
316
330
1F
100
AcDbEntity
  8
0
  6
Continuous
 62
     7
370
    25
100
AcDbPolyline
 90
        9
 70
   128
 43
0.0
 10
3958.659544135
 20
9056.9683976659
 10
3956.0772858891
 20
9056.3393958398
 10
3953.7066116984
 20
9055.6568686179
 10
3951.5640251319
 20
9054.9255674481
 10
3949.6644419149
 20
9054.1505833206
 10
3948.0210860925
 20
9053.337311327
 10
3946.6453979698
 20
9052.4914131015
 10
3945.5469544696
 20
9051.6187774075
 10
3944.7334024622
 20
9050.725479143
  0
LWPOLYLINE
  5
317
330
1F
100
AcDbEntity
  8
0
  6
Continuous
 62
     7
370
    25
100
AcDbPolyline
 90
        5
 70
   128
 43
0.0
 10
3937.1805317517
 20
9048.9817178264
 10
3936.9379866042
 20
9048.8685792854
 10
3936.7705215757
 20
9048.6506786122
 10
3936.9379866042
 20
9048.432777939
 10
3936.9705215756
 20
9048.4134670391
  0
LWPOLYLINE
  5
318
330
1F
100
AcDbEntity
  8
0
  6
Continuous
 62
     7
370
    25
100
AcDbPolyline
 90
        5
 70
   128
 43
0.0
 10
3960.9305178867
 20
9059.6285465362
 10
3960.6879866042
 20
9059.5154130174
 10
3960.5205215757
 20
9059.2975123442
 10
3960.6879866042
 20
9059.079611671
 10
3960.7205215756
 20
9059.0603007712
  0
LWPOLYLINE
  5
319
330
1F
100
AcDbEntity
  8
0
  6
Continuous
 62
     7
370
    25
100
AcDbPolyline
 90
        5
 70
   128
 43
0.0
 10
3934.9705215757
 20
9047.394975038
 10
3935.0162931017
 20
9047.2388067113
 10
3935.3762041849
 20
9046.9406843887
 10
3936.0632674988
 20
9046.6839112801
 10
3936.9705215756
 20
9046.4983995659
  0
LINE
  5
31A
330
1F
100
AcDbEntity
  8
0
  6
Continuous
 62
     7
370
    25
100
AcDbLine
 10
3959.4614739581
 20
9058.6972636795
 30
0.0
 11
3959.4614739581
 21
9057.4415601053
 31
0.0
  0
LINE
  5
31B
330
1F
100
AcDbEntity
  8
0
  6
Continuous
 62
     7
370
    25
100
AcDbLine
 10
3959.4614739581
 20
9057.4415601053
 30
0.0
 11
3959.7597730962
 21
9057.3191010616
 31
0.0
  0
LWPOLYLINE
  5
31C
330
1F
100
AcDbEntity
  8
0
  6
Continuous
 62
     7
370
    25
100
AcDbPolyline
 90
        4
 70
   128
 43
0.0
 10
3958.7205215757
 20
9058.04180877
 10
3958.7208481125
 20
9058.0285806412
 10
3958.9181148477
 20
9057.7204452322
 10
3959.4614739581
 20
9057.4415601053
  0
LINE
  5
31D
330
1F
100
AcDbEntity
  8
0
  6
Continuous
 62
     7
370
    25
100
AcDbLine
 10
3995.3670883694
 20
9129.9394611764
 30
0.0
 11
3995.3670883694
 21
9131.2394611764
 31
0.0
  0
LINE
  5
31E
330
1F
100
AcDbEntity
  8
0
  6
Continuous
 62
     7
370
    25
100
AcDbLine
 10
4003.3114928892
 20
9129.9394611764
 30
0.0
 11
3995.3670883694
 21
9129.9394611764
 31
0.0
  0
LINE
  5
31F
330
1F
100
AcDbEntity
  8
0
  6
Continuous
 62
     7
370
    25
100
AcDbLine
 10
3990.0766885647
 20
9129.9394611764
 30
0.0
 11
3990.0766885647
 21
9131.2394611764
 31
0.0
  0
LINE
  5
320
330
1F
100
AcDbEntity
  8
0
  6
Continuous
 62
     7
370
    25
100
AcDbLine
 10
3995.3670883694
 20
9129.9394611764
 30
0.0
 11
3990.0766885647
 21
9129.9394611764
 31
0.0
  0
LINE
  5
321
330
1F
100
AcDbEntity
  8
0
  6
Continuous
 62
     7
370
    25
100
AcDbLine
 10
4005.5632105574
 20
9129.9394611764
 30
0.0
 11
4005.5632105574
 21
9131.2394611764
 31
0.0
  0
LINE
  5
322
330
1F
100
AcDbEntity
  8
0
  6
Continuous
 62
     7
370
    25
100
AcDbLine
 10
4005.5632105574
 20
9129.9394611764
 30
0.0
 11
4003.3114928892
 21
9129.9394611764
 31
0.0
  0
LINE
  5
323
330
1F
100
AcDbEntity
  8
0
  6
Continuous
 62
     7
370
    25
100
AcDbLine
 10
3963.17344876
 20
9129.9394611764
 30
0.0
 11
3963.17344876
 21
9131.2394611764
 31
0.0
  0
LINE
  5
324
330
1F
100
AcDbEntity
  8
0
  6
Continuous
 62
     7
370
    25
100
AcDbLine
 10
3990.0766885647
 20
9129.9394611764
 30
0.0
 11
3963.17344876
 21
9129.9394611764
 31
0.0
  0
LINE
  5
325
330
1F
100
AcDbEntity
  8
0
  6
Continuous
 62
     7
370
    25
100
AcDbLine
 10
4025.2577489827
 20
9129.9394611764
 30
0.0
 11
4025.2577489827
 21
9131.2394611764
 31
0.0
  0
LINE
  5
326
330
1F
100
AcDbEntity
  8
0
  6
Continuous
 62
     7
370
    25
100
AcDbLine
 10
4025.2577489827
 20
9129.9394611764
 30
0.0
 11
4005.5632105574
 21
9129.9394611764
 31
0.0
  0
LINE
  5
327
330
1F
100
AcDbEntity
  8
0
  6
Continuous
 62
     7
370
    25
100
AcDbLine
 10
3956.5136782465
 20
9129.9394611764
 30
0.0
 11
3956.5136782465
 21
9131.2394611764
 31
0.0
  0
LINE
  5
328
330
1F
100
AcDbEntity
  8
0
  6
Continuous
 62
     7
370
    25
100
AcDbLine
 10
3956.5136782465
 20
9129.9394611764
 30
0.0
 11
3949.4300161404
 21
9129.9394611764
 31
0.0
  0
LINE
  5
329
330
1F
100
AcDbEntity
  8
0
  6
Continuous
 62
     7
370
    25
100
AcDbLine
 10
3963.17344876
 20
9129.9394611764
 30
0.0
 11
3956.5136782465
 21
9129.9394611764
 31
0.0
  0
LINE
  5
32A
330
1F
100
AcDbEntity
  8
0
  6
Continuous
 62
     7
370
    25
100
AcDbLine
 10
3949.4300161404
 20
9129.9394611764
 30
0.0
 11
3944.5175882468
 21
9129.9394611764
 31
0.0
  0
LINE
  5
32B
330
1F
100
AcDbEntity
  8
0
  6
Continuous
 62
     7
370
    25
100
AcDbLine
 10
4031.502410074
 20
9129.9394611764
 30
0.0
 11
4031.502410074
 21
9131.2394611764
 31
0.0
  0
LINE
  5
32C
330
1F
100
AcDbEntity
  8
0
  6
Continuous
 62
     7
370
    25
100
AcDbLine
 10
4031.502410074
 20
9129.9394611764
 30
0.0
 11
4025.2577489827
 21
9129.9394611764
 31
0.0
  0
LINE
  5
32D
330
1F
100
AcDbEntity
  8
0
  6
Continuous
 62
     7
370
    25
100
AcDbLine
 10
4036.8990649956
 20
9129.9394611764
 30
0.0
 11
4031.502410074
 21
9129.9394611764
 31
0.0
  0
LINE
  5
32E
330
1F
100
AcDbEntity
  8
0
  6
Continuous
 62
     7
370
    25
100
AcDbLine
 10
3940.4715266765
 20
9129.9394611764
 30
0.0
 11
3940.4715266765
 21
9131.2394611764
 31
0.0
  0
LINE
  5
32F
330
1F
100
AcDbEntity
  8
0
  6
Continuous
 62
     7
370
    25
100
AcDbLine
 10
3944.5175882468
 20
9129.9394611764
 30
0.0
 11
3940.4715266765
 21
9129.9394611764
 31
0.0
  0
LINE
  5
330
330
1F
100
AcDbEntity
  8
0
  6
Continuous
 62
     7
370
    25
100
AcDbLine
 10
3940.4715266765
 20
9129.9394611764
 30
0.0
 11
3937.136111498
 21
9129.9394611764
 31
0.0
  0
ARC
  5
331
330
1F
100
AcDbEntity
  8
0
  6
Continuous
 62
     7
370
    25
100
AcDbCircle
 10
4034.4582006375
 20
9056.9839977661
 30
0.0
 40
8.633121979032797
100
AcDbArc
 50
240.5045195128
 51
277.5436808013
  0
LWPOLYLINE
  5
332
330
1F
100
AcDbEntity
  8
0
  6
Continuous
 62
     7
370
    25
100
AcDbPolyline
 90
        7
 70
   128
 43
0.0
 10
4035.5915742073
 20
9048.4255949095
 10
4036.7964215842
 20
9048.4079429589
 10
4037.9260961257
 20
9048.2980913834
 10
4038.8777756526
 20
9048.106038796
 10
4039.5648389665
 20
9047.8492656874
 10
4039.9247500498
 20
9047.5511433648
 10
4039.9705215757
 20
9047.394975038
  0
LWPOLYLINE
  5
333
330
1F
100
AcDbEntity
  8
0
  6
Continuous
 62
     7
370
    25
100
AcDbPolyline
 90
        7
 70
   128
 43
0.0
 10
3936.9705215756
 20
9047.394975038
 10
3937.0162931016
 20
9047.5511433648
 10
3937.3762041849
 20
9047.8492656874
 10
3938.0632674988
 20
9048.1060387959
 10
3939.0149470257
 20
9048.2980913834
 10
3940.1446215671
 20
9048.4079429589
 10
3941.3494689441
 20
9048.4255949095
  0
ARC
  5
334
330
1F
100
AcDbEntity
  8
0
  6
Continuous
 62
     7
370
    25
100
AcDbCircle
 10
3942.4828425139
 20
9056.9839977662
 30
0.0
 40
8.633121979050056
100
AcDbArc
 50
262.4563191987
 51
299.4954804871
  0
LWPOLYLINE
  5
335
330
1F
100
AcDbEntity
  8
0
  6
Continuous
 62
     7
370
    25
100
AcDbPolyline
 90
        9
 70
   128
 43
0.0
 10
3946.7334024621
 20
9049.4697755688
 10
3947.5469544695
 20
9050.3630738334
 10
3948.6453979697
 20
9051.2357095273
 10
3950.0210860924
 20
9052.0816077528
 10
3951.6644419149
 20
9052.8948797465
 10
3953.5640251319
 20
9053.6698638739
 10
3955.7066116984
 20
9054.4011650437
 10
3958.077285889
 20
9055.0836922656
 10
3960.659544135
 20
9055.7126940917
  0
LWPOLYLINE
  5
336
330
1F
100
AcDbEntity
  8
0
  6
Continuous
 62
     7
370
    25
100
AcDbPolyline
 90
       10
 70
   128
 43
0.0
 10
3960.7205215756
 20
9058.04180877
 10
3960.8876288313
 20
9058.3379200653
 10
3961.403276741
 20
9058.6203076483
 10
3962.2208579329
 20
9058.850040672
 10
3963.2659567444
 20
9059.0062089987
 10
3964.4434490196
 20
9059.0745982977
 10
3965.6461602432
 20
9059.0489838232
 10
3966.764620489
 20
9058.9316969866
 10
3967.6970282952
 20
9058.733413153
 10
3968.3585165617
 20
9058.4721799768
  0
ARC
  5
337
330
1F
100
AcDbEntity
  8
0
  6
Continuous
 62
     7
370
    25
100
AcDbCircle
 10
3972.832578662
 20
9070.6078084436
 30
0.0
 40
12.93409099866761
100
AcDbArc
 50
249.7624996941
 51
277.60529614
  0
ARC
  5
338
330
1F
100
AcDbEntity
  8
0
  6
Continuous
 62
     7
370
    25
100
AcDbCircle
 10
3988.4705215757
 20
8899.1264261765
 30
0.0
 40
159.2710647365047
100
AcDbArc
 50
84.9838387071
 51
95.0161612929
  0
ARC
  5
339
330
1F
100
AcDbEntity
  8
0
  6
Continuous
 62
     7
370
    25
100
AcDbCircle
 10
4004.1084644893
 20
9070.6078084437
 30
0.0
 40
12.93409099872795
100
AcDbArc
 50
262.39470386
 51
290.2375003058
  0
LWPOLYLINE
  5
33A
330
1F
100
AcDbEntity
  8
0
  6
Continuous
 62
     7
370
    25
100
AcDbPolyline
 90
       10
 70
   128
 43
0.0
 10
4008.5825265896
 20
9058.4721799768
 10
4009.2440148562
 20
9058.733413153
 10
4010.1764226624
 20
9058.9316969866
 10
4011.2948829082
 20
9059.0489838232
 10
4012.4975941318
 20
9059.0745982977
 10
4013.675086407
 20
9059.0062089987
 10
4014.7201852184
 20
9058.850040672
 10
4015.5377664104
 20
9058.6203076483
 10
4016.0534143201
 20
9058.3379200653
 10
4016.2205215757
 20
9058.04180877
  0
LWPOLYLINE
  5
33B
330
1F
100
AcDbEntity
  8
0
  6
Continuous
 62
     7
370
    25
100
AcDbPolyline
 90
        9
 70
   128
 43
0.0
 10
4016.2814990164
 20
9055.7126940917
 10
4018.8637572623
 20
9055.0836922656
 10
4021.234431453
 20
9054.4011650437
 10
4023.3770180195
 20
9053.6698638739
 10
4025.2766012365
 20
9052.8948797465
 10
4026.9199570589
 20
9052.0816077528
 10
4028.2956451816
 20
9051.2357095273
 10
4029.3940886818
 20
9050.3630738334
 10
4030.2076406892
 20
9049.4697755688
  0
LINE
  5
33C
330
1F
100
AcDbEntity
  8
0
  6
Continuous
 62
     7
370
    25
100
AcDbLine
 10
4008.5825265896
 20
9059.727883551
 30
0.0
 11
4008.5825265896
 21
9058.4721799768
 31
0.0
  0
LWPOLYLINE
  5
33D
330
1F
100
AcDbEntity
  8
0
  6
Continuous
 62
     7
370
    25
100
AcDbPolyline
 90
       10
 70
   128
 43
0.0
 10
4008.5825265896
 20
9059.727883551
 10
4009.2440148562
 20
9059.9891167272
 10
4010.1764226624
 20
9060.1874005608
 10
4011.2948829082
 20
9060.3046873973
 10
4012.4975941318
 20
9060.3303018718
 10
4013.675086407
 20
9060.2619125729
 10
4014.7201852184
 20
9060.1057442461
 10
4015.5377664104
 20
9059.8760112225
 10
4016.0534143201
 20
9059.5936236394
 10
4016.2205215757
 20
9059.2975123442
  0
LWPOLYLINE
  5
33E
330
1F
100
AcDbEntity
  8
0
  6
Continuous
 62
     7
370
    25
100
AcDbPolyline
 90
       10
 70
   128
 43
0.0
 10
3960.7205215756
 20
9059.2975123442
 10
3960.8876288313
 20
9059.5936236394
 10
3961.403276741
 20
9059.8760112225
 10
3962.2208579329
 20
9060.1057442461
 10
3963.2659567444
 20
9060.2619125729
 10
3964.4434490196
 20
9060.3303018718
 10
3965.6461602432
 20
9060.3046873973
 10
3966.764620489
 20
9060.1874005608
 10
3967.6970282952
 20
9059.9891167272
 10
3968.3585165617
 20
9059.727883551
  0
LINE
  5
33F
330
1F
100
AcDbEntity
  8
0
  6
Continuous
 62
     7
370
    25
100
AcDbLine
 10
3968.3585165617
 20
9059.727883551
 30
0.0
 11
3968.3585165617
 21
9058.4721799768
 31
0.0
  0
LINE
  5
340
330
1F
100
AcDbEntity
  8
0
  6
Continuous
 62
     7
370
    25
100
AcDbLine
 10
4002.3966632485
 20
9059.0431981966
 30
0.0
 11
4002.3966632485
 21
9057.7874946225
 31
0.0
  0
ARC
  5
341
330
1F
100
AcDbEntity
  8
0
  6
Continuous
 62
     7
370
    25
100
AcDbCircle
 10
4004.1084644893
 20
9071.8635120179
 30
0.0
 40
12.93409099873558
100
AcDbArc
 50
262.39470386
 51
290.2375003058
  0
LINE
  5
342
330
1F
100
AcDbEntity
  8
0
  6
Continuous
 62
     7
370
    25
100
AcDbLine
 10
3974.5443799028
 20
9059.0431981966
 30
0.0
 11
3974.5443799028
 21
9057.7874946225
 31
0.0
  0
ARC
  5
343
330
1F
100
AcDbEntity
  8
0
  6
Continuous
 62
     7
370
    25
100
AcDbCircle
 10
3972.832578662
 20
9071.8635120179
 30
0.0
 40
12.93409099872579
100
AcDbArc
 50
249.7624996942
 51
277.60529614
  0
ARC
  5
344
330
1F
100
AcDbEntity
  8
0
  6
Continuous
 62
     7
370
    25
100
AcDbCircle
 10
3988.4705215757
 20
8900.3821297511
 30
0.0
 40
159.2710647360544
100
AcDbArc
 50
84.9838387071
 51
95.0161612929
  0
LINE
  5
345
330
1F
100
AcDbEntity
  8
0
  6
Continuous
 62
     7
370
    25
100
AcDbLine
 10
4016.2814990164
 20
9056.9683976659
 30
0.0
 11
4016.2814990164
 21
9055.7126940917
 31
0.0
  0
LINE
  5
346
330
1F
100
AcDbEntity
  8
0
  6
Continuous
 62
     7
370
    25
100
AcDbLine
 10
3960.659544135
 20
9056.9683976659
 30
0.0
 11
3960.659544135
 21
9055.7126940917
 31
0.0
  0
LINE
  5
347
330
1F
100
AcDbEntity
  8
0
  6
Continuous
 62
     7
370
    25
100
AcDbLine
 10
4030.2076406892
 20
9050.725479143
 30
0.0
 11
4030.2076406892
 21
9049.4697755688
 31
0.0
  0
LWPOLYLINE
  5
348
330
1F
100
AcDbEntity
  8
0
  6
Continuous
 62
     7
370
    25
100
AcDbPolyline
 90
        9
 70
   128
 43
0.0
 10
4016.2814990164
 20
9056.9683976659
 10
4018.8637572623
 20
9056.3393958398
 10
4021.234431453
 20
9055.6568686179
 10
4023.3770180195
 20
9054.9255674481
 10
4025.2766012365
 20
9054.1505833206
 10
4026.9199570589
 20
9053.337311327
 10
4028.2956451816
 20
9052.4914131015
 10
4029.3940886818
 20
9051.6187774075
 10
4030.2076406892
 20
9050.725479143
  0
LINE
  5
349
330
1F
100
AcDbEntity
  8
0
  6
Continuous
 62
     7
370
    25
100
AcDbLine
 10
3946.7334024621
 20
9050.725479143
 30
0.0
 11
3946.7334024621
 21
9049.4697755688
 31
0.0
  0
LWPOLYLINE
  5
34A
330
1F
100
AcDbEntity
  8
0
  6
Continuous
 62
     7
370
    25
100
AcDbPolyline
 90
        9
 70
   128
 43
0.0
 10
3946.7334024621
 20
9050.725479143
 10
3947.5469544695
 20
9051.6187774075
 10
3948.6453979697
 20
9052.4914131015
 10
3950.0210860924
 20
9053.337311327
 10
3951.6644419149
 20
9054.1505833206
 10
3953.5640251319
 20
9054.9255674481
 10
3955.7066116984
 20
9055.6568686179
 10
3958.077285889
 20
9056.3393958398
 10
3960.659544135
 20
9056.9683976659
  0
LINE
  5
34B
330
1F
100
AcDbEntity
  8
0
  6
Continuous
 62
     7
370
    25
100
AcDbLine
 10
4035.5915742073
 20
9049.6812984837
 30
0.0
 11
4035.5915742073
 21
9048.4255949095
 31
0.0
  0
ARC
  5
34C
330
1F
100
AcDbEntity
  8
0
  6
Continuous
 62
     7
370
    25
100
AcDbCircle
 10
4034.4582006375
 20
9058.2397013403
 30
0.0
 40
8.633121979032781
100
AcDbArc
 50
240.5045195128
 51
277.5436808013
  0
LINE
  5
34D
330
1F
100
AcDbEntity
  8
0
  6
Continuous
 62
     7
370
    25
100
AcDbLine
 10
3941.3494689441
 20
9049.6812984837
 30
0.0
 11
3941.3494689441
 21
9048.4255949095
 31
0.0
  0
ARC
  5
34E
330
1F
100
AcDbEntity
  8
0
  6
Continuous
 62
     7
370
    25
100
AcDbCircle
 10
3942.4828425139
 20
9058.2397013404
 30
0.0
 40
8.633121979062679
100
AcDbArc
 50
262.4563191987
 51
299.495480487
  0
LWPOLYLINE
  5
34F
330
1F
100
AcDbEntity
  8
0
  6
Continuous
 62
     7
370
    25
100
AcDbPolyline
 90
        7
 70
   128
 43
0.0
 10
4035.5915742073
 20
9049.6812984837
 10
4036.7964215842
 20
9049.663646533
 10
4037.9260961257
 20
9049.5537949576
 10
4038.8777756526
 20
9049.3617423701
 10
4039.5648389665
 20
9049.1049692616
 10
4039.9247500498
 20
9048.8068469389
 10
4039.9705215757
 20
9048.6506786122
  0
LWPOLYLINE
  5
350
330
1F
100
AcDbEntity
  8
0
  6
Continuous
 62
     7
370
    25
100
AcDbPolyline
 90
        7
 70
   128
 43
0.0
 10
3936.9705215756
 20
9048.6506786122
 10
3937.0162931016
 20
9048.8068469389
 10
3937.3762041849
 20
9049.1049692616
 10
3938.0632674988
 20
9049.3617423701
 10
3939.0149470257
 20
9049.5537949576
 10
3940.1446215671
 20
9049.663646533
 10
3941.3494689441
 20
9049.6812984837
  0
LWPOLYLINE
  5
351
330
1F
100
AcDbEntity
  8
0
  6
Continuous
 62
     7
370
    25
100
AcDbPolyline
 90
       17
 70
   128
 43
0.0
 10
4012.2205215757
 20
8918.5086665717
 10
4013.0624251269
 20
8918.465323433
 10
4013.7761564943
 20
8918.3418926166
 10
4014.2530565472
 20
8918.1571653457
 10
4014.4205215757
 20
8917.9392646725
 10
4014.2530565472
 20
8917.7213639993
 10
4013.7761564943
 20
8917.5366367283
 10
4013.0624251269
 20
8917.413205912
 10
4012.2205215757
 20
8917.3698627733
 10
4011.3786180245
 20
8917.413205912
 10
4010.6648866571
 20
8917.5366367283
 10
4010.1879866042
 20
8917.7213639993
 10
4010.0205215757
 20
8917.9392646725
 10
4010.1879866042
 20
8918.1571653457
 10
4010.6648866571
 20
8918.3418926166
 10
4011.3786180245
 20
8918.465323433
 10
4012.2205215757
 20
8918.5086665717
  0
LWPOLYLINE
  5
352
330
1F
100
AcDbEntity
  8
0
  6
Continuous
 62
     7
370
    25
100
AcDbPolyline
 90
       17
 70
   128
 43
0.0
 10
3940.9705215757
 20
8929.1555003037
 10
3941.8124251269
 20
8929.1121571649
 10
3942.5261564943
 20
8928.9887263486
 10
3943.0030565472
 20
8928.8039990777
 10
3943.1705215757
 20
8928.5860984045
 10
3943.0030565472
 20
8928.3681977313
 10
3942.5261564943
 20
8928.1834704603
 10
3941.8124251269
 20
8928.060039644
 10
3940.9705215757
 20
8928.0166965053
 10
3940.1286180245
 20
8928.060039644
 10
3939.4148866571
 20
8928.1834704603
 10
3938.9379866041
 20
8928.3681977313
 10
3938.7705215757
 20
8928.5860984045
 10
3938.9379866041
 20
8928.8039990777
 10
3939.4148866571
 20
8928.9887263486
 10
3940.1286180245
 20
8929.1121571649
 10
3940.9705215757
 20
8929.1555003037
  0
LWPOLYLINE
  5
353
330
1F
100
AcDbEntity
  8
0
  6
Continuous
 62
     7
370
    25
100
AcDbPolyline
 90
       17
 70
   128
 43
0.0
 10
4012.2205215757
 20
8939.8023340357
 10
4013.0624251269
 20
8939.7589908969
 10
4013.7761564943
 20
8939.6355600806
 10
4014.2530565472
 20
8939.4508328097
 10
4014.4205215757
 20
8939.2329321365
 10
4014.2530565472
 20
8939.0150314633
 10
4013.7761564943
 20
8938.8303041923
 10
4013.0624251269
 20
8938.706873376
 10
4012.2205215757
 20
8938.6635302373
 10
4011.3786180245
 20
8938.706873376
 10
4010.6648866571
 20
8938.8303041923
 10
4010.1879866042
 20
8939.0150314633
 10
4010.0205215757
 20
8939.2329321365
 10
4010.1879866042
 20
8939.4508328097
 10
4010.6648866571
 20
8939.6355600806
 10
4011.3786180245
 20
8939.7589908969
 10
4012.2205215757
 20
8939.8023340357
  0
ARC
  5
354
330
1F
100
AcDbEntity
  8
0
  6
Continuous
 62
     7
370
    25
100
AcDbCircle
 10
4034.4582006375
 20
8938.1751211326
 30
0.0
 40
8.63312197906514
100
AcDbArc
 50
240.504519513
 51
277.5436808013
  0
LWPOLYLINE
  5
355
330
1F
100
AcDbEntity
  8
0
  6
Continuous
 62
     7
370
    25
100
AcDbPolyline
 90
       12
 70
   128
 43
0.0
 10
4035.5915742073
 20
8929.616718276
 10
4036.7964215842
 20
8929.5990663253
 10
4037.9260961257
 20
8929.4892147498
 10
4038.8777756526
 20
8929.2971621624
 10
4039.5648389665
 20
8929.0403890538
 10
4039.9247500498
 20
8928.7422667312
 10
4039.9247500498
 20
8928.4299300778
 10
4039.5648389665
 20
8928.1318077551
 10
4038.8777756526
 20
8927.8750346466
 10
4037.9260961257
 20
8927.6829820591
 10
4036.7964215842
 20
8927.5731304837
 10
4035.5915742073
 20
8927.555478533
  0
ARC
  5
356
330
1F
100
AcDbEntity
  8
0
  6
Continuous
 62
     7
370
    25
100
AcDbCircle
 10
4034.4582006375
 20
8918.9970756764
 30
0.0
 40
8.63312197904669
100
AcDbArc
 50
82.4563191987
 51
119.4954804871
  0
LWPOLYLINE
  5
357
330
1F
100
AcDbEntity
  8
0
  6
Continuous
 62
     7
370
    25
100
AcDbPolyline
 90
        9
 70
   128
 43
0.0
 10
4030.2076406893
 20
8926.5112978737
 10
4029.3940886818
 20
8925.6179996092
 10
4028.2956451816
 20
8924.7453639152
 10
4026.9199570589
 20
8923.8994656897
 10
4025.2766012365
 20
8923.0861936961
 10
4023.3770180195
 20
8922.3112095686
 10
4021.234431453
 20
8921.5799083988
 10
4018.8637572623
 20
8920.8973811769
 10
4016.2814990164
 20
8920.2683793508
  0
LWPOLYLINE
  5
358
330
1F
100
AcDbEntity
  8
0
  6
Continuous
 62
     7
370
    25
100
AcDbPolyline
 90
        9
 70
   128
 43
0.0
 10
4016.2814990164
 20
8920.2683793508
 10
4015.643445857
 20
8920.0964276095
 10
4015.1380958204
 20
8919.897099747
 10
4014.7826004872
 20
8919.6771609511
 10
4014.5890253691
 20
8919.4440759446
 10
4014.5639404057
 20
8919.2057556327
 10
4014.7081969806
 20
8918.970288607
 10
4015.0168990256
 20
8918.7456666184
 10
4015.4795691933
 20
8918.5395133372
  0
LWPOLYLINE
  5
359
330
1F
100
AcDbEntity
  8
0
  6
Continuous
 62
     7
370
    25
100
AcDbPolyline
 90
       12
 70
   128
 43
0.0
 10
4015.4795691933
 20
8918.5395133372
 10
4016.0229283037
 20
8918.2606282104
 10
4016.2201950389
 20
8917.9524928013
 10
4016.0534143201
 20
8917.6431533773
 10
4015.5377664104
 20
8917.3607657942
 10
4014.7201852185
 20
8917.1310327705
 10
4013.675086407
 20
8916.9748644438
 10
4012.4975941318
 20
8916.9064751449
 10
4011.2948829082
 20
8916.9320896194
 10
4010.1764226624
 20
8917.0493764559
 10
4009.2440148562
 20
8917.2476602895
 10
4008.5825265897
 20
8917.5088934657
  0
ARC
  5
35A
330
1F
100
AcDbEntity
  8
0
  6
Continuous
 62
     7
370
    25
100
AcDbCircle
 10
4004.1084644894
 20
8905.3732649988
 30
0.0
 40
12.93409099870097
100
AcDbArc
 50
69.7624996942
 51
97.60529614
  0
ARC
  5
35B
330
1F
100
AcDbEntity
  8
0
  6
Continuous
 62
     7
370
    25
100
AcDbCircle
 10
3988.4705215757
 20
9076.8546472658
 30
0.0
 40
159.2710647363252
100
AcDbArc
 50
264.9838387071
 51
275.0161612929
  0
ARC
  5
35C
330
1F
100
AcDbEntity
  8
0
  6
Continuous
 62
     7
370
    25
100
AcDbCircle
 10
3972.832578662
 20
8905.3732649988
 30
0.0
 40
12.93409099870105
100
AcDbArc
 50
82.39470386
 51
110.2375003058
  0
LWPOLYLINE
  5
35D
330
1F
100
AcDbEntity
  8
0
  6
Continuous
 62
     7
370
    25
100
AcDbPolyline
 90
       12
 70
   128
 43
0.0
 10
3968.3585165617
 20
8917.5088934657
 10
3967.6970282952
 20
8917.2476602895
 10
3966.764620489
 20
8917.0493764559
 10
3965.6461602432
 20
8916.9320896194
 10
3964.4434490196
 20
8916.9064751449
 10
3963.2659567444
 20
8916.9748644438
 10
3962.2208579329
 20
8917.1310327705
 10
3961.403276741
 20
8917.3607657942
 10
3960.8876288313
 20
8917.6431533773
 10
3960.7208481124
 20
8917.9524928013
 10
3960.9181148477
 20
8918.2606282104
 10
3961.4614739581
 20
8918.5395133372
  0
LWPOLYLINE
  5
35E
330
1F
100
AcDbEntity
  8
0
  6
Continuous
 62
     7
370
    25
100
AcDbPolyline
 90
        9
 70
   128
 43
0.0
 10
3961.4614739581
 20
8918.5395133372
 10
3961.9241441257
 20
8918.7456666184
 10
3962.2328461708
 20
8918.970288607
 10
3962.3771027457
 20
8919.2057556327
 10
3962.3520177823
 20
8919.4440759446
 10
3962.1584426642
 20
8919.6771609511
 10
3961.802947331
 20
8919.897099747
 10
3961.2975972944
 20
8920.0964276095
 10
3960.659544135
 20
8920.2683793508
  0
LWPOLYLINE
  5
35F
330
1F
100
AcDbEntity
  8
0
  6
Continuous
 62
     7
370
    25
100
AcDbPolyline
 90
        9
 70
   128
 43
0.0
 10
3960.659544135
 20
8920.2683793508
 10
3958.077285889
 20
8920.8973811769
 10
3955.7066116984
 20
8921.5799083988
 10
3953.5640251319
 20
8922.3112095686
 10
3951.6644419149
 20
8923.0861936961
 10
3950.0210860925
 20
8923.8994656897
 10
3948.6453979697
 20
8924.7453639152
 10
3947.5469544696
 20
8925.6179996092
 10
3946.7334024621
 20
8926.5112978737
  0
ARC
  5
360
330
1F
100
AcDbEntity
  8
0
  6
Continuous
 62
     7
370
    25
100
AcDbCircle
 10
3942.4828425139
 20
8918.9970756763
 30
0.0
 40
8.6331219790561
100
AcDbArc
 50
60.5045195129
 51
97.5436808013
  0
LWPOLYLINE
  5
361
330
1F
100
AcDbEntity
  8
0
  6
Continuous
 62
     7
370
    25
100
AcDbPolyline
 90
       12
 70
   128
 43
0.0
 10
3941.3494689441
 20
8927.555478533
 10
3940.1446215671
 20
8927.5731304837
 10
3939.0149470257
 20
8927.6829820591
 10
3938.0632674988
 20
8927.8750346466
 10
3937.3762041849
 20
8928.1318077551
 10
3937.0162931016
 20
8928.4299300778
 10
3937.0162931016
 20
8928.7422667312
 10
3937.3762041849
 20
8929.0403890538
 10
3938.0632674988
 20
8929.2971621624
 10
3939.0149470257
 20
8929.4892147498
 10
3940.1446215671
 20
8929.5990663253
 10
3941.3494689441
 20
8929.616718276
  0
ARC
  5
362
330
1F
100
AcDbEntity
  8
0
  6
Continuous
 62
     7
370
    25
100
AcDbCircle
 10
3942.4828425139
 20
8938.1751211326
 30
0.0
 40
8.63312197903801
100
AcDbArc
 50
262.4563191987
 51
299.4954804871
  0
LWPOLYLINE
  5
363
330
1F
100
AcDbEntity
  8
0
  6
Continuous
 62
     7
370
    25
100
AcDbPolyline
 90
        9
 70
   128
 43
0.0
 10
3946.7334024621
 20
8930.6608989352
 10
3947.5469544695
 20
8931.5541971998
 10
3948.6453979697
 20
8932.4268328937
 10
3950.0210860924
 20
8933.2727311193
 10
3951.6644419149
 20
8934.0860031129
 10
3953.5640251319
 20
8934.8609872403
 10
3955.7066116984
 20
8935.5922884101
 10
3958.077285889
 20
8936.2748156321
 10
3960.659544135
 20
8936.9038174581
  0
LWPOLYLINE
  5
364
330
1F
100
AcDbEntity
  8
0
  6
Continuous
 62
     7
370
    25
100
AcDbPolyline
 90
        9
 70
   128
 43
0.0
 10
3960.659544135
 20
8936.9038174581
 10
3961.2975972944
 20
8937.0757691995
 10
3961.802947331
 20
8937.275097062
 10
3962.1584426642
 20
8937.4950358579
 10
3962.3520177823
 20
8937.7281208644
 10
3962.3771027457
 20
8937.9664411762
 10
3962.2328461708
 20
8938.201908202
 10
3961.9241441257
 20
8938.4265301906
 10
3961.4614739581
 20
8938.6326834718
  0
LWPOLYLINE
  5
365
330
1F
100
AcDbEntity
  8
0
  6
Continuous
 62
     7
370
    25
100
AcDbPolyline
 90
       12
 70
   128
 43
0.0
 10
3961.4614739581
 20
8938.6326834718
 10
3960.9181148477
 20
8938.9115685986
 10
3960.7208481124
 20
8939.2197040077
 10
3960.8876288313
 20
8939.5290434317
 10
3961.403276741
 20
8939.8114310147
 10
3962.2208579329
 20
8940.0411640384
 10
3963.2659567444
 20
8940.1973323651
 10
3964.4434490196
 20
8940.2657216641
 10
3965.6461602432
 20
8940.2401071896
 10
3966.764620489
 20
8940.122820353
 10
3967.6970282952
 20
8939.9245365194
 10
3968.3585165617
 20
8939.6633033433
  0
ARC
  5
366
330
1F
100
AcDbEntity
  8
0
  6
Continuous
 62
     7
370
    25
100
AcDbCircle
 10
3972.832578662
 20
8951.7989318101
 30
0.0
 40
12.93409099870277
100
AcDbArc
 50
249.7624996942
 51
277.60529614
  0
ARC
  5
367
330
1F
100
AcDbEntity
  8
0
  6
Continuous
 62
     7
370
    25
100
AcDbCircle
 10
3988.4705215757
 20
8780.3175495433
 30
0.0
 40
159.2710647362011
100
AcDbArc
 50
84.9838387071
 51
95.0161612929
  0
ARC
  5
368
330
1F
100
AcDbEntity
  8
0
  6
Continuous
 62
     7
370
    25
100
AcDbCircle
 10
4004.1084644894
 20
8951.7989318101
 30
0.0
 40
12.93409099869472
100
AcDbArc
 50
262.39470386
 51
290.2375003059
  0
LWPOLYLINE
  5
369
330
1F
100
AcDbEntity
  8
0
  6
Continuous
 62
     7
370
    25
100
AcDbPolyline
 90
       12
 70
   128
 43
0.0
 10
4008.5825265896
 20
8939.6633033433
 10
4009.2440148562
 20
8939.9245365194
 10
4010.1764226624
 20
8940.122820353
 10
4011.2948829082
 20
8940.2401071896
 10
4012.4975941318
 20
8940.2657216641
 10
4013.675086407
 20
8940.1973323651
 10
4014.7201852185
 20
8940.0411640384
 10
4015.5377664104
 20
8939.8114310147
 10
4016.0534143201
 20
8939.5290434317
 10
4016.2201950389
 20
8939.2197040077
 10
4016.0229283037
 20
8938.9115685986
 10
4015.4795691933
 20
8938.6326834718
  0
LWPOLYLINE
  5
36A
330
1F
100
AcDbEntity
  8
0
  6
Continuous
 62
     7
370
    25
100
AcDbPolyline
 90
        9
 70
   128
 43
0.0
 10
4015.4795691933
 20
8938.6326834718
 10
4015.0168990256
 20
8938.4265301906
 10
4014.7081969806
 20
8938.201908202
 10
4014.5639404057
 20
8937.9664411762
 10
4014.5890253691
 20
8937.7281208644
 10
4014.7826004872
 20
8937.4950358579
 10
4015.1380958204
 20
8937.275097062
 10
4015.643445857
 20
8937.0757691995
 10
4016.2814990164
 20
8936.9038174582
  0
LWPOLYLINE
  5
36B
330
1F
100
AcDbEntity
  8
0
  6
Continuous
 62
     7
370
    25
100
AcDbPolyline
 90
        9
 70
   128
 43
0.0
 10
4016.2814990164
 20
8936.9038174582
 10
4018.8637572623
 20
8936.2748156321
 10
4021.234431453
 20
8935.5922884101
 10
4023.3770180195
 20
8934.8609872403
 10
4025.2766012365
 20
8934.0860031129
 10
4026.9199570589
 20
8933.2727311193
 10
4028.2956451816
 20
8932.4268328937
 10
4029.3940886818
 20
8931.5541971998
 10
4030.2076406892
 20
8930.6608989352
  0
LWPOLYLINE
  5
36C
330
1F
100
AcDbEntity
  8
0
  6
Continuous
 62
     7
370
    25
100
AcDbPolyline
 90
       17
 70
   128
 43
0.0
 10
4035.9705215757
 20
8929.1555003037
 10
4036.8124251269
 20
8929.112157165
 10
4037.5261564943
 20
8928.9887263486
 10
4038.0030565472
 20
8928.8039990777
 10
4038.1705215757
 20
8928.5860984045
 10
4038.0030565472
 20
8928.3681977313
 10
4037.5261564943
 20
8928.1834704603
 10
4036.8124251269
 20
8928.060039644
 10
4035.9705215757
 20
8928.0166965053
 10
4035.1286180245
 20
8928.060039644
 10
4034.4148866571
 20
8928.1834704603
 10
4033.9379866042
 20
8928.3681977313
 10
4033.7705215757
 20
8928.5860984045
 10
4033.9379866042
 20
8928.8039990777
 10
4034.4148866571
 20
8928.9887263486
 10
4035.1286180245
 20
8929.112157165
 10
4035.9705215757
 20
8929.1555003037
  0
LWPOLYLINE
  5
36D
330
1F
100
AcDbEntity
  8
0
  6
Continuous
 62
     7
370
    25
100
AcDbPolyline
 90
       17
 70
   128
 43
0.0
 10
3964.7205215757
 20
8939.8023340357
 10
3965.5624251269
 20
8939.7589908969
 10
3966.2761564943
 20
8939.6355600806
 10
3966.7530565472
 20
8939.4508328097
 10
3966.9205215757
 20
8939.2329321365
 10
3966.7530565472
 20
8939.0150314633
 10
3966.2761564943
 20
8938.8303041923
 10
3965.5624251269
 20
8938.706873376
 10
3964.7205215757
 20
8938.6635302373
 10
3963.8786180245
 20
8938.706873376
 10
3963.1648866571
 20
8938.8303041923
 10
3962.6879866041
 20
8939.0150314633
 10
3962.5205215757
 20
8939.2329321365
 10
3962.6879866041
 20
8939.4508328097
 10
3963.1648866571
 20
8939.6355600806
 10
3963.8786180245
 20
8939.7589908969
 10
3964.7205215757
 20
8939.8023340357
  0
LWPOLYLINE
  5
36E
330
1F
100
AcDbEntity
  8
0
  6
Continuous
 62
     7
370
    25
100
AcDbPolyline
 90
       17
 70
   128
 43
0.0
 10
3964.7205215757
 20
8918.5086665717
 10
3965.5624251269
 20
8918.4653234329
 10
3966.2761564943
 20
8918.3418926166
 10
3966.7530565472
 20
8918.1571653457
 10
3966.9205215757
 20
8917.9392646725
 10
3966.7530565472
 20
8917.7213639993
 10
3966.2761564943
 20
8917.5366367283
 10
3965.5624251269
 20
8917.413205912
 10
3964.7205215757
 20
8917.3698627733
 10
3963.8786180245
 20
8917.413205912
 10
3963.1648866571
 20
8917.5366367283
 10
3962.6879866042
 20
8917.7213639993
 10
3962.5205215757
 20
8917.9392646725
 10
3962.6879866042
 20
8918.1571653457
 10
3963.1648866571
 20
8918.3418926166
 10
3963.8786180245
 20
8918.4653234329
 10
3964.7205215757
 20
8918.5086665717
  0
LINE
  5
36F
330
1F
100
AcDbEntity
  8
0
  6
Continuous
 62
     7
370
    25
100
AcDbLine
 10
4008.5825265896
 20
8942.5610808221
 30
0.0
 11
4008.5825265896
 21
8939.6633033433
 31
0.0
  0
LWPOLYLINE
  5
370
330
1F
100
AcDbEntity
  8
0
  6
Continuous
 62
     7
370
    25
100
AcDbPolyline
 90
       10
 70
   128
 43
0.0
 10
4008.5825265896
 20
8942.5610808221
 10
4009.2440148562
 20
8942.8223139983
 10
4010.1764226624
 20
8943.0205978319
 10
4011.2948829082
 20
8943.1378846685
 10
4012.4975941318
 20
8943.163499143
 10
4013.675086407
 20
8943.095109844
 10
4014.7201852185
 20
8942.9389415173
 10
4015.5377664104
 20
8942.7092084936
 10
4016.0534143201
 20
8942.4268209106
 10
4016.2205215757
 20
8942.1307096153
  0
LWPOLYLINE
  5
371
330
1F
100
AcDbEntity
  8
0
  6
Continuous
 62
     7
370
    25
100
AcDbPolyline
 90
       10
 70
   128
 43
0.0
 10
3960.7205215756
 20
8942.1307096153
 10
3960.8876288313
 20
8942.4268209106
 10
3961.403276741
 20
8942.7092084936
 10
3962.2208579329
 20
8942.9389415173
 10
3963.2659567444
 20
8943.095109844
 10
3964.4434490196
 20
8943.163499143
 10
3965.6461602432
 20
8943.1378846685
 10
3966.764620489
 20
8943.0205978319
 10
3967.6970282952
 20
8942.8223139983
 10
3968.3585165617
 20
8942.5610808221
  0
LINE
  5
372
330
1F
100
AcDbEntity
  8
0
  6
Continuous
 62
     7
370
    25
100
AcDbLine
 10
3968.3585165617
 20
8942.5610808221
 30
0.0
 11
3968.3585165617
 21
8939.6633033433
 31
0.0
  0
LINE
  5
373
330
1F
100
AcDbEntity
  8
0
  6
Continuous
 62
     7
370
    25
100
AcDbLine
 10
4002.3966632486
 20
8941.8763954678
 30
0.0
 11
4002.3966632486
 21
8938.9786179889
 31
0.0
  0
ARC
  5
374
330
1F
100
AcDbEntity
  8
0
  6
Continuous
 62
     7
370
    25
100
AcDbCircle
 10
4004.1084644894
 20
8954.696709289
 30
0.0
 40
12.9340909987574
100
AcDbArc
 50
262.39470386
 51
290.2375003058
  0
LINE
  5
375
330
1F
100
AcDbEntity
  8
0
  6
Continuous
 62
     7
370
    25
100
AcDbLine
 10
3974.5443799028
 20
8941.8763954678
 30
0.0
 11
3974.5443799028
 21
8938.9786179889
 31
0.0
  0
ARC
  5
376
330
1F
100
AcDbEntity
  8
0
  6
Continuous
 62
     7
370
    25
100
AcDbCircle
 10
3972.832578662
 20
8954.696709289
 30
0.0
 40
12.93409099873648
100
AcDbArc
 50
249.7624996942
 51
277.6052961399
  0
ARC
  5
377
330
1F
100
AcDbEntity
  8
0
  6
Continuous
 62
     7
370
    25
100
AcDbCircle
 10
3988.4705215757
 20
8783.2153270219
 30
0.0
 40
159.2710647364131
100
AcDbArc
 50
84.9838387071
 51
95.0161612929
  0
LINE
  5
378
330
1F
100
AcDbEntity
  8
0
  6
Continuous
 62
     7
370
    25
100
AcDbLine
 10
4016.2814990164
 20
8939.801594937
 30
0.0
 11
4016.2814990164
 21
8936.9038174582
 31
0.0
  0
LINE
  5
379
330
1F
100
AcDbEntity
  8
0
  6
Continuous
 62
     7
370
    25
100
AcDbLine
 10
3960.659544135
 20
8939.801594937
 30
0.0
 11
3960.659544135
 21
8936.9038174581
 31
0.0
  0
LINE
  5
37A
330
1F
100
AcDbEntity
  8
0
  6
Continuous
 62
     7
370
    25
100
AcDbLine
 10
4030.2076406892
 20
8933.5586764141
 30
0.0
 11
4030.2076406892
 21
8930.6608989352
 31
0.0
  0
LWPOLYLINE
  5
37B
330
1F
100
AcDbEntity
  8
0
  6
Continuous
 62
     7
370
    25
100
AcDbPolyline
 90
        9
 70
   128
 43
0.0
 10
4016.2814990164
 20
8939.801594937
 10
4018.8637572623
 20
8939.1725931109
 10
4021.234431453
 20
8938.490065889
 10
4023.3770180195
 20
8937.7587647192
 10
4025.2766012365
 20
8936.9837805918
 10
4026.9199570589
 20
8936.1705085981
 10
4028.2956451816
 20
8935.3246103726
 10
4029.3940886818
 20
8934.4519746787
 10
4030.2076406892
 20
8933.5586764141
  0
LINE
  5
37C
330
1F
100
AcDbEntity
  8
0
  6
Continuous
 62
     7
370
    25
100
AcDbLine
 10
3946.7334024621
 20
8933.5586764141
 30
0.0
 11
3946.7334024621
 21
8930.6608989352
 31
0.0
  0
LWPOLYLINE
  5
37D
330
1F
100
AcDbEntity
  8
0
  6
Continuous
 62
     7
370
    25
100
AcDbPolyline
 90
        9
 70
   128
 43
0.0
 10
3946.7334024621
 20
8933.5586764141
 10
3947.5469544695
 20
8934.4519746787
 10
3948.6453979697
 20
8935.3246103726
 10
3950.0210860924
 20
8936.1705085981
 10
3951.6644419149
 20
8936.9837805918
 10
3953.5640251319
 20
8937.7587647192
 10
3955.7066116984
 20
8938.490065889
 10
3958.077285889
 20
8939.1725931109
 10
3960.659544135
 20
8939.801594937
  0
LINE
  5
37E
330
1F
100
AcDbEntity
  8
0
  6
Continuous
 62
     7
370
    25
100
AcDbLine
 10
4035.5915742073
 20
8932.5144957548
 30
0.0
 11
4035.5915742073
 21
8929.616718276
 31
0.0
  0
ARC
  5
37F
330
1F
100
AcDbEntity
  8
0
  6
Continuous
 62
     7
370
    25
100
AcDbCircle
 10
4034.4582006375
 20
8941.0728986115
 30
0.0
 40
8.633121979045239
100
AcDbArc
 50
240.5045195129
 51
277.5436808013
  0
LINE
  5
380
330
1F
100
AcDbEntity
  8
0
  6
Continuous
 62
     7
370
    25
100
AcDbLine
 10
3941.3494689441
 20
8932.5144957548
 30
0.0
 11
3941.3494689441
 21
8929.616718276
 31
0.0
  0
ARC
  5
381
330
1F
100
AcDbEntity
  8
0
  6
Continuous
 62
     7
370
    25
100
AcDbCircle
 10
3942.4828425139
 20
8941.0728986115
 30
0.0
 40
8.633121979080503
100
AcDbArc
 50
262.4563191988
 51
299.495480487
  0
LWPOLYLINE
  5
382
330
1F
100
AcDbEntity
  8
0
  6
Continuous
 62
     7
370
    25
100
AcDbPolyline
 90
        7
 70
   128
 43
0.0
 10
4035.5915742073
 20
8932.5144957548
 10
4036.7964215842
 20
8932.4968438042
 10
4037.9260961257
 20
8932.3869922287
 10
4038.8777756526
 20
8932.1949396413
 10
4039.5648389665
 20
8931.9381665327
 10
4039.9247500498
 20
8931.6400442101
 10
4039.9705215757
 20
8931.4838758834
  0
LWPOLYLINE
  5
383
330
1F
100
AcDbEntity
  8
0
  6
Continuous
 62
     7
370
    25
100
AcDbPolyline
 90
        7
 70
   128
 43
0.0
 10
3936.9705215756
 20
8931.4838758833
 10
3937.0162931016
 20
8931.6400442101
 10
3937.3762041849
 20
8931.9381665327
 10
3938.0632674988
 20
8932.1949396413
 10
3939.0149470257
 20
8932.3869922287
 10
3940.1446215671
 20
8932.4968438042
 10
3941.3494689441
 20
8932.5144957548
  0
LINE
  5
384
330
1F
100
AcDbEntity
  8
0
  6
Continuous
 62
     7
370
    25
100
AcDbLine
 10
4650.462604406
 20
8927.5508222241
 30
0.0
 11
4658.1900110164
 21
8929.6213745849
 31
0.0
  0
LINE
  5
385
330
1F
100
AcDbEntity
  8
0
  6
Continuous
 62
     7
370
    25
100
AcDbLine
 10
4649.6861472707
 20
8930.4485997029
 30
0.0
 11
4657.413553881
 21
8932.5191520638
 31
0.0
  0
LINE
  5
386
330
1F
100
AcDbEntity
  8
0
  6
Continuous
 62
     7
370
    25
100
AcDbLine
 10
4661.2931115722
 20
8933.5586764141
 30
0.0
 11
4662.0695687075
 21
8930.6608989352
 31
0.0
  0
LINE
  5
387
330
1F
100
AcDbEntity
  8
0
  6
Continuous
 62
     7
370
    25
100
AcDbLine
 10
4658.1900110164
 20
8929.6213745849
 30
0.0
 11
4662.0695687075
 21
8930.6608989352
 31
0.0
  0
LINE
  5
388
330
1F
100
AcDbEntity
  8
0
  6
Continuous
 62
     7
370
    25
100
AcDbLine
 10
4657.413553881
 20
8932.5191520638
 30
0.0
 11
4661.2931115722
 21
8933.5586764141
 31
0.0
  0
LINE
  5
389
330
1F
100
AcDbEntity
  8
0
  6
Continuous
 62
     7
370
    25
100
AcDbLine
 10
4645.8065895795
 20
8929.4090753526
 30
0.0
 11
4646.5830467148
 21
8926.5112978737
 31
0.0
  0
LINE
  5
38A
330
1F
100
AcDbEntity
  8
0
  6
Continuous
 62
     7
370
    25
100
AcDbLine
 10
4646.5830467148
 20
8926.5112978737
 30
0.0
 11
4650.462604406
 21
8927.5508222241
 31
0.0
  0
LINE
  5
38B
330
1F
100
AcDbEntity
  8
0
  6
Continuous
 62
     7
370
    25
100
AcDbLine
 10
4645.8065895795
 20
8929.4090753526
 30
0.0
 11
4649.6861472707
 21
8930.4485997029
 31
0.0
  0
LINE
  5
38C
330
1F
100
AcDbEntity
  8
0
  6
Continuous
 62
     7
370
    25
100
AcDbLine
 10
4684.5920006872
 20
8939.801594937
 30
0.0
 11
4685.3684578225
 21
8936.9038174581
 31
0.0
  0
LINE
  5
38D
330
1F
100
AcDbEntity
  8
0
  6
Continuous
 62
     7
370
    25
100
AcDbLine
 10
4662.0695687075
 20
8930.6608989352
 30
0.0
 11
4685.3684578225
 21
8936.9038174581
 31
0.0
  0
LINE
  5
38E
330
1F
100
AcDbEntity
  8
0
  6
Continuous
 62
     7
370
    25
100
AcDbLine
 10
4661.2931115722
 20
8933.5586764141
 30
0.0
 11
4684.5920006872
 21
8939.801594937
 31
0.0
  0
LINE
  5
38F
330
1F
100
AcDbEntity
  8
0
  6
Continuous
 62
     7
370
    25
100
AcDbLine
 10
4622.5077004645
 20
8923.1661568297
 30
0.0
 11
4623.2841575998
 21
8920.2683793508
 31
0.0
  0
LINE
  5
390
330
1F
100
AcDbEntity
  8
0
  6
Continuous
 62
     7
370
    25
100
AcDbLine
 10
4623.2841575998
 20
8920.2683793508
 30
0.0
 11
4646.5830467148
 21
8926.5112978737
 31
0.0
  0
LINE
  5
391
330
1F
100
AcDbEntity
  8
0
  6
Continuous
 62
     7
370
    25
100
AcDbLine
 10
4622.5077004645
 20
8923.1661568297
 30
0.0
 11
4645.8065895795
 21
8929.4090753526
 31
0.0
  0
LINE
  5
392
330
1F
100
AcDbEntity
  8
0
  6
Continuous
 62
     7
370
    25
100
AcDbLine
 10
4691.0442164896
 20
8941.5304609507
 30
0.0
 11
4691.8206736249
 21
8938.6326834718
 31
0.0
  0
LINE
  5
393
330
1F
100
AcDbEntity
  8
0
  6
Continuous
 62
     7
370
    25
100
AcDbLine
 10
4685.3684578225
 20
8936.9038174581
 30
0.0
 11
4691.8206736249
 21
8938.6326834718
 31
0.0
  0
LINE
  5
394
330
1F
100
AcDbEntity
  8
0
  6
Continuous
 62
     7
370
    25
100
AcDbLine
 10
4684.5920006872
 20
8939.801594937
 30
0.0
 11
4691.0442164896
 21
8941.5304609507
 31
0.0
  0
LINE
  5
395
330
1F
100
AcDbEntity
  8
0
  6
Continuous
 62
     7
370
    25
100
AcDbLine
 10
4616.0554846621
 20
8921.437290816
 30
0.0
 11
4616.8319417974
 21
8918.5395133372
 31
0.0
  0
LINE
  5
396
330
1F
100
AcDbEntity
  8
0
  6
Continuous
 62
     7
370
    25
100
AcDbLine
 10
4616.8319417974
 20
8918.5395133372
 30
0.0
 11
4623.2841575998
 21
8920.2683793508
 31
0.0
  0
LINE
  5
397
330
1F
100
AcDbEntity
  8
0
  6
Continuous
 62
     7
370
    25
100
AcDbLine
 10
4616.0554846621
 20
8921.437290816
 30
0.0
 11
4622.5077004645
 21
8923.1661568297
 31
0.0
  0
LINE
  5
398
330
1F
100
AcDbEntity
  8
0
  6
Continuous
 62
     7
370
    25
100
AcDbLine
 10
4691.8206736249
 20
8938.6326834718
 30
0.0
 11
4697.9245354439
 21
8940.2682083169
 31
0.0
  0
LINE
  5
399
330
1F
100
AcDbEntity
  8
0
  6
Continuous
 62
     7
370
    25
100
AcDbLine
 10
4691.0442164896
 20
8941.5304609507
 30
0.0
 11
4697.1480783086
 21
8943.1659857958
 31
0.0
  0
LINE
  5
39A
330
1F
100
AcDbEntity
  8
0
  6
Continuous
 62
     7
370
    25
100
AcDbLine
 10
4610.7280799784
 20
8916.9039884921
 30
0.0
 11
4616.8319417974
 21
8918.5395133372
 31
0.0
  0
LINE
  5
39B
330
1F
100
AcDbEntity
  8
0
  6
Continuous
 62
     7
370
    25
100
AcDbLine
 10
4609.9516228431
 20
8919.8017659709
 30
0.0
 11
4616.0554846621
 21
8921.437290816
 31
0.0
  0
ARC
  5
39C
330
1F
100
AcDbEntity
  8
0
  6
Continuous
 62
     7
370
    25
100
AcDbCircle
 10
3960.7364909164
 20
8922.8632526158
 30
0.0
 40
2.922829562469391
100
AcDbArc
 50
227.0275362448
 51
269.6869539051
  0
LWPOLYLINE
  5
39D
330
1F
100
AcDbEntity
  8
0
  6
Continuous
 62
     7
370
    25
100
AcDbPolyline
 90
        5
 70
   128
 43
0.0
 10
3934.9705215757
 20
8931.4838758834
 10
3935.0162931016
 20
8931.3277075566
 10
3935.3762041849
 20
8931.029585234
 10
3936.0632674988
 20
8930.7728121254
 10
3936.9705215756
 20
8930.5873004112
  0
LWPOLYLINE
  5
39E
330
1F
100
AcDbEntity
  8
0
  6
Continuous
 62
     7
370
    25
100
AcDbPolyline
 90
        7
 70
   128
 43
0.0
 10
3958.7205215757
 20
8917.9392646725
 10
3958.8876288313
 20
8917.6431533773
 10
3959.403276741
 20
8917.3607657942
 10
3960.2208579329
 20
8917.1310327705
 10
3961.2659567444
 20
8916.9748644438
 10
3962.4434490196
 20
8916.9064751449
 10
3962.4705215757
 20
8916.9060124944
  0
LWPOLYLINE
  5
39F
330
1F
100
AcDbEntity
  8
0
  6
Continuous
 62
     7
370
    25
100
AcDbPolyline
 90
        9
 70
   128
 43
0.0
 10
3944.7334024622
 20
8926.5112978737
 10
3945.5469544696
 20
8925.6179996092
 10
3946.6453979698
 20
8924.7453639152
 10
3948.0210860925
 20
8923.8994656897
 10
3949.6644419149
 20
8923.0861936961
 10
3951.5640251319
 20
8922.3112095686
 10
3953.7066116984
 20
8921.5799083988
 10
3956.0772858891
 20
8920.8973811769
 10
3958.659544135
 20
8920.2683793508
  0
ARC
  5
3A0
330
1F
100
AcDbEntity
  8
0
  6
Continuous
 62
     7
370
    25
100
AcDbCircle
 10
3940.4828425139
 20
8918.9970756764
 30
0.0
 40
8.63312197904669
100
AcDbArc
 50
60.5045195129
 51
97.5436808013
  0
LWPOLYLINE
  5
3A1
330
1F
100
AcDbEntity
  8
0
  6
Continuous
 62
     7
370
    25
100
AcDbPolyline
 90
        7
 70
   128
 43
0.0
 10
3934.9705215757
 20
8928.5860984045
 10
3935.0162931016
 20
8928.4299300778
 10
3935.3762041849
 20
8928.1318077551
 10
3936.0632674988
 20
8927.8750346466
 10
3937.0149470257
 20
8927.6829820591
 10
3938.1446215672
 20
8927.5731304837
 10
3939.3494689441
 20
8927.555478533
  0
LINE
  5
3A2
330
1F
100
AcDbEntity
  8
0
  6
Continuous
 62
     7
370
    25
100
AcDbLine
 10
3317.5274892703
 20
8932.5191520638
 30
0.0
 11
3325.2548958807
 21
8930.4485997029
 31
0.0
  0
LINE
  5
3A3
330
1F
100
AcDbEntity
  8
0
  6
Continuous
 62
     7
370
    25
100
AcDbLine
 10
3316.751032135
 20
8929.6213745849
 30
0.0
 11
3324.4784387454
 21
8927.5508222241
 31
0.0
  0
LINE
  5
3A4
330
1F
100
AcDbEntity
  8
0
  6
Continuous
 62
     7
370
    25
100
AcDbLine
 10
3329.1344535719
 20
8929.4090753526
 30
0.0
 11
3328.3579964366
 21
8926.5112978737
 31
0.0
  0
LINE
  5
3A5
330
1F
100
AcDbEntity
  8
0
  6
Continuous
 62
     7
370
    25
100
AcDbLine
 10
3325.2548958807
 20
8930.4485997029
 30
0.0
 11
3329.1344535719
 21
8929.4090753526
 31
0.0
  0
LINE
  5
3A6
330
1F
100
AcDbEntity
  8
0
  6
Continuous
 62
     7
370
    25
100
AcDbLine
 10
3324.4784387454
 20
8927.5508222241
 30
0.0
 11
3328.3579964366
 21
8926.5112978737
 31
0.0
  0
LINE
  5
3A7
330
1F
100
AcDbEntity
  8
0
  6
Continuous
 62
     7
370
    25
100
AcDbLine
 10
3313.6479315792
 20
8933.5586764141
 30
0.0
 11
3312.8714744439
 21
8930.6608989352
 31
0.0
  0
LINE
  5
3A8
330
1F
100
AcDbEntity
  8
0
  6
Continuous
 62
     7
370
    25
100
AcDbLine
 10
3313.6479315792
 20
8933.5586764141
 30
0.0
 11
3317.5274892704
 21
8932.5191520638
 31
0.0
  0
LINE
  5
3A9
330
1F
100
AcDbEntity
  8
0
  6
Continuous
 62
     7
370
    25
100
AcDbLine
 10
3312.8714744439
 20
8930.6608989352
 30
0.0
 11
3316.751032135
 21
8929.6213745849
 31
0.0
  0
LINE
  5
3AA
330
1F
100
AcDbEntity
  8
0
  6
Continuous
 62
     7
370
    25
100
AcDbLine
 10
3352.4333426869
 20
8923.1661568297
 30
0.0
 11
3351.6568855516
 21
8920.2683793508
 31
0.0
  0
LINE
  5
3AB
330
1F
100
AcDbEntity
  8
0
  6
Continuous
 62
     7
370
    25
100
AcDbLine
 10
3329.1344535719
 20
8929.4090753526
 30
0.0
 11
3352.4333426869
 21
8923.1661568297
 31
0.0
  0
LINE
  5
3AC
330
1F
100
AcDbEntity
  8
0
  6
Continuous
 62
     7
370
    25
100
AcDbLine
 10
3328.3579964366
 20
8926.5112978737
 30
0.0
 11
3351.6568855516
 21
8920.2683793508
 31
0.0
  0
LINE
  5
3AD
330
1F
100
AcDbEntity
  8
0
  6
Continuous
 62
     7
370
    25
100
AcDbLine
 10
3290.3490424642
 20
8939.801594937
 30
0.0
 11
3289.5725853289
 21
8936.9038174582
 31
0.0
  0
LINE
  5
3AE
330
1F
100
AcDbEntity
  8
0
  6
Continuous
 62
     7
370
    25
100
AcDbLine
 10
3290.3490424642
 20
8939.801594937
 30
0.0
 11
3313.6479315792
 21
8933.5586764141
 31
0.0
  0
LINE
  5
3AF
330
1F
100
AcDbEntity
  8
0
  6
Continuous
 62
     7
370
    25
100
AcDbLine
 10
3289.5725853289
 20
8936.9038174582
 30
0.0
 11
3312.8714744439
 21
8930.6608989352
 31
0.0
  0
LINE
  5
3B0
330
1F
100
AcDbEntity
  8
0
  6
Continuous
 62
     7
370
    25
100
AcDbLine
 10
3358.8855584893
 20
8921.437290816
 30
0.0
 11
3358.109101354
 21
8918.5395133372
 31
0.0
  0
LINE
  5
3B1
330
1F
100
AcDbEntity
  8
0
  6
Continuous
 62
     7
370
    25
100
AcDbLine
 10
3352.4333426869
 20
8923.1661568297
 30
0.0
 11
3358.8855584893
 21
8921.437290816
 31
0.0
  0
LINE
  5
3B2
330
1F
100
AcDbEntity
  8
0
  6
Continuous
 62
     7
370
    25
100
AcDbLine
 10
3351.6568855516
 20
8920.2683793508
 30
0.0
 11
3358.109101354
 21
8918.5395133372
 31
0.0
  0
LINE
  5
3B3
330
1F
100
AcDbEntity
  8
0
  6
Continuous
 62
     7
370
    25
100
AcDbLine
 10
3283.8968266618
 20
8941.5304609507
 30
0.0
 11
3283.1203695265
 21
8938.6326834718
 31
0.0
  0
LINE
  5
3B4
330
1F
100
AcDbEntity
  8
0
  6
Continuous
 62
     7
370
    25
100
AcDbLine
 10
3283.8968266618
 20
8941.5304609507
 30
0.0
 11
3290.3490424642
 21
8939.801594937
 31
0.0
  0
LINE
  5
3B5
330
1F
100
AcDbEntity
  8
0
  6
Continuous
 62
     7
370
    25
100
AcDbLine
 10
3283.1203695265
 20
8938.6326834718
 30
0.0
 11
3289.5725853289
 21
8936.9038174582
 31
0.0
  0
LINE
  5
3B6
330
1F
100
AcDbEntity
  8
0
  6
Continuous
 62
     7
370
    25
100
AcDbLine
 10
3358.8855584893
 20
8921.437290816
 30
0.0
 11
3364.9894203083
 21
8919.8017659709
 31
0.0
  0
LINE
  5
3B7
330
1F
100
AcDbEntity
  8
0
  6
Continuous
 62
     7
370
    25
100
AcDbLine
 10
3358.109101354
 20
8918.5395133372
 30
0.0
 11
3364.212963173
 21
8916.9039884921
 31
0.0
  0
LINE
  5
3B8
330
1F
100
AcDbEntity
  8
0
  6
Continuous
 62
     7
370
    25
100
AcDbLine
 10
3277.7929648428
 20
8943.1659857958
 30
0.0
 11
3283.8968266618
 21
8941.5304609507
 31
0.0
  0
LINE
  5
3B9
330
1F
100
AcDbEntity
  8
0
  6
Continuous
 62
     7
370
    25
100
AcDbLine
 10
3277.0165077075
 20
8940.2682083169
 30
0.0
 11
3283.1203695265
 21
8938.6326834718
 31
0.0
  0
LWPOLYLINE
  5
3BA
330
1F
100
AcDbEntity
  8
0
  6
Continuous
 62
     7
370
    25
100
AcDbPolyline
 90
        5
 70
   128
 43
0.0
 10
3934.9705215757
 20
9047.394975038
 10
3935.0162931016
 20
9047.2388067113
 10
3935.3762041849
 20
9046.9406843887
 10
3936.0632674988
 20
9046.6839112801
 10
3936.9705215756
 20
9046.4983995659
  0
LWPOLYLINE
  5
3BB
330
1F
100
AcDbEntity
  8
0
  6
Continuous
 62
     7
370
    25
100
AcDbPolyline
 90
        4
 70
   128
 43
0.0
 10
3958.7205215757
 20
9058.04180877
 10
3958.7208481125
 20
9058.0285806412
 10
3958.9181148477
 20
9057.7204452322
 10
3959.4614739581
 20
9057.4415601053
  0
LWPOLYLINE
  5
3BC
330
1F
100
AcDbEntity
  8
0
  6
Continuous
 62
     7
370
    25
100
AcDbPolyline
 90
        5
 70
   128
 43
0.0
 10
3934.9705215757
 20
8931.4838758833
 10
3935.0162931016
 20
8931.3277075566
 10
3935.3762041849
 20
8931.029585234
 10
3936.0632674988
 20
8930.7728121254
 10
3936.9705215756
 20
8930.5873004112
  0
LINE
  5
3BD
330
1F
100
AcDbEntity
  8
0
  6
Continuous
 62
     7
370
    25
100
AcDbLine
 10
4630.2348261599
 20
9049.4697755688
 30
0.0
 11
4661.2931115722
 21
8933.5586764141
 31
0.0
  0
LINE
  5
3BE
330
1F
100
AcDbEntity
  8
0
  6
Continuous
 62
     7
370
    25
100
AcDbLine
 10
4653.5337152749
 20
9055.7126940917
 30
0.0
 11
4684.5920006872
 21
8939.801594937
 31
0.0
  0
LINE
  5
3BF
330
1F
100
AcDbEntity
  8
0
  6
Continuous
 62
     7
370
    25
100
AcDbLine
 10
4614.7483041672
 20
9045.3201745073
 30
0.0
 11
4645.8065895795
 21
8929.4090753526
 31
0.0
  0
LINE
  5
3C0
330
1F
100
AcDbEntity
  8
0
  6
Continuous
 62
     7
370
    25
100
AcDbLine
 10
4591.4494150522
 20
9039.0772559844
 30
0.0
 11
4622.5077004645
 21
8923.1661568297
 31
0.0
  0
LINE
  5
3C1
330
1F
100
AcDbEntity
  8
0
  6
Continuous
 62
     7
370
    25
100
AcDbLine
 10
4659.9859310773
 20
9057.4415601053
 30
0.0
 11
4691.0442164896
 21
8941.5304609507
 31
0.0
  0
LINE
  5
3C2
330
1F
100
AcDbEntity
  8
0
  6
Continuous
 62
     7
370
    25
100
AcDbLine
 10
4584.9971992498
 20
9037.3483899707
 30
0.0
 11
4616.0554846621
 21
8921.437290816
 31
0.0
  0
LINE
  5
3C3
330
1F
100
AcDbEntity
  8
0
  6
Continuous
 62
     7
370
    25
100
AcDbLine
 10
4576.6100884148
 20
9035.1010703957
 30
0.0
 11
4607.6683738271
 21
8919.189971241
 31
0.0
  0
LINE
  5
3C4
330
1F
100
AcDbEntity
  8
0
  6
Continuous
 62
     7
370
    25
100
AcDbLine
 10
4607.6683738271
 20
8919.189971241
 30
0.0
 11
4609.9516228431
 21
8919.8017659709
 31
0.0
  0
LINE
  5
3C5
330
1F
100
AcDbEntity
  8
0
  6
Continuous
 62
     7
370
    25
100
AcDbLine
 10
4576.6100884148
 20
9035.1010703957
 30
0.0
 11
4578.8933374308
 21
9035.7128651256
 31
0.0
  0
LINE
  5
3C6
330
1F
100
AcDbEntity
  8
0
  6
Continuous
 62
     7
370
    25
100
AcDbLine
 10
4574.6782367623
 20
9034.5834323055
 30
0.0
 11
4584.7721795213
 21
8996.9123250802
 31
0.0
  0
LINE
  5
3C7
330
1F
100
AcDbEntity
  8
0
  6
Continuous
 62
     7
370
    25
100
AcDbLine
 10
4595.1249413254
 20
8958.2752920286
 30
0.0
 11
4605.7365221746
 21
8918.6723331508
 31
0.0
  0
LINE
  5
3C8
330
1F
100
AcDbEntity
  8
0
  6
Continuous
 62
     7
370
    25
100
AcDbLine
 10
4605.7365221746
 20
8918.6723331508
 30
0.0
 11
4607.6683738271
 21
8919.189971241
 31
0.0
  0
LINE
  5
3C9
330
1F
100
AcDbEntity
  8
0
  6
Continuous
 62
     7
370
    25
100
AcDbLine
 10
4574.6782367623
 20
9034.5834323055
 30
0.0
 11
4576.6100884148
 21
9035.1010703957
 31
0.0
  0
LWPOLYLINE
  5
3CA
330
1F
100
AcDbEntity
  8
0
  6
Continuous
 62
     7
370
    25
100
AcDbPolyline
 90
       10
 70
   128
 43
0.0
 10
4008.5825265896
 20
8942.5610808221
 10
4009.2440148562
 20
8942.8223139983
 10
4010.1764226624
 20
8943.0205978319
 10
4011.2948829082
 20
8943.1378846685
 10
4012.4975941318
 20
8943.163499143
 10
4013.675086407
 20
8943.095109844
 10
4014.7201852185
 20
8942.9389415173
 10
4015.5377664104
 20
8942.7092084936
 10
4016.0534143201
 20
8942.4268209106
 10
4016.2205215757
 20
8942.1307096154
  0
LWPOLYLINE
  5
3CB
330
1F
100
AcDbEntity
  8
0
  6
Continuous
 62
     7
370
    25
100
AcDbPolyline
 90
        9
 70
   128
 43
0.0
 10
4016.2814990164
 20
8939.801594937
 10
4018.8637572623
 20
8939.1725931109
 10
4021.234431453
 20
8938.490065889
 10
4023.3770180195
 20
8937.7587647192
 10
4025.2766012365
 20
8936.9837805918
 10
4026.9199570589
 20
8936.1705085981
 10
4028.2956451816
 20
8935.3246103726
 10
4029.3940886818
 20
8934.4519746787
 10
4030.2076406893
 20
8933.5586764141
  0
LWPOLYLINE
  5
3CC
330
1F
100
AcDbEntity
  8
0
  6
Continuous
 62
     7
370
    25
100
AcDbPolyline
 90
        7
 70
   128
 43
0.0
 10
4035.5915742073
 20
8932.5144957548
 10
4036.7964215842
 20
8932.4968438042
 10
4037.9260961257
 20
8932.3869922287
 10
4038.8777756526
 20
8932.1949396413
 10
4039.5648389665
 20
8931.9381665327
 10
4039.9247500498
 20
8931.6400442101
 10
4039.9705215757
 20
8931.4838758833
  0
LWPOLYLINE
  5
3CD
330
1F
100
AcDbEntity
  8
0
  6
Continuous
 62
     7
370
    25
100
AcDbPolyline
 90
        7
 70
   128
 43
0.0
 10
3936.9705215756
 20
8931.4838758833
 10
3937.0162931016
 20
8931.6400442101
 10
3937.3762041849
 20
8931.9381665327
 10
3938.0632674988
 20
8932.1949396413
 10
3939.0149470257
 20
8932.3869922287
 10
3940.1446215671
 20
8932.4968438042
 10
3941.3494689441
 20
8932.5144957548
  0
LWPOLYLINE
  5
3CE
330
1F
100
AcDbEntity
  8
0
  6
Continuous
 62
     7
370
    25
100
AcDbPolyline
 90
        9
 70
   128
 43
0.0
 10
3946.7334024621
 20
8933.5586764141
 10
3947.5469544695
 20
8934.4519746787
 10
3948.6453979697
 20
8935.3246103726
 10
3950.0210860924
 20
8936.1705085981
 10
3951.6644419149
 20
8936.9837805918
 10
3953.5640251319
 20
8937.7587647192
 10
3955.7066116984
 20
8938.490065889
 10
3958.077285889
 20
8939.1725931109
 10
3960.659544135
 20
8939.801594937
  0
LWPOLYLINE
  5
3CF
330
1F
100
AcDbEntity
  8
0
  6
Continuous
 62
     7
370
    25
100
AcDbPolyline
 90
       10
 70
   128
 43
0.0
 10
3960.7205215756
 20
8942.1307096154
 10
3960.8876288313
 20
8942.4268209106
 10
3961.403276741
 20
8942.7092084936
 10
3962.2208579329
 20
8942.9389415173
 10
3963.2659567444
 20
8943.095109844
 10
3964.4434490196
 20
8943.163499143
 10
3965.6461602432
 20
8943.1378846685
 10
3966.764620489
 20
8943.0205978319
 10
3967.6970282952
 20
8942.8223139983
 10
3968.3585165617
 20
8942.5610808221
  0
LINE
  5
3D0
330
1F
100
AcDbEntity
  8
0
  6
Continuous
 62
     7
370
    25
100
AcDbLine
 10
3974.5443799028
 20
9057.7874946225
 30
0.0
 11
3974.5443799028
 21
8941.8763954678
 31
0.0
  0
LINE
  5
3D1
330
1F
100
AcDbEntity
  8
0
  6
Continuous
 62
     7
370
    25
100
AcDbLine
 10
4002.3966632486
 20
9057.7874946225
 30
0.0
 11
4002.3966632486
 21
8941.8763954678
 31
0.0
  0
LINE
  5
3D2
330
1F
100
AcDbEntity
  8
0
  6
Continuous
 62
     7
370
    25
100
AcDbLine
 10
4008.5825265896
 20
9058.4721799768
 30
0.0
 11
4008.5825265896
 21
8942.5610808221
 31
0.0
  0
LWPOLYLINE
  5
3D3
330
1F
100
AcDbEntity
  8
0
  6
Continuous
 62
     7
370
    25
100
AcDbPolyline
 90
       10
 70
   128
 43
0.0
 10
4008.5825265896
 20
9058.4721799768
 10
4009.2440148562
 20
9058.733413153
 10
4010.1764226624
 20
9058.9316969866
 10
4011.2948829082
 20
9059.0489838232
 10
4012.4975941318
 20
9059.0745982977
 10
4013.675086407
 20
9059.0062089987
 10
4014.7201852185
 20
9058.850040672
 10
4015.5377664104
 20
9058.6203076483
 10
4016.0534143201
 20
9058.3379200653
 10
4016.2205215757
 20
9058.04180877
  0
LWPOLYLINE
  5
3D4
330
1F
100
AcDbEntity
  8
0
  6
Continuous
 62
     7
370
    25
100
AcDbPolyline
 90
       10
 70
   128
 43
0.0
 10
3960.7205215756
 20
9058.04180877
 10
3960.8876288313
 20
9058.3379200653
 10
3961.403276741
 20
9058.6203076483
 10
3962.2208579329
 20
9058.850040672
 10
3963.2659567444
 20
9059.0062089987
 10
3964.4434490196
 20
9059.0745982977
 10
3965.6461602432
 20
9059.0489838232
 10
3966.764620489
 20
9058.9316969866
 10
3967.6970282952
 20
9058.733413153
 10
3968.3585165617
 20
9058.4721799768
  0
LINE
  5
3D5
330
1F
100
AcDbEntity
  8
0
  6
Continuous
 62
     7
370
    25
100
AcDbLine
 10
3968.3585165617
 20
9058.4721799768
 30
0.0
 11
3968.3585165617
 21
8942.5610808221
 31
0.0
  0
LINE
  5
3D6
330
1F
100
AcDbEntity
  8
0
  6
Continuous
 62
     7
370
    25
100
AcDbLine
 10
3960.659544135
 20
9055.7126940917
 30
0.0
 11
3960.659544135
 21
8939.801594937
 31
0.0
  0
LINE
  5
3D7
330
1F
100
AcDbEntity
  8
0
  6
Continuous
 62
     7
370
    25
100
AcDbLine
 10
4016.2814990164
 20
9055.7126940917
 30
0.0
 11
4016.2814990164
 21
8939.801594937
 31
0.0
  0
LINE
  5
3D8
330
1F
100
AcDbEntity
  8
0
  6
Continuous
 62
     7
370
    25
100
AcDbLine
 10
4030.2076406892
 20
9049.4697755688
 30
0.0
 11
4030.2076406893
 21
8933.5586764141
 31
0.0
  0
LWPOLYLINE
  5
3D9
330
1F
100
AcDbEntity
  8
0
  6
Continuous
 62
     7
370
    25
100
AcDbPolyline
 90
        9
 70
   128
 43
0.0
 10
4016.2814990164
 20
9055.7126940917
 10
4018.8637572623
 20
9055.0836922656
 10
4021.234431453
 20
9054.4011650437
 10
4023.3770180195
 20
9053.6698638739
 10
4025.2766012365
 20
9052.8948797465
 10
4026.9199570589
 20
9052.0816077528
 10
4028.2956451816
 20
9051.2357095273
 10
4029.3940886818
 20
9050.3630738334
 10
4030.2076406892
 20
9049.4697755688
  0
LINE
  5
3DA
330
1F
100
AcDbEntity
  8
0
  6
Continuous
 62
     7
370
    25
100
AcDbLine
 10
3946.7334024621
 20
9049.4697755688
 30
0.0
 11
3946.7334024621
 21
8933.5586764141
 31
0.0
  0
LWPOLYLINE
  5
3DB
330
1F
100
AcDbEntity
  8
0
  6
Continuous
 62
     7
370
    25
100
AcDbPolyline
 90
        9
 70
   128
 43
0.0
 10
3946.7334024621
 20
9049.4697755688
 10
3947.5469544695
 20
9050.3630738334
 10
3948.6453979697
 20
9051.2357095273
 10
3950.0210860924
 20
9052.0816077528
 10
3951.6644419149
 20
9052.8948797465
 10
3953.5640251319
 20
9053.6698638739
 10
3955.7066116984
 20
9054.4011650437
 10
3958.077285889
 20
9055.0836922656
 10
3960.659544135
 20
9055.7126940917
  0
LINE
  5
3DC
330
1F
100
AcDbEntity
  8
0
  6
Continuous
 62
     7
370
    25
100
AcDbLine
 10
4035.5915742073
 20
9048.4255949095
 30
0.0
 11
4035.5915742073
 21
8932.5144957548
 31
0.0
  0
LINE
  5
3DD
330
1F
100
AcDbEntity
  8
0
  6
Continuous
 62
     7
370
    25
100
AcDbLine
 10
3941.3494689441
 20
9048.4255949095
 30
0.0
 11
3941.3494689441
 21
8932.5144957548
 31
0.0
  0
LWPOLYLINE
  5
3DE
330
1F
100
AcDbEntity
  8
0
  6
Continuous
 62
     7
370
    25
100
AcDbPolyline
 90
        7
 70
   128
 43
0.0
 10
4035.5915742073
 20
9048.4255949095
 10
4036.7964215842
 20
9048.4079429589
 10
4037.9260961257
 20
9048.2980913834
 10
4038.8777756526
 20
9048.106038796
 10
4039.5648389665
 20
9047.8492656874
 10
4039.9247500498
 20
9047.5511433648
 10
4039.9705215757
 20
9047.394975038
  0
LWPOLYLINE
  5
3DF
330
1F
100
AcDbEntity
  8
0
  6
Continuous
 62
     7
370
    25
100
AcDbPolyline
 90
        7
 70
   128
 43
0.0
 10
3936.9705215756
 20
9047.394975038
 10
3937.0162931016
 20
9047.5511433648
 10
3937.3762041849
 20
9047.8492656874
 10
3938.0632674988
 20
9048.1060387959
 10
3939.0149470257
 20
9048.2980913834
 10
3940.1446215671
 20
9048.4079429589
 10
3941.3494689441
 20
9048.4255949095
  0
LINE
  5
3E0
330
1F
100
AcDbEntity
  8
0
  6
Continuous
 62
     7
370
    25
100
AcDbLine
 10
3360.1927389842
 20
9045.3201745073
 30
0.0
 11
3329.1344535719
 21
8929.4090753526
 31
0.0
  0
LINE
  5
3E1
330
1F
100
AcDbEntity
  8
0
  6
Continuous
 62
     7
370
    25
100
AcDbLine
 10
3383.4916280992
 20
9039.0772559844
 30
0.0
 11
3352.4333426869
 21
8923.1661568297
 31
0.0
  0
LINE
  5
3E2
330
1F
100
AcDbEntity
  8
0
  6
Continuous
 62
     7
370
    25
100
AcDbLine
 10
3344.7062169915
 20
9049.4697755688
 30
0.0
 11
3313.6479315792
 21
8933.5586764141
 31
0.0
  0
LINE
  5
3E3
330
1F
100
AcDbEntity
  8
0
  6
Continuous
 62
     7
370
    25
100
AcDbLine
 10
3321.4073278765
 20
9055.7126940917
 30
0.0
 11
3290.3490424642
 21
8939.801594937
 31
0.0
  0
LINE
  5
3E4
330
1F
100
AcDbEntity
  8
0
  6
Continuous
 62
     7
370
    25
100
AcDbLine
 10
3389.9438439016
 20
9037.3483899707
 30
0.0
 11
3358.8855584893
 21
8921.437290816
 31
0.0
  0
LINE
  5
3E5
330
1F
100
AcDbEntity
  8
0
  6
Continuous
 62
     7
370
    25
100
AcDbLine
 10
3314.9551120741
 20
9057.4415601053
 30
0.0
 11
3283.8968266618
 21
8941.5304609507
 31
0.0
  0
LINE
  5
3E6
330
1F
100
AcDbEntity
  8
0
  6
Continuous
 62
     7
370
    25
100
AcDbLine
 10
3398.3309547366
 20
9035.1010703957
 30
0.0
 11
3367.2726693243
 21
8919.189971241
 31
0.0
  0
LINE
  5
3E7
330
1F
100
AcDbEntity
  8
0
  6
Continuous
 62
     7
370
    25
100
AcDbLine
 10
3367.2726693243
 20
8919.189971241
 30
0.0
 11
3364.9894203083
 21
8919.8017659709
 31
0.0
  0
LINE
  5
3E8
330
1F
100
AcDbEntity
  8
0
  6
Continuous
 62
     7
370
    25
100
AcDbLine
 10
3398.3309547366
 20
9035.1010703957
 30
0.0
 11
3396.0477057206
 21
9035.7128651256
 31
0.0
  0
LINE
  5
3E9
330
1F
100
AcDbEntity
  8
0
  6
Continuous
 62
     7
370
    25
100
AcDbLine
 10
3400.2628063891
 20
9034.5834323055
 30
0.0
 11
3369.2045209768
 21
8918.6723331508
 31
0.0
  0
LINE
  5
3EA
330
1F
100
AcDbEntity
  8
0
  6
Continuous
 62
     7
370
    25
100
AcDbLine
 10
3367.2726693243
 20
8919.189971241
 30
0.0
 11
3369.2045209768
 21
8918.6723331508
 31
0.0
  0
LINE
  5
3EB
330
1F
100
AcDbEntity
  8
0
  6
Continuous
 62
     7
370
    25
100
AcDbLine
 10
3398.3309547366
 20
9035.1010703957
 30
0.0
 11
3400.2628063891
 21
9034.5834323055
 31
0.0
  0
CIRCLE
  5
3EC
330
1F
100
AcDbEntity
  8
0
  6
Continuous
 62
     7
370
    25
100
AcDbCircle
 10
3417.4705215757
 20
8979.2441060775
 30
0.0
 40
2.999999999999564
  0
ARC
  5
3ED
330
1F
100
AcDbEntity
  8
0
  6
Continuous
 62
     7
370
    25
100
AcDbCircle
 10
3412.2941406736
 20
8959.9255895518
 30
0.0
 40
3.000000000000238
100
AcDbArc
 50
75.0
 51
255.0
  0
ARC
  5
3EE
330
1F
100
AcDbEntity
  8
0
  6
Continuous
 62
     7
370
    25
100
AcDbCircle
 10
3417.4705215757
 20
8979.2441060775
 30
0.0
 40
23.0000000000005
100
AcDbArc
 50
255.0
 51
345.0
  0
ARC
  5
3EF
330
1F
100
AcDbEntity
  8
0
  6
Continuous
 62
     7
370
    25
100
AcDbCircle
 10
3436.7890381015
 20
8974.0677251755
 30
0.0
 40
3.000000000000442
100
AcDbArc
 50
345.0
 51
165.0
  0
ARC
  5
3F0
330
1F
100
AcDbEntity
  8
0
  6
Continuous
 62
     7
370
    25
100
AcDbCircle
 10
3417.4705215757
 20
8979.2441060775
 30
0.0
 40
17.00000000000049
100
AcDbArc
 50
255.0
 51
345.0
  0
LINE
  5
3F1
330
1F
100
AcDbEntity
  8
0
  6
Continuous
 62
     7
370
    25
100
AcDbLine
 10
3409.7059502226
 20
8950.2663312889
 30
0.0
 11
3382.9070644702
 21
8957.4470710843
 31
0.0
  0
LINE
  5
3F2
330
1F
100
AcDbEntity
  8
0
  6
Continuous
 62
     7
370
    25
100
AcDbLine
 10
3382.9070644702
 20
8957.4470710843
 30
0.0
 11
3393.2598262743
 21
8996.0841041359
 31
0.0
  0
LINE
  5
3F3
330
1F
100
AcDbEntity
  8
0
  6
Continuous
 62
     7
370
    25
100
AcDbLine
 10
3393.2598262743
 20
8996.0841041359
 30
0.0
 11
3439.3772285525
 21
8983.7269834384
 31
0.0
  0
ARC
  5
3F4
330
1F
100
AcDbEntity
  8
0
  6
Continuous
 62
     7
370
    25
100
AcDbCircle
 10
3436.7890381015
 20
8974.0677251755
 30
0.0
 40
10.00000000000048
100
AcDbArc
 50
345.0
 51
75.0
  0
ARC
  5
3F5
330
1F
100
AcDbEntity
  8
0
  6
Continuous
 62
     7
370
    25
100
AcDbCircle
 10
3417.4705215757
 20
8979.2441060775
 30
0.0
 40
30.00000000000053
100
AcDbArc
 50
255.0
 51
345.0
  0
LINE
  5
3F6
330
1F
100
AcDbEntity
  8
0
  6
Continuous
 62
     7
370
    25
100
AcDbLine
 10
3379.816101826
 20
8958.2752920286
 30
0.0
 11
3382.9070644702
 21
8957.4470710843
 31
0.0
  0
LINE
  5
3F7
330
1F
100
AcDbEntity
  8
0
  6
Continuous
 62
     7
370
    25
100
AcDbLine
 10
3393.2598262743
 20
8996.0841041359
 30
0.0
 11
3390.1688636301
 21
8996.9123250802
 31
0.0
  0
LINE
  5
3F8
330
1F
100
AcDbEntity
  8
0
  6
Continuous
 62
     7
370
    25
100
AcDbLine
 10
4584.7721795213
 20
8996.9123250802
 30
0.0
 11
4582.8403278687
 21
8996.39468699
 31
0.0
  0
LINE
  5
3F9
330
1F
100
AcDbEntity
  8
0
  6
Continuous
 62
     7
370
    25
100
AcDbLine
 10
4595.1249413254
 20
8958.2752920286
 30
0.0
 11
4584.7721795213
 21
8996.9123250802
 31
0.0
  0
LINE
  5
3FA
330
1F
100
AcDbEntity
  8
0
  6
Continuous
 62
     7
370
    25
100
AcDbLine
 10
4595.1249413254
 20
8958.2752920286
 30
0.0
 11
4593.1930896728
 21
8957.7576539384
 31
0.0
  0
LINE
  5
3FB
330
1F
100
AcDbEntity
  8
0
  6
Continuous
 62
     7
370
    25
100
AcDbLine
 10
4593.1930896728
 20
8957.7576539384
 30
0.0
 11
4582.8403278687
 21
8996.39468699
 31
0.0
  0
LINE
  5
3FC
330
1F
100
AcDbEntity
  8
0
  6
Continuous
 62
     7
370
    25
100
AcDbLine
 10
4592.0339786812
 20
8957.4470710843
 30
0.0
 11
4581.6812168771
 21
8996.0841041359
 31
0.0
  0
LINE
  5
3FD
330
1F
100
AcDbEntity
  8
0
  6
Continuous
 62
     7
370
    25
100
AcDbLine
 10
4581.6812168771
 20
8996.0841041359
 30
0.0
 11
4582.8403278687
 21
8996.39468699
 31
0.0
  0
LINE
  5
3FE
330
1F
100
AcDbEntity
  8
0
  6
Continuous
 62
     7
370
    25
100
AcDbLine
 10
4593.1930896728
 20
8957.7576539384
 30
0.0
 11
4592.0339786812
 21
8957.4470710843
 31
0.0
  0
LINE
  5
3FF
330
1F
100
AcDbEntity
  8
0
  6
Continuous
 62
     7
370
    25
100
AcDbLine
 10
4577.4705215757
 20
8953.5448045139
 30
0.0
 11
4592.0339786812
 21
8957.4470710843
 31
0.0
  0
LINE
  5
400
330
1F
100
AcDbEntity
  8
0
  6
Continuous
 62
     7
370
    25
100
AcDbLine
 10
4581.6812168771
 20
8996.0841041359
 30
0.0
 11
4556.1539965998
 21
8989.2441060775
 31
0.0
  0
LINE
  5
401
330
1F
100
AcDbEntity
  8
0
  6
Continuous
 62
     7
370
    25
100
AcDbLine
 10
4577.4705215757
 20
8986.7441060775
 30
0.0
 11
4577.4705215757
 21
8951.7441060775
 31
0.0
  0
CIRCLE
  5
402
330
1F
100
AcDbEntity
  8
0
  6
Continuous
 62
     7
370
    25
100
AcDbCircle
 10
4557.4705215757
 20
8959.2441060775
 30
0.0
 40
2.999999999999091
  0
CIRCLE
  5
403
330
1F
100
AcDbEntity
  8
0
  6
Continuous
 62
     7
370
    25
100
AcDbCircle
 10
4557.4705215757
 20
8979.2441060775
 30
0.0
 40
2.999999999999091
  0
LINE
  5
404
330
1F
100
AcDbEntity
  8
0
  6
Continuous
 62
     7
370
    25
100
AcDbLine
 10
4577.4705215757
 20
8989.2441060775
 30
0.0
 11
4039.9705215757
 21
8989.2441060775
 31
0.0
  0
LINE
  5
405
330
1F
100
AcDbEntity
  8
0
  6
Continuous
 62
     7
370
    25
100
AcDbLine
 10
4577.4705215757
 20
8989.2441060775
 30
0.0
 11
4577.4705215757
 21
8986.7441060775
 31
0.0
  0
LINE
  5
406
330
1F
100
AcDbEntity
  8
0
  6
Continuous
 62
     7
370
    25
100
AcDbLine
 10
4577.4705215757
 20
8949.2441060775
 30
0.0
 11
4039.9705215757
 21
8949.2441060775
 31
0.0
  0
LINE
  5
407
330
1F
100
AcDbEntity
  8
0
  6
Continuous
 62
     7
370
    25
100
AcDbLine
 10
4577.4705215757
 20
8951.7441060775
 30
0.0
 11
4577.4705215757
 21
8949.2441060775
 31
0.0
  0
LINE
  5
408
330
1F
100
AcDbEntity
  8
0
  6
Continuous
 62
     7
370
    25
100
AcDbLine
 10
3418.7870465516
 20
8989.2441060775
 30
0.0
 11
3936.9705215756
 21
8989.2441060775
 31
0.0
  0
LINE
  5
409
330
1F
100
AcDbEntity
  8
0
  6
Continuous
 62
     7
370
    25
100
AcDbLine
 10
3397.4705215757
 20
8951.7441060775
 30
0.0
 11
3397.4705215757
 21
8953.5448045139
 31
0.0
  0
CIRCLE
  5
40A
330
1F
100
AcDbEntity
  8
0
  6
Continuous
 62
     7
370
    25
100
AcDbCircle
 10
3417.4705215757
 20
8959.2441060775
 30
0.0
 40
2.999999999999545
  0
LINE
  5
40B
330
1F
100
AcDbEntity
  8
0
  6
Continuous
 62
     7
370
    25
100
AcDbLine
 10
3397.4705215757
 20
8949.2441060775
 30
0.0
 11
3936.9705215756
 21
8949.2441060775
 31
0.0
  0
LINE
  5
40C
330
1F
100
AcDbEntity
  8
0
  6
Continuous
 62
     7
370
    25
100
AcDbLine
 10
3397.4705215757
 20
8949.2441060775
 30
0.0
 11
3397.4705215757
 21
8951.7441060775
 31
0.0
  0
LINE
  5
40D
330
1F
100
AcDbEntity
  8
0
  6
Continuous
 62
     7
370
    25
100
AcDbLine
 10
3951.4705215757
 20
7677.2441060775
 30
0.0
 11
4023.4705215757
 21
7677.2441060775
 31
0.0
  0
LINE
  5
40E
330
1F
100
AcDbEntity
  8
0
  6
Continuous
 62
     7
370
    25
100
AcDbLine
 10
3921.2891767463
 20
7034.2441060775
 30
0.0
 11
3921.2891767463
 21
7024.2441060775
 31
0.0
  0
LINE
  5
40F
330
1F
100
AcDbEntity
  8
0
  6
Continuous
 62
     7
370
    25
100
AcDbLine
 10
4088.5924374939
 20
7034.2441060775
 30
0.0
 11
4088.5924374939
 21
7024.2441060775
 31
0.0
  0
LINE
  5
410
330
1F
100
AcDbEntity
  8
0
  6
Continuous
 62
     7
370
    25
100
AcDbLine
 10
4088.5924374939
 20
7024.2441060775
 30
0.0
 11
3921.2891767463
 21
7024.2441060775
 31
0.0
  0
LINE
  5
411
330
1F
100
AcDbEntity
  8
0
  6
Continuous
 62
     7
370
    25
100
AcDbLine
 10
4088.5924374939
 20
7034.2441060775
 30
0.0
 11
3921.2891767463
 21
7034.2441060775
 31
0.0
  0
LINE
  5
412
330
1F
100
AcDbEntity
  8
0
  6
Continuous
 62
     7
370
    25
100
AcDbLine
 10
3899.259843457
 20
7024.2441060775
 30
0.0
 11
3921.2891767463
 21
7024.2441060775
 31
0.0
  0
LINE
  5
413
330
1F
100
AcDbEntity
  8
0
  6
Continuous
 62
     7
370
    25
100
AcDbLine
 10
3899.259843457
 20
7034.2441060775
 30
0.0
 11
3921.2891767463
 21
7034.2441060775
 31
0.0
  0
LINE
  5
414
330
1F
100
AcDbEntity
  8
0
  6
Continuous
 62
     7
370
    25
100
AcDbLine
 10
4088.5924374939
 20
7024.2441060775
 30
0.0
 11
4101.5631042046
 21
7024.2441060775
 31
0.0
  0
LINE
  5
415
330
1F
100
AcDbEntity
  8
0
  6
Continuous
 62
     7
370
    25
100
AcDbLine
 10
4088.5924374939
 20
7034.2441060775
 30
0.0
 11
4101.5631042046
 21
7034.2441060775
 31
0.0
  0
LINE
  5
416
330
1F
100
AcDbEntity
  8
0
  6
Continuous
 62
     7
370
    25
100
AcDbLine
 10
3937.4705215757
 20
4984.2441060775
 30
0.0
 11
4037.4705215757
 21
4984.2441060775
 31
0.0
  0
LINE
  5
417
330
1F
100
AcDbEntity
  8
0
  6
Continuous
 62
     7
370
    25
100
AcDbLine
 10
3937.4705215757
 20
4974.2441060775
 30
0.0
 11
4037.4705215757
 21
4974.2441060775
 31
0.0
  0
LINE
  5
418
330
1F
100
AcDbEntity
  8
0
  6
Continuous
 62
     7
370
    25
100
AcDbLine
 10
3937.4705215757
 20
4964.2441060775
 30
0.0
 11
4037.4705215757
 21
4964.2441060775
 31
0.0
  0
LINE
  5
419
330
1F
100
AcDbEntity
  8
0
  6
Continuous
 62
     7
370
    25
100
AcDbLine
 10
4037.4705215757
 20
7014.2441060775
 30
0.0
 11
3937.4705215757
 21
7014.2441060775
 31
0.0
  0
CIRCLE
  5
41A
330
1F
100
AcDbEntity
  8
0
  6
Continuous
 62
     7
370
    25
100
AcDbCircle
 10
3836.8108631459
 20
3065.2441060775
 30
0.0
 40
26.0
  0
CIRCLE
  5
41B
330
1F
100
AcDbEntity
  8
0
  6
Continuous
 62
     7
370
    25
100
AcDbCircle
 10
3923.9959665066
 20
3185.2441060775
 30
0.0
 40
26.0
  0
CIRCLE
  5
41C
330
1F
100
AcDbEntity
  8
0
  6
Continuous
 62
     7
370
    25
100
AcDbCircle
 10
3880.4034148262
 20
3125.2441060775
 30
0.0
 40
26.00000000000045
  0
ARC
  5
41D
330
1F
100
AcDbEntity
  8
0
  6
Continuous
 62
     7
370
    25
100
AcDbCircle
 10
3832.4705215757
 20
3025.2441060775
 30
0.0
 40
60.00000000000033
100
AcDbArc
 50
144.0
 51
180.0
  0
LINE
  5
41E
330
1F
100
AcDbEntity
  8
0
  6
Continuous
 62
     7
370
    25
100
AcDbLine
 10
3913.9295019132
 20
3239.4408708764
 30
0.0
 11
3783.9295019132
 21
3060.5112212151
 31
0.0
  0
LINE
  5
41F
330
1F
100
AcDbEntity
  8
0
  6
Continuous
 62
     7
370
    25
100
AcDbLine
 10
3962.4705215757
 20
3025.2441060775
 30
0.0
 11
3962.4705215757
 21
3264.1737557388
 31
0.0
  0
ARC
  5
420
330
1F
100
AcDbEntity
  8
0
  6
Continuous
 62
     7
370
    25
100
AcDbCircle
 10
3962.4705215757
 20
3204.1737557388
 30
0.0
 40
60.00000000000023
100
AcDbArc
 50
90.0
 51
144.0
  0
CIRCLE
  5
421
330
1F
100
AcDbEntity
  8
0
  6
Continuous
 62
     7
370
    25
100
AcDbCircle
 10
4138.1301800055
 20
3065.2441060775
 30
0.0
 40
26.0
  0
CIRCLE
  5
422
330
1F
100
AcDbEntity
  8
0
  6
Continuous
 62
     7
370
    25
100
AcDbCircle
 10
4094.5376283252
 20
3125.2441060775
 30
0.0
 40
26.0
  0
ARC
  5
423
330
1F
100
AcDbEntity
  8
0
  6
Continuous
 62
     7
370
    25
100
AcDbCircle
 10
4012.4705215757
 20
3204.1737557388
 30
0.0
 40
60.00000000000023
100
AcDbArc
 50
36.0
 51
90.0
  0
LINE
  5
424
330
1F
100
AcDbEntity
  8
0
  6
Continuous
 62
     7
370
    25
100
AcDbLine
 10
4061.0115412382
 20
3239.4408708764
 30
0.0
 11
4191.0115412382
 21
3060.5112212151
 31
0.0
  0
LINE
  5
425
330
1F
100
AcDbEntity
  8
0
  6
Continuous
 62
     7
370
    25
100
AcDbLine
 10
4012.4705215757
 20
3025.2441060775
 30
0.0
 11
4012.4705215757
 21
3264.1737557388
 31
0.0
  0
CIRCLE
  5
426
330
1F
100
AcDbEntity
  8
0
  6
Continuous
 62
     7
370
    25
100
AcDbCircle
 10
4050.9450766448
 20
3185.2441060775
 30
0.0
 40
26.00000000000045
  0
ARC
  5
427
330
1F
100
AcDbEntity
  8
0
  6
Continuous
 62
     7
370
    25
100
AcDbCircle
 10
4142.4705215757
 20
3025.2441060775
 30
0.0
 40
60.0000000000007
100
AcDbArc
 50
0.0
 51
36.0
  0
LINE
  5
428
330
1F
100
AcDbEntity
  8
0
  6
Continuous
 62
     7
370
    25
100
AcDbLine
 10
3990.4705215757
 20
3060.5112212151
 30
0.0
 11
3984.4705215757
 21
3060.5112212151
 31
0.0
  0
LINE
  5
429
330
1F
100
AcDbEntity
  8
0
  6
Continuous
 62
     7
370
    25
100
AcDbLine
 10
3990.4705215757
 20
3060.5112212151
 30
0.0
 11
3990.4705215757
 21
3025.2441060775
 31
0.0
  0
LINE
  5
42A
330
1F
100
AcDbEntity
  8
0
  6
Continuous
 62
     7
370
    25
100
AcDbLine
 10
3984.4705215757
 20
3060.5112212151
 30
0.0
 11
3984.4705215757
 21
3025.2441060775
 31
0.0
  0
LINE
  5
42B
330
1F
100
AcDbEntity
  8
0
  6
Continuous
 62
     7
370
    25
100
AcDbLine
 10
3990.4705215757
 20
3239.4408708764
 30
0.0
 11
3984.4705215757
 21
3239.4408708764
 31
0.0
  0
LINE
  5
42C
330
1F
100
AcDbEntity
  8
0
  6
Continuous
 62
     7
370
    25
100
AcDbLine
 10
3984.4705215757
 20
3239.4408708764
 30
0.0
 11
3984.4705215757
 21
3060.5112212151
 31
0.0
  0
LINE
  5
42D
330
1F
100
AcDbEntity
  8
0
  6
Continuous
 62
     7
370
    25
100
AcDbLine
 10
3990.4705215757
 20
3239.4408708764
 30
0.0
 11
3990.4705215757
 21
3060.5112212151
 31
0.0
  0
LINE
  5
42E
330
1F
100
AcDbEntity
  8
0
  6
Continuous
 62
     7
370
    25
100
AcDbLine
 10
3990.4705215757
 20
3264.1737557388
 30
0.0
 11
3984.4705215757
 21
3264.1737557388
 31
0.0
  0
LINE
  5
42F
330
1F
100
AcDbEntity
  8
0
  6
Continuous
 62
     7
370
    25
100
AcDbLine
 10
3984.4705215757
 20
3264.1737557388
 30
0.0
 11
3984.4705215757
 21
3239.4408708764
 31
0.0
  0
LINE
  5
430
330
1F
100
AcDbEntity
  8
0
  6
Continuous
 62
     7
370
    25
100
AcDbLine
 10
3990.4705215757
 20
3264.1737557388
 30
0.0
 11
3990.4705215757
 21
3239.4408708764
 31
0.0
  0
LINE
  5
431
330
1F
100
AcDbEntity
  8
0
  6
Continuous
 62
     7
370
    25
100
AcDbLine
 10
3968.1520050499
 20
3025.2441060775
 30
0.0
 11
3968.1520050499
 21
3019.2441060775
 31
0.0
  0
LINE
  5
432
330
1F
100
AcDbEntity
  8
0
  6
Continuous
 62
     7
370
    25
100
AcDbLine
 10
4006.7890381015
 20
3025.2441060775
 30
0.0
 11
4006.7890381015
 21
3019.2441060775
 31
0.0
  0
LINE
  5
433
330
1F
100
AcDbEntity
  8
0
  6
Continuous
 62
     7
370
    25
100
AcDbLine
 10
4006.7890381015
 20
3025.2441060775
 30
0.0
 11
3968.1520050499
 21
3025.2441060775
 31
0.0
  0
LINE
  5
434
330
1F
100
AcDbEntity
  8
0
  6
Continuous
 62
     7
370
    25
100
AcDbLine
 10
4043.183037463
 20
3025.2441060775
 30
0.0
 11
4043.183037463
 21
3019.2441060775
 31
0.0
  0
LINE
  5
435
330
1F
100
AcDbEntity
  8
0
  6
Continuous
 62
     7
370
    25
100
AcDbLine
 10
4043.183037463
 20
3025.2441060775
 30
0.0
 11
4006.7890381015
 21
3025.2441060775
 31
0.0
  0
LINE
  5
436
330
1F
100
AcDbEntity
  8
0
  6
Continuous
 62
     7
370
    25
100
AcDbLine
 10
4043.183037463
 20
3019.2441060775
 30
0.0
 11
4029.4705215757
 21
3019.2441060775
 31
0.0
  0
LINE
  5
437
330
1F
100
AcDbEntity
  8
0
  6
Continuous
 62
     7
370
    25
100
AcDbLine
 10
3931.7580056884
 20
3025.2441060775
 30
0.0
 11
3931.7580056884
 21
3019.2441060775
 31
0.0
  0
LINE
  5
438
330
1F
100
AcDbEntity
  8
0
  6
Continuous
 62
     7
370
    25
100
AcDbLine
 10
3931.7580056884
 20
3025.2441060775
 30
0.0
 11
3968.1520050499
 21
3025.2441060775
 31
0.0
  0
LINE
  5
439
330
1F
100
AcDbEntity
  8
0
  6
Continuous
 62
     7
370
    25
100
AcDbLine
 10
3931.7580056884
 20
3019.2441060775
 30
0.0
 11
3945.4705215757
 21
3019.2441060775
 31
0.0
  0
LINE
  5
43A
330
1F
100
AcDbEntity
  8
0
  6
Continuous
 62
     7
370
    25
100
AcDbLine
 10
4106.8226477698
 20
3025.2441060775
 30
0.0
 11
4106.8226477698
 21
3019.2441060775
 31
0.0
  0
LINE
  5
43B
330
1F
100
AcDbEntity
  8
0
  6
Continuous
 62
     7
370
    25
100
AcDbLine
 10
4106.8226477698
 20
3025.2441060775
 30
0.0
 11
4043.183037463
 21
3025.2441060775
 31
0.0
  0
LINE
  5
43C
330
1F
100
AcDbEntity
  8
0
  6
Continuous
 62
     7
370
    25
100
AcDbLine
 10
4106.8226477698
 20
3019.2441060775
 30
0.0
 11
4043.183037463
 21
3019.2441060775
 31
0.0
  0
LINE
  5
43D
330
1F
100
AcDbEntity
  8
0
  6
Continuous
 62
     7
370
    25
100
AcDbLine
 10
3868.1183953816
 20
3025.2441060775
 30
0.0
 11
3868.1183953816
 21
3019.2441060775
 31
0.0
  0
LINE
  5
43E
330
1F
100
AcDbEntity
  8
0
  6
Continuous
 62
     7
370
    25
100
AcDbLine
 10
3868.1183953816
 20
3025.2441060775
 30
0.0
 11
3931.7580056884
 21
3025.2441060775
 31
0.0
  0
LINE
  5
43F
330
1F
100
AcDbEntity
  8
0
  6
Continuous
 62
     7
370
    25
100
AcDbLine
 10
3868.1183953816
 20
3019.2441060775
 30
0.0
 11
3931.7580056884
 21
3019.2441060775
 31
0.0
  0
LINE
  5
440
330
1F
100
AcDbEntity
  8
0
  6
Continuous
 62
     7
370
    25
100
AcDbLine
 10
4242.6469024778
 20
3025.2441060775
 30
0.0
 11
4242.6469024778
 21
3019.2441060775
 31
0.0
  0
LINE
  5
441
330
1F
100
AcDbEntity
  8
0
  6
Continuous
 62
     7
370
    25
100
AcDbLine
 10
4242.6469024778
 20
3025.2441060775
 30
0.0
 11
4106.8226477698
 21
3025.2441060775
 31
0.0
  0
LINE
  5
442
330
1F
100
AcDbEntity
  8
0
  6
Continuous
 62
     7
370
    25
100
AcDbLine
 10
4157.9984537609
 20
3019.2441060775
 30
0.0
 11
4106.8226477698
 21
3019.2441060775
 31
0.0
  0
LINE
  5
443
330
1F
100
AcDbEntity
  8
0
  6
Continuous
 62
     7
370
    25
100
AcDbLine
 10
3732.2941406736
 20
3025.2441060775
 30
0.0
 11
3732.2941406736
 21
3019.2441060775
 31
0.0
  0
LINE
  5
444
330
1F
100
AcDbEntity
  8
0
  6
Continuous
 62
     7
370
    25
100
AcDbLine
 10
3732.2941406736
 20
3025.2441060775
 30
0.0
 11
3868.1183953816
 21
3025.2441060775
 31
0.0
  0
LINE
  5
445
330
1F
100
AcDbEntity
  8
0
  6
Continuous
 62
     7
370
    25
100
AcDbLine
 10
3816.9425893905
 20
3019.2441060775
 30
0.0
 11
3868.1183953816
 21
3019.2441060775
 31
0.0
  0
LINE
  5
446
330
1F
100
AcDbEntity
  8
0
  6
Continuous
 62
     7
370
    25
100
AcDbLine
 10
4257.4705215757
 20
3025.2441060775
 30
0.0
 11
4242.6469024778
 21
3025.2441060775
 31
0.0
  0
LINE
  5
447
330
1F
100
AcDbEntity
  8
0
  6
Continuous
 62
     7
370
    25
100
AcDbLine
 10
3732.2941406736
 20
3025.2441060775
 30
0.0
 11
3717.4705215757
 21
3025.2441060775
 31
0.0
  0
LINE
  5
448
330
1F
100
AcDbEntity
  8
0
  6
Continuous
 62
     7
370
    25
100
AcDbLine
 10
4436.6525908881
 20
3011.2441060775
 30
0.0
 11
4037.4705215757
 21
3011.2441060775
 31
0.0
  0
LINE
  5
449
330
1F
100
AcDbEntity
  8
0
  6
Continuous
 62
     7
370
    25
100
AcDbLine
 10
4422.7961844275
 20
3019.2441060775
 30
0.0
 11
4157.9984537609
 21
3019.2441060775
 31
0.0
  0
LINE
  5
44A
330
1F
100
AcDbEntity
  8
0
  6
Continuous
 62
     7
370
    25
100
AcDbLine
 10
4422.7961844275
 20
3019.2441060775
 30
0.0
 11
4436.6525908881
 21
3011.2441060775
 31
0.0
  0
LINE
  5
44B
330
1F
100
AcDbEntity
  8
0
  6
Continuous
 62
     7
370
    25
100
AcDbLine
 10
4037.4705215757
 20
3011.2441060775
 30
0.0
 11
4037.4705215757
 21
3019.2441060775
 31
0.0
  0
LINE
  5
44C
330
1F
100
AcDbEntity
  8
0
  6
Continuous
 62
     7
370
    25
100
AcDbLine
 10
4495.5423183454
 20
2977.2441060775
 30
0.0
 11
4037.4705215757
 21
2977.2441060775
 31
0.0
  0
LINE
  5
44D
330
1F
100
AcDbEntity
  8
0
  6
Continuous
 62
     7
370
    25
100
AcDbLine
 10
4495.5423183454
 20
2977.2441060775
 30
0.0
 11
4436.6525908881
 21
3011.2441060775
 31
0.0
  0
LINE
  5
44E
330
1F
100
AcDbEntity
  8
0
  6
Continuous
 62
     7
370
    25
100
AcDbLine
 10
4502.4705215757
 20
2969.2441060775
 30
0.0
 11
4502.4705215757
 21
2973.2441060775
 31
0.0
  0
LINE
  5
44F
330
1F
100
AcDbEntity
  8
0
  6
Continuous
 62
     7
370
    25
100
AcDbLine
 10
4502.4705215757
 20
2969.2441060775
 30
0.0
 11
4037.4705215757
 21
2969.2441060775
 31
0.0
  0
LINE
  5
450
330
1F
100
AcDbEntity
  8
0
  6
Continuous
 62
     7
370
    25
100
AcDbLine
 10
4495.5423183454
 20
2977.2441060775
 30
0.0
 11
4502.4705215757
 21
2973.2441060775
 31
0.0
  0
LINE
  5
451
330
1F
100
AcDbEntity
  8
0
  6
Continuous
 62
     7
370
    25
100
AcDbLine
 10
4037.4705215757
 20
2969.2441060775
 30
0.0
 11
4037.4705215757
 21
2977.2441060775
 31
0.0
  0
LINE
  5
452
330
1F
100
AcDbEntity
  8
0
  6
Continuous
 62
     7
370
    25
100
AcDbLine
 10
3479.398724806
 20
2977.2441060775
 30
0.0
 11
3937.4705215757
 21
2977.2441060775
 31
0.0
  0
LINE
  5
453
330
1F
100
AcDbEntity
  8
0
  6
Continuous
 62
     7
370
    25
100
AcDbLine
 10
3937.4705215757
 20
2977.2441060775
 30
0.0
 11
3937.4705215757
 21
2969.2441060775
 31
0.0
  0
LINE
  5
454
330
1F
100
AcDbEntity
  8
0
  6
Continuous
 62
     7
370
    25
100
AcDbLine
 10
3472.4705215757
 20
2969.2441060775
 30
0.0
 11
3937.4705215757
 21
2969.2441060775
 31
0.0
  0
LINE
  5
455
330
1F
100
AcDbEntity
  8
0
  6
Continuous
 62
     7
370
    25
100
AcDbLine
 10
3472.4705215757
 20
2973.2441060775
 30
0.0
 11
3472.4705215757
 21
2969.2441060775
 31
0.0
  0
LINE
  5
456
330
1F
100
AcDbEntity
  8
0
  6
Continuous
 62
     7
370
    25
100
AcDbLine
 10
3472.4705215757
 20
2973.2441060775
 30
0.0
 11
3479.398724806
 21
2977.2441060775
 31
0.0
  0
LINE
  5
457
330
1F
100
AcDbEntity
  8
0
  6
Continuous
 62
     7
370
    25
100
AcDbLine
 10
3552.1448587239
 20
3019.2441060775
 30
0.0
 11
3816.9425893905
 21
3019.2441060775
 31
0.0
  0
LINE
  5
458
330
1F
100
AcDbEntity
  8
0
  6
Continuous
 62
     7
370
    25
100
AcDbLine
 10
3937.4705215757
 20
3019.2441060775
 30
0.0
 11
3937.4705215757
 21
3011.2441060775
 31
0.0
  0
LINE
  5
459
330
1F
100
AcDbEntity
  8
0
  6
Continuous
 62
     7
370
    25
100
AcDbLine
 10
3538.2884522633
 20
3011.2441060775
 30
0.0
 11
3937.4705215757
 21
3011.2441060775
 31
0.0
  0
LINE
  5
45A
330
1F
100
AcDbEntity
  8
0
  6
Continuous
 62
     7
370
    25
100
AcDbLine
 10
3538.2884522633
 20
3011.2441060775
 30
0.0
 11
3552.1448587239
 21
3019.2441060775
 31
0.0
  0
LINE
  5
45B
330
1F
100
AcDbEntity
  8
0
  6
Continuous
 62
     7
370
    25
100
AcDbLine
 10
3479.398724806
 20
2977.2441060775
 30
0.0
 11
3538.2884522633
 21
3011.2441060775
 31
0.0
  0
ARC
  5
45C
330
1F
100
AcDbEntity
  8
0
  6
Continuous
 62
     7
370
    25
100
AcDbCircle
 10
3945.4705215757
 20
2977.2441060775
 30
0.0
 40
8.0
100
AcDbArc
 50
180.0
 51
210.0
  0
LINE
  5
45D
330
1F
100
AcDbEntity
  8
0
  6
Continuous
 62
     7
370
    25
100
AcDbLine
 10
3937.4705215757
 20
3011.2441060775
 30
0.0
 11
3937.4705215757
 21
2977.2441060775
 31
0.0
  0
ARC
  5
45E
330
1F
100
AcDbEntity
  8
0
  6
Continuous
 62
     7
370
    25
100
AcDbCircle
 10
3945.4705215757
 20
3011.2441060775
 30
0.0
 40
8.000000000000455
100
AcDbArc
 50
90.0
 51
180.0
  0
LINE
  5
45F
330
1F
100
AcDbEntity
  8
0
  6
Continuous
 62
     7
370
    25
100
AcDbLine
 10
4029.4705215757
 20
3019.2441060775
 30
0.0
 11
3945.4705215757
 21
3019.2441060775
 31
0.0
  0
ARC
  5
460
330
1F
100
AcDbEntity
  8
0
  6
Continuous
 62
     7
370
    25
100
AcDbCircle
 10
4029.4705215757
 20
3011.2441060775
 30
0.0
 40
8.000000000000455
100
AcDbArc
 50
0.0
 51
90.0
  0
LINE
  5
461
330
1F
100
AcDbEntity
  8
0
  6
Continuous
 62
     7
370
    25
100
AcDbLine
 10
4037.4705215757
 20
3011.2441060775
 30
0.0
 11
4037.4705215757
 21
2977.2441060775
 31
0.0
  0
ARC
  5
462
330
1F
100
AcDbEntity
  8
0
  6
Continuous
 62
     7
370
    25
100
AcDbCircle
 10
4029.4705215757
 20
2977.2441060775
 30
0.0
 40
8.0
100
AcDbArc
 50
330.0
 51
0.0
  0
LINE
  5
463
330
1F
100
AcDbEntity
  8
0
  6
Continuous
 62
     7
370
    25
100
AcDbLine
 10
4036.398724806
 20
2973.2441060775
 30
0.0
 11
4029.4705215757
 21
2973.2441060775
 31
0.0
  0
ARC
  5
464
330
1F
100
AcDbEntity
  8
0
  6
Continuous
 62
     7
370
    25
100
AcDbCircle
 10
4029.4705215757
 20
2977.2441060775
 30
0.0
 40
4.0
100
AcDbArc
 50
270.0
 51
0.0
  0
LINE
  5
465
330
1F
100
AcDbEntity
  8
0
  6
Continuous
 62
     7
370
    25
100
AcDbLine
 10
4033.4705215757
 20
3011.2441060775
 30
0.0
 11
4033.4705215757
 21
2977.2441060775
 31
0.0
  0
ARC
  5
466
330
1F
100
AcDbEntity
  8
0
  6
Continuous
 62
     7
370
    25
100
AcDbCircle
 10
4029.4705215757
 20
3011.2441060775
 30
0.0
 40
4.000000000000455
100
AcDbArc
 50
0.0
 51
90.0
  0
LINE
  5
467
330
1F
100
AcDbEntity
  8
0
  6
Continuous
 62
     7
370
    25
100
AcDbLine
 10
3945.4705215757
 20
3015.2441060775
 30
0.0
 11
4029.4705215757
 21
3015.2441060775
 31
0.0
  0
ARC
  5
468
330
1F
100
AcDbEntity
  8
0
  6
Continuous
 62
     7
370
    25
100
AcDbCircle
 10
3945.4705215757
 20
3011.2441060775
 30
0.0
 40
4.000000000000455
100
AcDbArc
 50
90.0
 51
180.0
  0
LINE
  5
469
330
1F
100
AcDbEntity
  8
0
  6
Continuous
 62
     7
370
    25
100
AcDbLine
 10
3941.4705215757
 20
2977.2441060775
 30
0.0
 11
3941.4705215757
 21
3011.2441060775
 31
0.0
  0
ARC
  5
46A
330
1F
100
AcDbEntity
  8
0
  6
Continuous
 62
     7
370
    25
100
AcDbCircle
 10
3945.4705215757
 20
2977.2441060775
 30
0.0
 40
4.000000000000455
100
AcDbArc
 50
180.0
 51
270.0
  0
LINE
  5
46B
330
1F
100
AcDbEntity
  8
0
  6
Continuous
 62
     7
370
    25
100
AcDbLine
 10
3945.4705215757
 20
2973.2441060775
 30
0.0
 11
3938.5423183454
 21
2973.2441060775
 31
0.0
  0
LINE
  5
46C
330
1F
100
AcDbEntity
  8
0
  6
Continuous
 62
     7
370
    25
100
AcDbLine
 10
3945.4705215757
 20
2969.2441060775
 30
0.0
 11
4029.4705215757
 21
2969.2441060775
 31
0.0
  0
ARC
  5
46D
330
1F
100
AcDbEntity
  8
0
  6
Continuous
 62
     7
370
    25
100
AcDbCircle
 10
3945.4705215757
 20
2977.2441060775
 30
0.0
 40
8.0
100
AcDbArc
 50
210.0
 51
270.0
  0
LINE
  5
46E
330
1F
100
AcDbEntity
  8
0
  6
Continuous
 62
     7
370
    25
100
AcDbLine
 10
3945.4705215757
 20
2973.2441060775
 30
0.0
 11
4029.4705215757
 21
2973.2441060775
 31
0.0
  0
ARC
  5
46F
330
1F
100
AcDbEntity
  8
0
  6
Continuous
 62
     7
370
    25
100
AcDbCircle
 10
4029.4705215757
 20
2977.2441060775
 30
0.0
 40
8.0
100
AcDbArc
 50
270.0
 51
330.0
  0
LINE
  5
470
330
1F
100
AcDbEntity
  8
0
  6
Continuous
 62
     8
370
    25
100
AcDbLine
 10
4006.8114928892
 20
9196.2394611764
 30
0.0
 11
3991.9157344147
 21
9196.2394611764
 31
0.0
  0
LINE
  5
471
330
1F
100
AcDbEntity
  8
0
  6
Continuous
 62
     8
370
    25
100
AcDbLine
 10
3976.0177788299
 20
9198.2394611764
 30
0.0
 11
4029.5175882468
 21
9198.2394611764
 31
0.0
  0
LINE
  5
472
330
1F
100
AcDbEntity
  8
0
  6
Continuous
 62
     8
370
    25
100
AcDbLine
 10
3944.5175882468
 20
9198.2394611764
 30
0.0
 11
3976.0177788299
 21
9198.2394611764
 31
0.0
  0
LINE
  5
473
330
1F
100
AcDbEntity
  8
0
  6
Continuous
 62
     8
370
    25
100
AcDbLine
 10
4029.5175882468
 20
9235.2394611764
 30
0.0
 11
3944.5175882468
 21
9235.2394611764
 31
0.0
  0
LINE
  5
474
330
1F
100
AcDbEntity
  8
0
  6
Continuous
 62
     8
370
    25
100
AcDbLine
 10
4007.0904971006
 20
9196.2394611764
 30
0.0
 11
4006.8114928892
 21
9196.2394611764
 31
0.0
  0
LINE
  5
475
330
1F
100
AcDbEntity
  8
0
  6
Continuous
 62
     8
370
    25
100
AcDbLine
 10
3959.2118825894
 20
9196.2394611764
 30
0.0
 11
3945.9300161404
 21
9196.2394611764
 31
0.0
  0
LINE
  5
476
330
1F
100
AcDbEntity
  8
0
  6
Continuous
 62
     8
370
    25
100
AcDbLine
 10
3945.9300161404
 20
9196.2394611764
 30
0.0
 11
3941.0175882468
 21
9196.2394611764
 31
0.0
  0
LINE
  5
477
330
1F
100
AcDbEntity
  8
0
  6
Continuous
 62
     8
370
    25
100
AcDbLine
 10
4040.3990649956
 20
9196.2394611764
 30
0.0
 11
4030.2803370178
 21
9196.2394611764
 31
0.0
  0
LINE
  5
478
330
1F
100
AcDbEntity
  8
0
  6
Continuous
 62
     8
370
    25
100
AcDbLine
 10
3941.0175882468
 20
9196.2394611764
 30
0.0
 11
3939.8900149577
 21
9196.2394611764
 31
0.0
  0
LINE
  5
479
330
1F
100
AcDbEntity
  8
0
  6
Continuous
 62
     8
370
    25
100
AcDbLine
 10
3939.8900149577
 20
9196.2394611764
 30
0.0
 11
3933.636111498
 21
9196.2394611764
 31
0.0
  0
LINE
  5
47A
330
1F
100
AcDbEntity
  8
0
  6
Continuous
 62
     8
370
    25
100
AcDbLine
 10
3995.3670883694
 20
9131.2394611764
 30
0.0
 11
3995.3670883694
 21
9184.2394611764
 31
0.0
  0
LINE
  5
47B
330
1F
100
AcDbEntity
  8
0
  6
Continuous
 62
     8
370
    25
100
AcDbLine
 10
3990.0766885647
 20
9131.2394611764
 30
0.0
 11
3990.0766885647
 21
9184.2394611764
 31
0.0
  0
LINE
  5
47C
330
1F
100
AcDbEntity
  8
0
  6
Continuous
 62
     8
370
    25
100
AcDbLine
 10
3963.17344876
 20
9131.2394611764
 30
0.0
 11
3963.17344876
 21
9184.2394611764
 31
0.0
  0
LINE
  5
47D
330
1F
100
AcDbEntity
  8
0
  6
Continuous
 62
     8
370
    25
100
AcDbLine
 10
4005.5632105574
 20
9131.2394611764
 30
0.0
 11
4005.5632105574
 21
9184.2394611764
 31
0.0
  0
LINE
  5
47E
330
1F
100
AcDbEntity
  8
0
  6
Continuous
 62
     8
370
    25
100
AcDbLine
 10
3956.5136782465
 20
9131.2394611764
 30
0.0
 11
3956.5136782465
 21
9184.2394611764
 31
0.0
  0
LINE
  5
47F
330
1F
100
AcDbEntity
  8
0
  6
Continuous
 62
     8
370
    25
100
AcDbLine
 10
4025.2577489827
 20
9131.2394611764
 30
0.0
 11
4025.2577489827
 21
9184.2394611764
 31
0.0
  0
LINE
  5
480
330
1F
100
AcDbEntity
  8
0
  6
Continuous
 62
     8
370
    25
100
AcDbLine
 10
4031.502410074
 20
9131.2394611764
 30
0.0
 11
4031.502410074
 21
9184.2394611764
 31
0.0
  0
LINE
  5
481
330
1F
100
AcDbEntity
  8
0
  6
Continuous
 62
     8
370
    25
100
AcDbLine
 10
3940.4715266765
 20
9131.2394611764
 30
0.0
 11
3940.4715266765
 21
9184.2394611764
 31
0.0
  0
LINE
  5
482
330
1F
100
AcDbEntity
  8
0
  6
Continuous
 62
     8
370
    25
100
AcDbLine
 10
3970.280751137
 20
9113.9394611764
 30
0.0
 11
3984.2446266787
 21
9113.9394611764
 31
0.0
  0
LINE
  5
483
330
1F
100
AcDbEntity
  8
0
  6
Continuous
 62
     8
370
    25
100
AcDbLine
 10
3962.7446266787
 20
9113.9394611764
 30
0.0
 11
3970.280751137
 21
9113.9394611764
 31
0.0
  0
LWPOLYLINE
  5
484
330
1F
100
AcDbEntity
  8
0
  6
Continuous
 62
     8
370
    25
100
AcDbPolyline
 90
        6
 70
   128
 43
0.0
 10
3969.2139744837
 20
9069.4994571562
 10
3967.9382437735
 20
9069.2638326809
 10
3966.9068493328
 20
9068.9584139605
 10
3966.1753939028
 20
9068.5996661973
 10
3965.7833104351
 20
9068.2069295762
 10
3965.7205294191
 20
9067.9718584018
  0
LWPOLYLINE
  5
485
330
1F
100
AcDbEntity
  8
0
  6
Continuous
 62
     8
370
    25
100
AcDbPolyline
 90
        3
 70
   128
 43
0.0
 10
3971.2960742952
 20
9069.6895763226
 10
3970.6652664906
 20
9069.6525848101
 10
3969.2139744837
 20
9069.4994571562
  0
ARC
  5
486
330
1F
100
AcDbEntity
  8
0
  6
Continuous
 62
     8
370
    25
100
AcDbCircle
 10
3964.0783824978
 20
9064.979047923
 30
0.0
 40
2.515466037847326
100
AcDbArc
 50
200.3899168974
 51
261.821109352
  0
LINE
  5
487
330
1F
100
AcDbEntity
  8
0
  6
Continuous
 62
     8
370
    25
100
AcDbLine
 10
3996.8964718972
 20
9113.9394611764
 30
0.0
 11
4011.2905498148
 21
9113.9394611764
 31
0.0
  0
LINE
  5
488
330
1F
100
AcDbEntity
  8
0
  6
Continuous
 62
     8
370
    25
100
AcDbLine
 10
3989.7905498148
 20
9113.9394611764
 30
0.0
 11
3996.8964718972
 21
9113.9394611764
 31
0.0
  0
LINE
  5
489
330
1F
100
AcDbEntity
  8
0
  6
Continuous
 62
     8
370
    25
100
AcDbLine
 10
3347.831726326
 20
9066.5425757878
 30
0.0
 11
3346.5433448355
 21
9066.8877965677
 31
0.0
  0
LINE
  5
48A
330
1F
100
AcDbEntity
  8
0
  6
Continuous
 62
     8
370
    25
100
AcDbLine
 10
3367.3107501007
 20
9061.323187098
 30
0.0
 11
3347.831726326
 21
9066.5425757878
 31
0.0
  0
LWPOLYLINE
  5
48B
330
1F
100
AcDbEntity
  8
0
  6
Continuous
 62
     8
370
    25
100
AcDbPolyline
 90
        3
 70
   128
 43
0.0
 10
3963.9444452974
 20
9064.6704184685
 10
3963.7226000393
 20
9064.1602017019
 10
3963.7205215757
 20
9064.1054918328
  0
LWPOLYLINE
  5
48C
330
1F
100
AcDbEntity
  8
0
  6
Continuous
 62
     8
370
    25
100
AcDbPolyline
 90
       17
 70
   128
 43
0.0
 10
3985.2205215757
 20
9064.1054918328
 10
3985.074280793
 20
9064.5628618094
 10
3984.5690201716
 20
9065.0593664691
 10
3983.7198672923
 20
9065.523388072
 10
3982.555739038
 20
9065.9391249191
 10
3981.1162784002
 20
9066.2924195906
 10
3979.4505044844
 20
9066.5712410603
 10
3977.6151432235
 20
9066.7660943974
 10
3975.6726956439
 20
9066.8703441052
 10
3973.6893094683
 20
9066.8804400849
 10
3971.732526534
 20
9066.7960385301
 10
3969.868982737
 20
9066.6200136344
 10
3968.1621388263
 20
9066.3583597147
 10
3966.670119324
 20
9066.0199870812
 10
3965.4437331648
 20
9065.6164186083
 10
3964.5247434585
 20
9065.1613973361
 10
3963.9444452974
 20
9064.6704184685
  0
LINE
  5
48D
330
1F
100
AcDbEntity
  8
0
  6
Continuous
 62
     8
370
    25
100
AcDbLine
 10
4620.1223305901
 20
9064.6704184685
 30
0.0
 11
4607.6302930507
 21
9061.323187098
 31
0.0
  0
LINE
  5
48E
330
1F
100
AcDbEntity
  8
0
  6
Continuous
 62
     8
370
    25
100
AcDbLine
 10
4628.3976983159
 20
9066.8877965677
 30
0.0
 11
4620.1223305901
 21
9064.6704184685
 31
0.0
  0
LWPOLYLINE
  5
48F
330
1F
100
AcDbEntity
  8
0
  6
Continuous
 62
     8
370
    25
100
AcDbPolyline
 90
       13
 70
   128
 43
0.0
 10
4007.6568743518
 20
9066.5425757878
 10
4005.8383502657
 20
9066.7477317179
 10
4003.9051388129
 20
9066.8629093377
 10
4001.9230731906
 20
9066.8841864116
 10
3999.9596502666
 20
9066.8108383743
 10
3998.0817320535
 20
9066.6453630052
 10
3996.3532688038
 20
9066.3933953696
 10
3994.8331212604
 20
9066.0635159231
 10
3993.5730562247
 20
9065.6669583145
 10
3992.6159837002
 20
9065.2172268377
 10
3991.9944956438
 20
9064.7296365587
 10
3991.7297560859
 20
9064.2207917797
 10
3991.7205215757
 20
9064.1054918328
  0
LWPOLYLINE
  5
490
330
1F
100
AcDbEntity
  8
0
  6
Continuous
 62
     8
370
    25
100
AcDbPolyline
 90
        7
 70
   128
 43
0.0
 10
4013.2205215757
 20
9064.1054918328
 10
4013.1102627367
 20
9064.5029630665
 10
4012.6469147836
 20
9065.0021988408
 10
4011.8370219652
 20
9065.4708983334
 10
4010.7081642098
 20
9065.8931005453
 10
4009.2987834145
 20
9066.2544278865
 10
4007.6568743518
 20
9066.5425757878
  0
LINE
  5
491
330
1F
100
AcDbEntity
  8
0
  6
Continuous
 62
     8
370
    25
100
AcDbLine
 10
4015.4795691933
 20
8920.0401349989
 30
0.0
 11
4015.4795691933
 21
8918.5395133372
 31
0.0
  0
LINE
  5
492
330
1F
100
AcDbEntity
  8
0
  6
Continuous
 62
     8
370
    25
100
AcDbLine
 10
3961.4614739581
 20
8920.0401349989
 30
0.0
 11
3961.4614739581
 21
8918.5395133372
 31
0.0
  0
LINE
  5
493
330
1F
100
AcDbEntity
  8
0
  6
Continuous
 62
     8
370
    25
100
AcDbLine
 10
3958.659544135
 20
8920.7461639585
 30
0.0
 11
3958.659544135
 21
8920.2683793508
 31
0.0
  0
LINE
  5
494
330
1F
100
AcDbEntity
  8
0
  6
Continuous
 62
     8
370
    25
100
AcDbLine
 10
3944.7334024622
 20
8927.3195012337
 30
0.0
 11
3944.7334024622
 21
8926.5112978737
 31
0.0
  0
LINE
  5
495
330
1F
100
AcDbEntity
  8
0
  6
Continuous
 62
     8
370
    25
100
AcDbLine
 10
3939.3494689441
 20
8927.6396488451
 30
0.0
 11
3939.3494689441
 21
8927.555478533
 31
0.0
  0
LINE
  5
496
330
1F
100
AcDbEntity
  8
0
  6
Continuous
 62
     8
370
    25
100
AcDbLine
 10
3959.4614739581
 20
9057.4415601053
 30
0.0
 11
3959.4614739581
 21
9057.1966420178
 31
0.0
  0
LINE
  5
497
330
1F
100
AcDbEntity
  8
0
  6
Continuous
 62
     8
370
    25
100
AcDbLine
 10
4577.4705215757
 20
8986.7441060775
 30
0.0
 11
4039.9705215757
 21
8986.7441060775
 31
0.0
  0
LINE
  5
498
330
1F
100
AcDbEntity
  8
0
  6
Continuous
 62
     8
370
    25
100
AcDbLine
 10
4577.4705215757
 20
8951.7441060775
 30
0.0
 11
4039.9705215757
 21
8951.7441060775
 31
0.0
  0
LINE
  5
499
330
1F
100
AcDbEntity
  8
0
  6
Continuous
 62
     8
370
    25
100
AcDbLine
 10
3428.1171735705
 20
8986.7441060775
 30
0.0
 11
3936.9705215756
 21
8986.7441060775
 31
0.0
  0
LINE
  5
49A
330
1F
100
AcDbEntity
  8
0
  6
Continuous
 62
     8
370
    25
100
AcDbLine
 10
3397.4705215757
 20
8951.7441060775
 30
0.0
 11
3404.1908196292
 21
8951.7441060775
 31
0.0
  0
LINE
  5
49B
330
1F
100
AcDbEntity
  8
0
  6
Continuous
 62
     8
370
    25
100
AcDbLine
 10
3429.460100384
 20
8951.7441060775
 30
0.0
 11
3936.9705215756
 21
8951.7441060775
 31
0.0
  0
LINE
  5
49C
330
1F
100
AcDbEntity
  8
THICK_LINE
 62
     7
100
AcDbLine
 10
3987.4705215757
 20
2969.2441060775
 30
0.0
 11
3987.4705215757
 21
2963.59821073
 31
0.0
  0
LINE
  5
49D
330
1F
100
AcDbEntity
  8
THICK_LINE
 62
     7
100
AcDbLine
 10
7383.1510463286
 20
2994.2441060775
 30
0.0
 11
7383.1510463286
 21
2988.138254064
 31
0.0
  0
DIMENSION
  5
49E
330
1F
100
AcDbEntity
  8
THICK_LINE
 62
     7
100
AcDbDimension
  2
_D
 10
7383.1510463286
 20
2472.3262511306
 30
0.0
 11
5561.2330286894
 21
2472.3262511306
 31
0.0
 70
   160
  1
3500
 71
     2
 42
-1.0
 73
     0
 74
     0
 75
     0
  3
SLDDIMSTYLE0
100
AcDbAlignedDimension
 13
3987.4705215757
 23
2963.59821073
 33
0.0
 14
7383.1510463286
 24
2988.138254064
 34
0.0
100
AcDbRotatedDimension
  0
DIMENSION
  5
4AA
330
1F
100
AcDbEntity
  8
THICK_LINE
 62
     7
100
AcDbDimension
  2
_D_1
 10
6757.5017107188
 20
7141.3451173845
 30
0.0
 11
5561.2330286894
 21
7141.3451173845
 31
0.0
 70
   160
  1
<>
 71
     2
 42
-1.0
 73
     0
 74
     0
 75
     0
  3
SLDDIMSTYLE0
100
AcDbAlignedDimension
 13
4357.5017107188
 23
7793.7450797883
 33
0.0
 14
6757.5017107188
 24
7943.7450797883
 34
0.0
100
AcDbRotatedDimension
  0
DIMENSION
  5
4B4
330
1F
100
AcDbEntity
  8
THICK_LINE
 62
     7
100
AcDbDimension
  2
_D_2
 10
4697.9245354439
 20
9637.2394611764
 30
0.0
 11
3995.7865838429
 21
9637.2394611764
 31
0.0
 70
   160
  1
1420
 71
     2
 42
-1.0
 73
     0
 74
     0
 75
     0
  3
SLDDIMSTYLE0
100
AcDbAlignedDimension
 13
3277.0165077075
 23
8940.2682083169
 33
0.0
 14
4697.9245354439
 24
8940.2682083169
 34
0.0
100
AcDbRotatedDimension
  0
DIMENSION
  5
4BE
330
1F
100
AcDbEntity
  8
THICK_LINE
 62
     7
100
AcDbDimension
  2
_D_3
 10
4502.4705215757
 20
2106.3906094146
 30
0.0
 11
3976.6043404223
 21
2106.3906094146
 31
0.0
 70
   160
  1
<>
 71
     2
 42
-1.0
 73
     0
 74
     0
 75
     0
  3
SLDDIMSTYLE1
100
AcDbAlignedDimension
 13
3472.4705215757
 23
2969.2441060775
 33
0.0
 14
4502.4705215757
 24
2969.2441060775
 34
0.0
100
AcDbRotatedDimension
  0
DIMENSION
  5
4C9
330
1F
100
AcDbEntity
  8
THICK_LINE
 62
     7
100
AcDbDimension
  2
_D_4
 10
1868.4399409997
 20
9237.2394611764
 30
0.0
 11
1868.4399409997
 21
6128.6259602984
 31
0.0
 70
   160
  1
6300
 71
     2
 42
-1.0
 73
     0
 74
     0
 75
     0
  3
SLDDIMSTYLE0
100
AcDbAlignedDimension
 13
3945.4705215757
 23
2969.2441060775
 33
0.0
 14
3946.5175882468
 24
9237.2394611764
 34
0.0
 50
90.0
100
AcDbRotatedDimension
  0
DIMENSION
  5
4D3
330
1F
100
AcDbEntity
  8
THICK_LINE
 62
     7
100
AcDbDimension
  2
_D_5
 10
2060.4399409997
 20
7794.2441060775
 30
0.0
 11
2060.4399409997
 21
6128.6259602984
 31
0.0
 70
   160
  1
4800
 71
     2
 42
-1.0
 73
     0
 74
     0
 75
     0
  3
SLDDIMSTYLE0
100
AcDbAlignedDimension
 13
3945.4705215757
 23
2969.2441060775
 33
0.0
 14
4357.4705215757
 24
7794.2441060775
 34
0.0
 50
90.0
100
AcDbRotatedDimension
  0
DIMENSION
  5
4DD
330
1F
100
AcDbEntity
  8
THICK_LINE
 62
     7
100
AcDbDimension
  2
_D_6
 10
2332.1841014982
 20
7793.7450797883
 30
0.0
 11
2332.1841014982
 21
8073.7657257033
 31
0.0
 70
   160
  1
%%c600
 71
     2
 42
-1.0
 73
     0
 74
     0
 75
     0
  3
SLDDIMSTYLE1
100
AcDbAlignedDimension
 13
4357.5017107188
 23
8402.7431323668
 33
0.0
 14
4357.5017107188
 24
7793.7450797883
 34
0.0
 50
90.0
100
AcDbRotatedDimension
  0
DIMENSION
  5
4EA
330
1F
100
AcDbEntity
  8
THICK_LINE
 62
     7
100
AcDbDimension
  2
_D_7
 10
7314.3056293279
 20
7943.7450797883
 30
0.0
 11
7314.3056293279
 21
8588.9087061475
 31
0.0
 70
   160
  1
%%c300
 71
     2
 42
-1.0
 73
     0
 74
     0
 75
     0
  3
SLDDIMSTYLE1
100
AcDbAlignedDimension
 13
6757.5017107188
 23
8252.7431323668
 33
0.0
 14
6757.5017107188
 24
7943.7450797883
 34
0.0
 50
90.0
100
AcDbRotatedDimension
  0
INSERT
  5
4FC
330
1F
100
AcDbEntity
  8
THICK_LINE
 62
     7
100
AcDbBlockReference
  2
SW_NOTE_4
 10
6676.3906581741
 20
9291.1068606576
 30
0.0
  0
LEADER
  5
4FE
330
1F
100
AcDbEntity
  8
THICK_LINE
 62
     7
100
AcDbLeader
  3
SLDDIMSTYLE2
 76
     2
 10
5797.4705215757
 20
8137.4322510073
 30
0.0
 10
6676.3906581741
 20
9291.1068606576
 30
0.0
  0
INSERT
  5
504
330
1F
100
AcDbEntity
  8
THICK_LINE
 62
     7
100
AcDbBlockReference
  2
SW_NOTE_5
 10
5058.5562632696
 20
9588.3467757319
 30
0.0
  0
LEADER
  5
505
330
1F
100
AcDbEntity
  8
THICK_LINE
 62
     7
100
AcDbLeader
  3
SLDDIMSTYLE2
 76
     2
 10
4299.9223077545
 20
8986.7441060775
 30
0.0
 10
5058.5562632696
 20
9588.3467757319
 30
0.0
  0
INSERT
  5
50B
330
1F
100
AcDbEntity
  8
THICK_LINE
 62
     7
100
AcDbBlockReference
  2
SW_NOTE_6
 10
2911.1528316526
 20
9673.2724657531
 30
0.0
  0
LEADER
  5
50C
330
1F
100
AcDbEntity
  8
THICK_LINE
 62
     7
100
AcDbLeader
  3
SLDDIMSTYLE2
 76
     2
 10
3997.4282563559
 20
9235.2394611764
 30
0.0
 10
2911.1528316526
 20
9673.2724657531
 30
0.0
  0
INSERT
  5
512
330
1F
100
AcDbEntity
  8
THICK_LINE
 62
     7
100
AcDbBlockReference
  2
SW_NOTE_7
 10
2623.8740900545
 20
9291.1068606576
 30
0.0
  0
LEADER
  5
513
330
1F
100
AcDbEntity
  8
THICK_LINE
 62
     7
100
AcDbLeader
  3
SLDDIMSTYLE2
 76
     2
 10
3952.4705215757
 20
8067.3480955964
 30
0.0
 10
2623.8740900545
 20
9291.1068606576
 30
0.0
  0
INSERT
  5
519
330
1F
100
AcDbEntity
  8
THICK_LINE
 62
     7
100
AcDbBlockReference
  2
SW_NOTE_8
 10
6701.8683651805
 20
6624.4401939909
 30
0.0
  0
LEADER
  5
51A
330
1F
100
AcDbEntity
  8
THICK_LINE
 62
     7
100
AcDbLeader
  3
SLDDIMSTYLE2
 76
     2
 10
4012.4705215757
 20
6088.7683701868
 30
0.0
 10
6701.8683651805
 20
6624.4401939909
 30
0.0
  0
INSERT
  5
523
330
1F
100
AcDbEntity
  8
THICK_LINE
 62
     7
100
AcDbBlockReference
  2
SW_NOTE_9
 10
6090.4033970276
 20
5563.1054410604
 30
0.0
  0
LEADER
  5
524
330
1F
100
AcDbEntity
  8
THICK_LINE
 62
     7
100
AcDbLeader
  3
SLDDIMSTYLE2
 76
     2
 10
3376.6120786125
 20
4337.561087225
 30
0.0
 10
6090.4033970276
 20
5563.1054410604
 30
0.0
  0
LEADER
  5
525
330
1F
100
AcDbEntity
  8
THICK_LINE
 62
     7
100
AcDbLeader
  3
SLDDIMSTYLE2
 76
     2
 10
2592.498927539
 20
4811.8380406781
 30
0.0
 10
6090.4033970276
 20
5563.1054410604
 30
0.0
  0
LEADER
  5
526
330
1F
100
AcDbEntity
  8
THICK_LINE
 62
     7
100
AcDbLeader
  3
SLDDIMSTYLE2
 76
     2
 10
5663.2724025883
 20
5085.8130999345
 30
0.0
 10
6090.4033970276
 20
5563.1054410604
 30
0.0
  0
INSERT
  5
52C
330
1F
100
AcDbEntity
  8
THICK_LINE
 62
     7
100
AcDbBlockReference
  2
SW_NOTE_10
 10
6757.0700636943
 20
4683.8881770058
 30
0.0
  0
LEADER
  5
52D
330
1F
100
AcDbEntity
  8
THICK_LINE
 62
     7
100
AcDbLeader
  3
SLDDIMSTYLE2
 76
     2
 10
4021.8313660799
 20
3025.2441060775
 30
0.0
 10
6757.0700636943
 20
4683.8881770058
 30
0.0
  0
ENDSEC
  0
SECTION
  2
OBJECTS
  0
DICTIONARY
  5
C
330
0
100
AcDbDictionary
281
     1
  3
ACAD_DETAILVIEWSTYLE
350
536
  3
ACAD_GROUP
350
D
  3
ACAD_LAYOUT
350
1A
  3
ACAD_MATERIAL
350
43
  3
ACAD_MLEADERSTYLE
350
6B
  3
ACAD_MLINESTYLE
350
17
  3
ACAD_PLOTSETTINGS
350
19
  3
ACAD_PLOTSTYLENAME
350
E
  3
ACAD_SCALELIST
350
47
  3
ACAD_SECTIONVIEWSTYLE
350
537
  3
ACAD_TABLESTYLE
350
69
  3
ACAD_VISUALSTYLE
350
2A
  3
ACDB_RECOMPOSE_DATA
350
533
  3
AcDbVariableDictionary
350
52E
  0
SUN
  5
6D
330
29
100
AcDbSun
 90
        1
290
     0
 63
     7
421
 16777215
 40
1.0
291
     1
 91
  2455826
 92
 54000000
292
     0
 70
     2
 71
   256
280
     1
  0
DICTIONARY
  5
536
102
{ACAD_REACTORS
330
C
102
}
330
C
100
AcDbDictionary
281
     1
  0
DICTIONARY
  5
D
102
{ACAD_REACTORS
330
C
102
}
330
C
100
AcDbDictionary
281
     1
  0
DICTIONARY
  5
1A
102
{ACAD_REACTORS
330
C
102
}
330
C
100
AcDbDictionary
281
     1
  3
Layout1
350
1E
  3
Layout2
350
26
  3
Model
350
22
  0
DICTIONARY
  5
43
102
{ACAD_REACTORS
330
C
102
}
330
C
100
AcDbDictionary
281
     1
  3
ByBlock
350
45
  3
ByLayer
350
44
  3
Global
350
46
  0
DICTIONARY
  5
6B
102
{ACAD_REACTORS
330
C
102
}
330
C
100
AcDbDictionary
281
     1
  3
Standard
350
6C
  0
DICTIONARY
  5
17
102
{ACAD_REACTORS
330
C
102
}
330
C
100
AcDbDictionary
281
     1
  3
Standard
350
18
  0
DICTIONARY
  5
19
102
{ACAD_REACTORS
330
C
102
}
330
C
100
AcDbDictionary
281
     1
  0
ACDBDICTIONARYWDFLT
  5
E
102
{ACAD_REACTORS
330
C
102
}
330
C
100
AcDbDictionary
281
     1
  3
Normal
350
F
100
AcDbDictionaryWithDefault
340
F
  0
DICTIONARY
  5
47
102
{ACAD_REACTORS
330
C
102
}
330
C
100
AcDbDictionary
281
     1
  3
A0
350
48
  3
A1
350
49
  3
A2
350
4A
  3
A3
350
4B
  3
A4
350
4C
  3
A5
350
4D
  3
A6
350
4E
  3
A7
350
4F
  3
A8
350
50
  3
A9
350
51
  3
B0
350
52
  3
B1
350
53
  3
B2
350
54
  3
B3
350
55
  3
B4
350
56
  3
B5
350
57
  3
B6
350
58
  3
B7
350
59
  3
B8
350
5A
  3
B9
350
5B
  3
C0
350
5C
  3
C1
350
5D
  3
C2
350
5E
  3
C3
350
5F
  3
C4
350
60
  3
C5
350
61
  3
C6
350
62
  3
C7
350
63
  3
C8
350
64
  3
C9
350
65
  3
D0
350
66
  3
D1
350
67
  3
D2
350
68
  0
DICTIONARY
  5
537
102
{ACAD_REACTORS
330
C
102
}
330
C
100
AcDbDictionary
281
     1
  0
DICTIONARY
  5
69
102
{ACAD_REACTORS
330
C
102
}
330
C
100
AcDbDictionary
281
     1
  3
Standard
350
6A
  0
DICTIONARY
  5
2A
102
{ACAD_REACTORS
330
C
102
}
330
C
100
AcDbDictionary
281
     1
  3
2dWireframe
350
2F
  3
Basic
350
32
  3
Brighten
350
36
  3
ColorChange
350
3A
  3
Conceptual
350
34
  3
Dim
350
35
  3
EdgeColorOff
350
3D
  3
Facepattern
350
39
  3
Flat
350
2B
  3
FlatWithEdges
350
2C
  3
Gouraud
350
2D
  3
GouraudWithEdges
350
2E
  3
Hidden
350
31
  3
JitterOff
350
3B
  3
Linepattern
350
38
  3
OverhangOff
350
3C
  3
Realistic
350
33
  3
Shaded
350
42
  3
Shaded with edges
350
41
  3
Shades of Gray
350
3E
  3
Sketchy
350
3F
  3
Thicken
350
37
  3
Wireframe
350
30
  3
X-Ray
350
40
  0
XRECORD
  5
533
102
{ACAD_REACTORS
330
C
102
}
330
C
100
AcDbXrecord
280
     1
 90
        1
330
6A
  0
DICTIONARY
  5
52E
102
{ACAD_REACTORS
330
C
102
}
330
C
100
AcDbDictionary
281
     1
  3
CANNOSCALE
350
52F
  3
CMLEADERSTYLE
350
535
  3
CTABLESTYLE
350
534
  0
LAYOUT
  5
1E
102
{ACAD_REACTORS
330
1A
102
}
330
1A
100
AcDbPlotSettings
  1

  2
none_device
  4

  6

 40
0.0
 41
0.0
 42
0.0
 43
0.0
 44
0.0
 45
0.0
 46
0.0
 47
0.0
 48
0.0
 49
0.0
140
0.0
141
0.0
142
1.0
143
1.0
 70
   688
 72
     1
 73
     0
 74
     5
  7

 75
    16
 76
     0
 77
     2
 78
   300
147
1.0
148
0.0
149
0.0
100
AcDbLayout
  1
Layout1
 70
     1
 71
     1
 10
0.0
 20
0.0
 11
420.0
 21
297.0
 12
0.0
 22
0.0
 32
0.0
 14
1.0000000000E+20
 24
1.0000000000E+20
 34
1.0000000000E+20
 15
-1.0000000000E+20
 25
-1.0000000000E+20
 35
-1.0000000000E+20
146
0.0
 13
0.0
 23
0.0
 33
0.0
 16
1.0
 26
0.0
 36
0.0
 17
0.0
 27
1.0
 37
0.0
 76
     0
330
1B
  0
LAYOUT
  5
26
102
{ACAD_REACTORS
330
1A
102
}
330
1A
100
AcDbPlotSettings
  1

  2
none_device
  4

  6

 40
0.0
 41
0.0
 42
0.0
 43
0.0
 44
0.0
 45
0.0
 46
0.0
 47
0.0
 48
0.0
 49
0.0
140
0.0
141
0.0
142
1.0
143
1.0
 70
   688
 72
     1
 73
     0
 74
     5
  7

 75
    16
 76
     0
 77
     2
 78
   300
147
1.0
148
0.0
149
0.0
100
AcDbLayout
  1
Layout2
 70
     1
 71
     2
 10
0.0
 20
0.0
 11
0.0
 21
0.0
 12
0.0
 22
0.0
 32
0.0
 14
0.0
 24
0.0
 34
0.0
 15
0.0
 25
0.0
 35
0.0
146
0.0
 13
0.0
 23
0.0
 33
0.0
 16
1.0
 26
0.0
 36
0.0
 17
0.0
 27
1.0
 37
0.0
 76
     0
330
23
  0
LAYOUT
  5
22
102
{ACAD_REACTORS
330
1A
102
}
330
1A
100
AcDbPlotSettings
  1

  2
none_device
  4
Letter_(8.50_x_11.00_Inches)
  6

 40
6.35
 41
6.35
 42
6.35000508
 43
6.35000508
 44
215.9
 45
279.4
 46
0.0
 47
0.0
 48
0.0
 49
0.0
140
0.0
141
0.0
142
1.0
143
1.0
 70
  1712
 72
     1
 73
     0
 74
     0
  7

 75
     0
 76
     0
 77
     2
 78
   300
147
1.0
148
0.0
149
0.0
100
AcDbLayout
  1
Model
 70
     1
 71
     0
 10
0.0
 20
0.0
 11
8400.0
 21
11880.0
 12
0.0
 22
0.0
 32
0.0
 14
0.0
 24
0.0
 34
0.0
 15
8400.0
 25
11880.0
 35
0.0
146
0.0
 13
0.0
 23
0.0
 33
0.0
 16
1.0
 26
0.0
 36
0.0
 17
0.0
 27
1.0
 37
0.0
 76
     0
330
1F
331
29
  0
MATERIAL
  5
45
102
{ACAD_REACTORS
330
43
102
}
330
43
100
AcDbMaterial
  1
ByBlock
 72
     1
 94
      127
  0
MATERIAL
  5
44
102
{ACAD_REACTORS
330
43
102
}
330
43
100
AcDbMaterial
  1
ByLayer
 72
     1
 94
      127
  0
MATERIAL
  5
46
102
{ACAD_REACTORS
330
43
102
}
330
43
100
AcDbMaterial
  1
Global
 72
     1
 94
      127
  0
MLEADERSTYLE
  5
6C
102
{ACAD_REACTORS
330
6B
102
}
330
6B
100
AcDbMLeaderStyle
170
     2
171
     1
172
     0
 90
        2
 40
0.0
 41
0.0
173
     1
 91
-1056964608
340
14
 92
       -2
290
     1
 42
2.0
291
     1
 43
8.0
  3
Standard
341
0
 44
4.0
300

342
11
174
     1
178
     6
175
     1
176
     0
 93
-1056964608
 45
4.0
292
     0
297
     0
 46
4.0
343
0
 94
-1056964608
 47
1.0
 49
1.0
140
1.0
293
     1
141
0.0
294
     1
177
     0
142
1.0
295
     0
296
     0
143
3.75
1001
ACAD_MLEADERVER
1070
     2
  0
MLINESTYLE
  5
18
102
{ACAD_REACTORS
330
17
102
}
330
17
100
AcDbMlineStyle
  2
Standard
 70
     0
  3

 62
   256
 51
90.0
 52
90.0
 71
     2
 49
0.5
 62
   256
  6
BYLAYER
 49
-0.5
 62
   256
  6
BYLAYER
  0
ACDBPLACEHOLDER
  5
F
102
{ACAD_REACTORS
330
E
102
}
330
E
  0
SCALE
  5
48
102
{ACAD_REACTORS
330
47
102
}
330
47
100
AcDbScale
 70
     0
300
1:1
140
1.0
141
1.0
290
     1
  0
SCALE
  5
49
102
{ACAD_REACTORS
330
47
102
}
330
47
100
AcDbScale
 70
     0
300
1:2
140
1.0
141
2.0
290
     0
  0
SCALE
  5
4A
102
{ACAD_REACTORS
330
47
102
}
330
47
100
AcDbScale
 70
     0
300
1:4
140
1.0
141
4.0
290
     0
  0
SCALE
  5
4B
102
{ACAD_REACTORS
330
47
102
}
330
47
100
AcDbScale
 70
     0
300
1:5
140
1.0
141
5.0
290
     0
  0
SCALE
  5
4C
102
{ACAD_REACTORS
330
47
102
}
330
47
100
AcDbScale
 70
     0
300
1:8
140
1.0
141
8.0
290
     0
  0
SCALE
  5
4D
102
{ACAD_REACTORS
330
47
102
}
330
47
100
AcDbScale
 70
     0
300
1:10
140
1.0
141
10.0
290
     0
  0
SCALE
  5
4E
102
{ACAD_REACTORS
330
47
102
}
330
47
100
AcDbScale
 70
     0
300
1:16
140
1.0
141
16.0
290
     0
  0
SCALE
  5
4F
102
{ACAD_REACTORS
330
47
102
}
330
47
100
AcDbScale
 70
     0
300
1:20
140
1.0
141
20.0
290
     0
  0
SCALE
  5
50
102
{ACAD_REACTORS
330
47
102
}
330
47
100
AcDbScale
 70
     0
300
1:30
140
1.0
141
30.0
290
     0
  0
SCALE
  5
51
102
{ACAD_REACTORS
330
47
102
}
330
47
100
AcDbScale
 70
     0
300
1:40
140
1.0
141
40.0
290
     0
  0
SCALE
  5
52
102
{ACAD_REACTORS
330
47
102
}
330
47
100
AcDbScale
 70
     0
300
1:50
140
1.0
141
50.0
290
     0
  0
SCALE
  5
53
102
{ACAD_REACTORS
330
47
102
}
330
47
100
AcDbScale
 70
     0
300
1:100
140
1.0
141
100.0
290
     0
  0
SCALE
  5
54
102
{ACAD_REACTORS
330
47
102
}
330
47
100
AcDbScale
 70
     0
300
2:1
140
2.0
141
1.0
290
     0
  0
SCALE
  5
55
102
{ACAD_REACTORS
330
47
102
}
330
47
100
AcDbScale
 70
     0
300
4:1
140
4.0
141
1.0
290
     0
  0
SCALE
  5
56
102
{ACAD_REACTORS
330
47
102
}
330
47
100
AcDbScale
 70
     0
300
8:1
140
8.0
141
1.0
290
     0
  0
SCALE
  5
57
102
{ACAD_REACTORS
330
47
102
}
330
47
100
AcDbScale
 70
     0
300
10:1
140
10.0
141
1.0
290
     0
  0
SCALE
  5
58
102
{ACAD_REACTORS
330
47
102
}
330
47
100
AcDbScale
 70
     0
300
100:1
140
100.0
141
1.0
290
     0
  0
SCALE
  5
59
102
{ACAD_REACTORS
330
47
102
}
330
47
100
AcDbScale
 70
     0
300
1/128" = 1'-0"
140
0.0078125
141
12.0
290
     0
  0
SCALE
  5
5A
102
{ACAD_REACTORS
330
47
102
}
330
47
100
AcDbScale
 70
     0
300
1/64" = 1'-0"
140
0.015625
141
12.0
290
     0
  0
SCALE
  5
5B
102
{ACAD_REACTORS
330
47
102
}
330
47
100
AcDbScale
 70
     0
300
1/32" = 1'-0"
140
0.03125
141
12.0
290
     0
  0
SCALE
  5
5C
102
{ACAD_REACTORS
330
47
102
}
330
47
100
AcDbScale
 70
     0
300
1/16" = 1'-0"
140
0.0625
141
12.0
290
     0
  0
SCALE
  5
5D
102
{ACAD_REACTORS
330
47
102
}
330
47
100
AcDbScale
 70
     0
300
3/32" = 1'-0"
140
0.09375
141
12.0
290
     0
  0
SCALE
  5
5E
102
{ACAD_REACTORS
330
47
102
}
330
47
100
AcDbScale
 70
     0
300
1/8" = 1'-0"
140
0.125
141
12.0
290
     0
  0
SCALE
  5
5F
102
{ACAD_REACTORS
330
47
102
}
330
47
100
AcDbScale
 70
     0
300
3/16" = 1'-0"
140
0.1875
141
12.0
290
     0
  0
SCALE
  5
60
102
{ACAD_REACTORS
330
47
102
}
330
47
100
AcDbScale
 70
     0
300
1/4" = 1'-0"
140
0.25
141
12.0
290
     0
  0
SCALE
  5
61
102
{ACAD_REACTORS
330
47
102
}
330
47
100
AcDbScale
 70
     0
300
3/8" = 1'-0"
140
0.375
141
12.0
290
     0
  0
SCALE
  5
62
102
{ACAD_REACTORS
330
47
102
}
330
47
100
AcDbScale
 70
     0
300
1/2" = 1'-0"
140
0.5
141
12.0
290
     0
  0
SCALE
  5
63
102
{ACAD_REACTORS
330
47
102
}
330
47
100
AcDbScale
 70
     0
300
3/4" = 1'-0"
140
0.75
141
12.0
290
     0
  0
SCALE
  5
64
102
{ACAD_REACTORS
330
47
102
}
330
47
100
AcDbScale
 70
     0
300
1" = 1'-0"
140
1.0
141
12.0
290
     0
  0
SCALE
  5
65
102
{ACAD_REACTORS
330
47
102
}
330
47
100
AcDbScale
 70
     0
300
1-1/2" = 1'-0"
140
1.5
141
12.0
290
     0
  0
SCALE
  5
66
102
{ACAD_REACTORS
330
47
102
}
330
47
100
AcDbScale
 70
     0
300
3" = 1'-0"
140
3.0
141
12.0
290
     0
  0
SCALE
  5
67
102
{ACAD_REACTORS
330
47
102
}
330
47
100
AcDbScale
 70
     0
300
6" = 1'-0"
140
6.0
141
12.0
290
     0
  0
SCALE
  5
68
102
{ACAD_REACTORS
330
47
102
}
330
47
100
AcDbScale
 70
     0
300
1'-0" = 1'-0"
140
12.0
141
12.0
290
     0
  0
TABLESTYLE
  5
6A
102
{ACAD_REACTORS
330
69
102
}
102
{ACAD_XDICTIONARY
360
530
102
}
330
69
100
AcDbTableStyle
  3
Standard
 70
     0
 71
     0
 40
0.06
 41
0.06
280
     0
281
     0
  7
STANDARD
140
4.5
170
     2
 62
     0
 63
   257
283
     0
 90
        4
 91
        0
  1

274
    -2
284
     1
 64
     0
275
    -2
285
     1
 65
     0
276
    -2
286
     1
 66
     0
277
    -2
287
     1
 67
     0
278
    -2
288
     1
 68
     0
279
    -2
289
     1
 69
     0
  7
STANDARD
140
6.0
170
     5
 62
     0
 63
   257
283
     0
 90
        4
 91
        0
  1

274
    -2
284
     1
 64
     0
275
    -2
285
     1
 65
     0
276
    -2
286
     1
 66
     0
277
    -2
287
     1
 67
     0
278
    -2
288
     1
 68
     0
279
    -2
289
     1
 69
     0
  7
STANDARD
140
4.5
170
     5
 62
     0
 63
   257
283
     0
 90
        4
 91
        0
  1

274
    -2
284
     1
 64
     0
275
    -2
285
     1
 65
     0
276
    -2
286
     1
 66
     0
277
    -2
287
     1
 67
     0
278
    -2
288
     1
 68
     0
279
    -2
289
     1
 69
     0
  0
VISUALSTYLE
  5
2F
102
{ACAD_REACTORS
330
2A
102
}
330
2A
100
AcDbVisualStyle
  2
2dWireframe
 70
     4
 71
     0
 72
     2
 73
     0
 90
        0
 40
0.6
 41
30.0
 62
     5
 63
     7
421
 16777215
 74
     1
 91
        4
 64
     7
 65
   257
 75
     1
175
     1
 42
1.0
 92
        0
 66
   257
 43
1.0
 76
     1
 77
     6
 78
     2
 67
     7
 79
     5
170
     0
171
     0
290
     0
174
     0
 93
        1
 44
0.0
173
     0
291
     0
 45
0.0
  0
VISUALSTYLE
  5
32
102
{ACAD_REACTORS
330
2A
102
}
330
2A
100
AcDbVisualStyle
  2
Basic
 70
     7
 71
     1
 72
     0
 73
     1
 90
        0
 40
0.6
 41
30.0
 62
     5
 63
     7
421
 16777215
 74
     0
 91
        4
 64
     7
 65
   257
 75
     1
175
     1
 42
1.0
 92
        8
 66
     7
 43
1.0
 76
     1
 77
     6
 78
     2
 67
     7
 79
     5
170
     0
171
     0
290
     0
174
     0
 93
        1
 44
0.0
173
     0
291
     1
 45
0.0
  0
VISUALSTYLE
  5
36
102
{ACAD_REACTORS
330
2A
102
}
330
2A
100
AcDbVisualStyle
  2
Brighten
 70
    12
 71
     2
 72
     2
 73
     0
 90
        0
 40
0.6
 41
30.0
 62
     5
 63
     7
421
 16777215
 74
     1
 91
        4
 64
     7
 65
   257
 75
     1
175
     1
 42
1.0
 92
        8
 66
     7
 43
1.0
 76
     1
 77
     6
 78
     2
 67
     7
 79
     5
170
     0
171
     0
290
     0
174
     0
 93
        1
 44
50.0
173
     0
291
     1
 45
0.0
  0
VISUALSTYLE
  5
3A
102
{ACAD_REACTORS
330
2A
102
}
330
2A
100
AcDbVisualStyle
  2
ColorChange
 70
    16
 71
     2
 72
     2
 73
     3
 90
        0
 40
0.6
 41
30.0
 62
     5
 63
     8
421
  8421504
 74
     1
 91
        4
 64
     7
 65
   257
 75
     1
175
     1
 42
1.0
 92
        8
 66
     8
424
  8421504
 43
1.0
 76
     1
 77
     6
 78
     2
 67
     7
 79
     5
170
     0
171
     0
290
     0
174
     0
 93
        1
 44
0.0
173
     0
291
     1
 45
0.0
  0
VISUALSTYLE
  5
34
102
{ACAD_REACTORS
330
2A
102
}
330
2A
100
AcDbVisualStyle
  2
Conceptual
 70
     9
 71
     3
 72
     2
 73
     0
 90
        0
 40
0.6
 41
30.0
 62
     5
 63
     7
421
 16777215
 74
     2
 91
        2
 64
     7
 65
   257
 75
     1
175
     1
 42
179.0
 92
        8
 66
     7
 43
1.0
 76
     1
 77
     6
 78
     2
 67
     7
 79
     3
170
     0
171
     0
290
     0
174
     0
 93
        1
 44
0.0
173
     0
291
     0
 45
0.0
  0
VISUALSTYLE
  5
35
102
{ACAD_REACTORS
330
2A
102
}
330
2A
100
AcDbVisualStyle
  2
Dim
 70
    11
 71
     2
 72
     2
 73
     0
 90
        0
 40
0.6
 41
30.0
 62
     5
 63
     7
421
 16777215
 74
     1
 91
        4
 64
     7
 65
   257
 75
     1
175
     1
 42
1.0
 92
        8
 66
     7
 43
1.0
 76
     1
 77
     6
 78
     2
 67
     7
 79
     5
170
     0
171
     0
290
     0
174
     0
 93
        1
 44
-50.0
173
     0
291
     1
 45
0.0
  0
VISUALSTYLE
  5
3D
102
{ACAD_REACTORS
330
2A
102
}
330
2A
100
AcDbVisualStyle
  2
EdgeColorOff
 70
    22
 71
     2
 72
     2
 73
     0
 90
        0
 40
0.6
 41
30.0
 62
     5
 63
     7
421
 16777215
 74
     1
 91
        4
 64
     7
 65
   257
 75
     1
175
     1
 42
1.0
 92
        8
 66
     7
 43
1.0
 76
     1
 77
     6
 78
     2
 67
     7
 79
     5
170
     0
171
     0
290
     0
174
     0
 93
        1
 44
0.0
173
     0
291
     1
 45
0.0
  0
VISUALSTYLE
  5
39
102
{ACAD_REACTORS
330
2A
102
}
330
2A
100
AcDbVisualStyle
  2
Facepattern
 70
    15
 71
     2
 72
     2
 73
     0
 90
        0
 40
0.6
 41
30.0
 62
     5
 63
     7
421
 16777215
 74
     1
 91
        4
 64
     7
 65
   257
 75
     1
175
     1
 42
1.0
 92
        8
 66
     7
 43
1.0
 76
     1
 77
     6
 78
     2
 67
     7
 79
     5
170
     0
171
     0
290
     0
174
     0
 93
        1
 44
0.0
173
     0
291
     1
 45
0.0
  0
VISUALSTYLE
  5
2B
102
{ACAD_REACTORS
330
2A
102
}
330
2A
100
AcDbVisualStyle
  2
Flat
 70
     0
 71
     2
 72
     1
 73
     1
 90
        2
 40
0.6
 41
30.0
 62
     5
 63
     7
421
 16777215
 74
     0
 91
        0
 64
     7
 65
   257
 75
     1
175
     1
 42
1.0
 92
        8
 66
     7
 43
1.0
 76
     1
 77
     6
 78
     2
 67
     7
 79
     5
170
     0
171
     0
290
     0
174
     0
 93
       13
 44
0.0
173
     0
291
     1
 45
0.0
  0
VISUALSTYLE
  5
2C
102
{ACAD_REACTORS
330
2A
102
}
330
2A
100
AcDbVisualStyle
  2
FlatWithEdges
 70
     1
 71
     2
 72
     1
 73
     1
 90
        2
 40
0.6
 41
30.0
 62
     5
 63
     7
421
 16777215
 74
     1
 91
        0
 64
     7
 65
   257
 75
     1
175
     1
 42
1.0
 92
        0
 66
   257
 43
1.0
 76
     1
 77
     6
 78
     2
 67
     7
 79
     5
170
     0
171
     0
290
     0
174
     0
 93
       13
 44
0.0
173
     0
291
     1
 45
0.0
  0
VISUALSTYLE
  5
2D
102
{ACAD_REACTORS
330
2A
102
}
330
2A
100
AcDbVisualStyle
  2
Gouraud
 70
     2
 71
     2
 72
     2
 73
     1
 90
        2
 40
0.6
 41
30.0
 62
     5
 63
     7
421
 16777215
 74
     0
 91
        0
 64
     7
 65
   257
 75
     1
175
     1
 42
1.0
 92
        0
 66
     7
 43
1.0
 76
     1
 77
     6
 78
     2
 67
     7
 79
     5
170
     0
171
     0
290
     0
174
     0
 93
       13
 44
0.0
173
     0
291
     1
 45
0.0
  0
VISUALSTYLE
  5
2E
102
{ACAD_REACTORS
330
2A
102
}
330
2A
100
AcDbVisualStyle
  2
GouraudWithEdges
 70
     3
 71
     2
 72
     2
 73
     1
 90
        2
 40
0.6
 41
30.0
 62
     5
 63
     7
421
 16777215
 74
     1
 91
        0
 64
     7
 65
   257
 75
     1
175
     1
 42
1.0
 92
        0
 66
   257
 43
1.0
 76
     1
 77
     6
 78
     2
 67
     7
 79
     5
170
     0
171
     0
290
     0
174
     0
 93
       13
 44
0.0
173
     0
291
     1
 45
0.0
  0
VISUALSTYLE
  5
31
102
{ACAD_REACTORS
330
2A
102
}
330
2A
100
AcDbVisualStyle
  2
Hidden
 70
     6
 71
     1
 72
     2
 73
     2
 90
        0
 40
0.6
 41
30.0
 62
     5
 63
     7
421
 16777215
 74
     2
 91
        2
 64
     7
 65
   257
 75
     2
175
     1
 42
40.0
 92
        0
 66
   257
 43
1.0
 76
     1
 77
     6
 78
     2
 67
     7
 79
     3
170
     0
171
     0
290
     0
174
     0
 93
        1
 44
0.0
173
     0
291
     0
 45
0.0
  0
VISUALSTYLE
  5
3B
102
{ACAD_REACTORS
330
2A
102
}
330
2A
100
AcDbVisualStyle
  2
JitterOff
 70
    20
 71
     2
 72
     2
 73
     0
 90
        0
 40
0.6
 41
30.0
 62
     5
 63
     7
421
 16777215
 74
     1
 91
        4
 64
     7
 65
   257
 75
     1
175
     1
 42
1.0
 92
       10
 66
     7
 43
1.0
 76
     1
 77
     6
 78
     2
 67
     7
 79
     5
170
     0
171
     0
290
     0
174
     0
 93
        1
 44
0.0
173
     0
291
     1
 45
0.0
  0
VISUALSTYLE
  5
38
102
{ACAD_REACTORS
330
2A
102
}
330
2A
100
AcDbVisualStyle
  2
Linepattern
 70
    14
 71
     2
 72
     2
 73
     0
 90
        0
 40
0.6
 41
30.0
 62
     5
 63
     7
421
 16777215
 74
     1
 91
        4
 64
     7
 65
   257
 75
     7
175
     7
 42
1.0
 92
        8
 66
     7
 43
1.0
 76
     1
 77
     6
 78
     2
 67
     7
 79
     5
170
     0
171
     0
290
     0
174
     0
 93
        1
 44
0.0
173
     0
291
     1
 45
0.0
  0
VISUALSTYLE
  5
3C
102
{ACAD_REACTORS
330
2A
102
}
330
2A
100
AcDbVisualStyle
  2
OverhangOff
 70
    21
 71
     2
 72
     2
 73
     0
 90
        0
 40
0.6
 41
30.0
 62
     5
 63
     7
421
 16777215
 74
     1
 91
        4
 64
     7
 65
   257
 75
     1
175
     1
 42
1.0
 92
        9
 66
     7
 43
1.0
 76
     1
 77
     6
 78
     2
 67
     7
 79
     5
170
     0
171
     0
290
     0
174
     0
 93
        1
 44
0.0
173
     0
291
     1
 45
0.0
  0
VISUALSTYLE
  5
33
102
{ACAD_REACTORS
330
2A
102
}
330
2A
100
AcDbVisualStyle
  2
Realistic
 70
     8
 71
     2
 72
     3
 73
     0
 90
        2
 40
0.6
 41
30.0
 62
     5
 63
     7
421
 16777215
 74
     0
 91
        0
 64
     7
 65
   257
 75
     1
175
     1
 42
1.0
 92
        8
 66
   257
 43
1.0
 76
     1
 77
     6
 78
     2
 67
     7
 79
     3
170
     0
171
     0
290
     0
174
     0
 93
       13
 44
0.0
173
     0
291
     0
 45
0.0
  0
VISUALSTYLE
  5
42
102
{ACAD_REACTORS
330
2A
102
}
330
2A
100
AcDbVisualStyle
  2
Shaded
 70
    27
 71
     2
 72
     2
 73
     1
 90
        2
 40
0.6
 41
30.0
 62
     5
 63
     7
421
 16777215
 74
     0
 91
        4
 64
     7
 65
   257
 75
     1
175
     1
 42
1.0
 92
        8
 66
   257
 43
1.0
 76
     1
 77
     6
 78
     2
 67
     8
425
  7895160
 79
     3
170
     0
171
     0
290
     0
174
     0
 93
        5
 44
0.0
173
     0
291
     0
 45
0.0
  0
VISUALSTYLE
  5
41
102
{ACAD_REACTORS
330
2A
102
}
330
2A
100
AcDbVisualStyle
  2
Shaded with edges
 70
    26
 71
     2
 72
     2
 73
     1
 90
        2
 40
0.6
 41
30.0
 62
     5
 63
     7
421
 16777215
 74
     1
 91
       10
 64
     7
 65
   257
 75
     2
175
     1
 42
1.0
 92
        8
 66
   257
 43
1.0
 76
     1
 77
     6
 78
     2
 67
     7
 79
     3
170
     0
171
     0
290
     0
174
     0
 93
        5
 44
0.0
173
     0
291
     0
 45
0.0
  0
VISUALSTYLE
  5
3E
102
{ACAD_REACTORS
330
2A
102
}
330
2A
100
AcDbVisualStyle
  2
Shades of Gray
 70
    23
 71
     2
 72
     2
 73
     3
 90
        0
 40
0.6
 41
30.0
 62
     5
 63
     7
421
 16777215
 74
     2
 91
        2
 64
     7
 65
     7
 75
     1
175
     1
 42
40.0
 92
        8
 66
     7
 43
1.0
 76
     1
 77
     6
 78
     2
 67
     7
 79
     3
170
     0
171
     0
290
     0
174
     0
 93
        1
 44
0.0
173
     0
291
     0
 45
0.0
  0
VISUALSTYLE
  5
3F
102
{ACAD_REACTORS
330
2A
102
}
330
2A
100
AcDbVisualStyle
  2
Sketchy
 70
    24
 71
     1
 72
     2
 73
     2
 90
        0
 40
0.6
 41
30.0
 62
     5
 63
     7
421
 16777215
 74
     2
 91
        2
 64
     7
 65
     7
 75
     1
175
     1
 42
40.0
 92
       11
 66
     7
 43
1.0
 76
     1
 77
     6
 78
     2
 67
     7
 79
     6
170
     0
171
     0
290
     0
174
     0
 93
        1
 44
0.0
173
     0
291
     0
 45
0.0
  0
VISUALSTYLE
  5
37
102
{ACAD_REACTORS
330
2A
102
}
330
2A
100
AcDbVisualStyle
  2
Thicken
 70
    13
 71
     2
 72
     2
 73
     0
 90
        0
 40
0.6
 41
30.0
 62
     5
 63
     7
421
 16777215
 74
     1
 91
        4
 64
     7
 65
   257
 75
     1
175
     1
 42
1.0
 92
       12
 66
     7
 43
1.0
 76
     1
 77
     6
 78
     2
 67
     7
 79
     5
170
     0
171
     0
290
     0
174
     0
 93
        1
 44
0.0
173
     0
291
     1
 45
0.0
  0
VISUALSTYLE
  5
30
102
{ACAD_REACTORS
330
2A
102
}
330
2A
100
AcDbVisualStyle
  2
Wireframe
 70
     5
 71
     0
 72
     2
 73
     0
 90
        0
 40
0.6
 41
30.0
 62
     5
 63
     7
421
 16777215
 74
     1
 91
        4
 64
     7
 65
   257
 75
     1
175
     1
 42
1.0
 92
        0
 66
   257
 43
1.0
 76
     1
 77
     6
 78
     2
 67
     7
 79
     3
170
     0
171
     0
290
     0
174
     0
 93
        1
 44
0.0
173
     0
291
     0
 45
0.0
  0
VISUALSTYLE
  5
40
102
{ACAD_REACTORS
330
2A
102
}
330
2A
100
AcDbVisualStyle
  2
X-Ray
 70
    25
 71
     2
 72
     2
 73
     1
 90
        1
 40
0.5
 41
30.0
 62
     5
 63
     7
421
 16777215
 74
     1
 91
        0
 64
     7
 65
   257
 75
     1
175
     1
 42
1.0
 92
        8
 66
     7
 43
1.0
 76
     1
 77
     6
 78
     2
 67
     7
 79
     3
170
     0
171
     0
290
     0
174
     0
 93
       13
 44
0.0
173
     0
291
     0
 45
0.0
  0
DICTIONARYVAR
  5
52F
102
{ACAD_REACTORS
330
52E
102
}
330
52E
100
DictionaryVariables
280
     0
  1
1:1
  0
DICTIONARYVAR
  5
535
102
{ACAD_REACTORS
330
52E
102
}
330
52E
100
DictionaryVariables
280
     0
  1
Standard
  0
DICTIONARYVAR
  5
534
102
{ACAD_REACTORS
330
52E
102
}
330
52E
100
DictionaryVariables
280
     0
  1
Standard
  0
DICTIONARY
  5
530
330
6A
100
AcDbDictionary
280
     1
281
     1
  3
ACAD_ROUNDTRIP_2008_TABLESTYLE_CELLSTYLEMAP
360
531
  0
CELLSTYLEMAP
  5
531
102
{ACAD_REACTORS
330
530
102
}
330
530
100
AcDbCellStyleMap
 90
        3
300
CELLSTYLE
  1
TABLEFORMAT_BEGIN
 90
        5
170
     1
 91
        0
 92
    32768
 62
   257
 93
        1
300
CONTENTFORMAT
  1
CONTENTFORMAT_BEGIN
 90
        0
 91
        0
 92
        4
 93
        0
300

 40
0.0
140
1.0
 94
        5
 62
     0
340
11
144
6.0
309
CONTENTFORMAT_END
171
     1
301
MARGIN
  1
CELLMARGIN_BEGIN
 40
1.5
 40
1.5
 40
1.5
 40
1.5
 40
1.5
 40
1.5
309
CELLMARGIN_END
 94
        6
 95
        1
302
GRIDFORMAT
  1
GRIDFORMAT_BEGIN
 90
        0
 91
        1
 62
     0
 92
       -2
340
14
 93
        0
 40
0.045
309
GRIDFORMAT_END
 95
        2
302
GRIDFORMAT
  1
GRIDFORMAT_BEGIN
 90
        0
 91
        1
 62
     0
 92
       -2
340
14
 93
        0
 40
0.045
309
GRIDFORMAT_END
 95
        4
302
GRIDFORMAT
  1
GRIDFORMAT_BEGIN
 90
        0
 91
        1
 62
     0
 92
       -2
340
14
 93
        0
 40
0.045
309
GRIDFORMAT_END
 95
        8
302
GRIDFORMAT
  1
GRIDFORMAT_BEGIN
 90
        0
 91
        1
 62
     0
 92
       -2
340
14
 93
        0
 40
0.045
309
GRIDFORMAT_END
 95
       16
302
GRIDFORMAT
  1
GRIDFORMAT_BEGIN
 90
        0
 91
        1
 62
     0
 92
       -2
340
14
 93
        0
 40
0.045
309
GRIDFORMAT_END
 95
       32
302
GRIDFORMAT
  1
GRIDFORMAT_BEGIN
 90
        0
 91
        1
 62
     0
 92
       -2
340
14
 93
        0
 40
0.045
309
GRIDFORMAT_END
309
TABLEFORMAT_END
  1
CELLSTYLE_BEGIN
 90
        1
 91
        1
300
_TITLE
309
CELLSTYLE_END
300
CELLSTYLE
  1
TABLEFORMAT_BEGIN
 90
        5
170
     1
 91
        0
 92
        0
 62
   257
 93
        1
300
CONTENTFORMAT
  1
CONTENTFORMAT_BEGIN
 90
        0
 91
        0
 92
        4
 93
        0
300

 40
0.0
140
1.0
 94
        5
 62
     0
340
11
144
4.5
309
CONTENTFORMAT_END
171
     1
301
MARGIN
  1
CELLMARGIN_BEGIN
 40
1.5
 40
1.5
 40
1.5
 40
1.5
 40
1.5
 40
1.5
309
CELLMARGIN_END
 94
        6
 95
        1
302
GRIDFORMAT
  1
GRIDFORMAT_BEGIN
 90
        0
 91
        1
 62
     0
 92
       -2
340
14
 93
        0
 40
0.045
309
GRIDFORMAT_END
 95
        2
302
GRIDFORMAT
  1
GRIDFORMAT_BEGIN
 90
        0
 91
        1
 62
     0
 92
       -2
340
14
 93
        0
 40
0.045
309
GRIDFORMAT_END
 95
        4
302
GRIDFORMAT
  1
GRIDFORMAT_BEGIN
 90
        0
 91
        1
 62
     0
 92
       -2
340
14
 93
        0
 40
0.045
309
GRIDFORMAT_END
 95
        8
302
GRIDFORMAT
  1
GRIDFORMAT_BEGIN
 90
        0
 91
        1
 62
     0
 92
       -2
340
14
 93
        0
 40
0.045
309
GRIDFORMAT_END
 95
       16
302
GRIDFORMAT
  1
GRIDFORMAT_BEGIN
 90
        0
 91
        1
 62
     0
 92
       -2
340
14
 93
        0
 40
0.045
309
GRIDFORMAT_END
 95
       32
302
GRIDFORMAT
  1
GRIDFORMAT_BEGIN
 90
        0
 91
        1
 62
     0
 92
       -2
340
14
 93
        0
 40
0.045
309
GRIDFORMAT_END
309
TABLEFORMAT_END
  1
CELLSTYLE_BEGIN
 90
        2
 91
        1
300
_HEADER
309
CELLSTYLE_END
300
CELLSTYLE
  1
TABLEFORMAT_BEGIN
 90
        5
170
     1
 91
        0
 92
        0
 62
   257
 93
        1
300
CONTENTFORMAT
  1
CONTENTFORMAT_BEGIN
 90
        0
 91
        0
 92
        4
 93
        0
300

 40
0.0
140
1.0
 94
        2
 62
     0
340
11
144
4.5
309
CONTENTFORMAT_END
171
     1
301
MARGIN
  1
CELLMARGIN_BEGIN
 40
1.5
 40
1.5
 40
1.5
 40
1.5
 40
1.5
 40
1.5
309
CELLMARGIN_END
 94
        6
 95
        1
302
GRIDFORMAT
  1
GRIDFORMAT_BEGIN
 90
        0
 91
        1
 62
     0
 92
       -2
340
14
 93
        0
 40
0.045
309
GRIDFORMAT_END
 95
        2
302
GRIDFORMAT
  1
GRIDFORMAT_BEGIN
 90
        0
 91
        1
 62
     0
 92
       -2
340
14
 93
        0
 40
0.045
309
GRIDFORMAT_END
 95
        4
302
GRIDFORMAT
  1
GRIDFORMAT_BEGIN
 90
        0
 91
        1
 62
     0
 92
       -2
340
14
 93
        0
 40
0.045
309
GRIDFORMAT_END
 95
        8
302
GRIDFORMAT
  1
GRIDFORMAT_BEGIN
 90
        0
 91
        1
 62
     0
 92
       -2
340
14
 93
        0
 40
0.045
309
GRIDFORMAT_END
 95
       16
302
GRIDFORMAT
  1
GRIDFORMAT_BEGIN
 90
        0
 91
        1
 62
     0
 92
       -2
340
14
 93
        0
 40
0.045
309
GRIDFORMAT_END
 95
       32
302
GRIDFORMAT
  1
GRIDFORMAT_BEGIN
 90
        0
 91
        1
 62
     0
 92
       -2
340
14
 93
        0
 40
0.045
309
GRIDFORMAT_END
309
TABLEFORMAT_END
  1
CELLSTYLE_BEGIN
 90
        3
 91
        2
300
_DATA
309
CELLSTYLE_END
  0
ENDSEC
  0
EOF
